#TITLE:Potluck;
#SUBTITLE:;
#ARTIST:sober bear;
#TITLETRANSLIT:;
#SUBTITLETRANSLIT:;
#ARTISTTRANSLIT:;
#GENRE:;
#CREDIT:;
#BANNER:Potluck-bn.png;
#BACKGROUND:Potluck-bg.png;
#LYRICSPATH:;
#CDTITLE:;
#MUSIC:Potluck.ogg;
#OFFSET:0.000000;
#SAMPLESTART:43.636002;
#SAMPLELENGTH:20.000000;
#SELECTABLE:YES;
#DISPLAYBPM:176.000000;
#BPMS:0.000000=176.000000
;
#STOPS:
;
#BGCHANGES:;
#KEYSOUNDS:;
#ATTACKS:;

//---------------dance-single - ----------------
#NOTES:
     dance-single:
     :
     Hard:
     13:
     0.596128,0.653267,0.091111,0.036444,0.027333,458.000000,448.000000,10.000000,4.000000,0.000000,0.000000,0.596128,0.653267,0.091111,0.036444,0.027333,458.000000,448.000000,10.000000,4.000000,0.000000,0.000000:
0000
0000
0000
0000
,
0000
0000
0000
0000
,
0000
0000
0000
0000
,
0000
0000
0000
0000
,
0000
0000
0000
0000
,
0000
0000
0000
0000
,
0000
0000
0000
0000
,
0000
0000
0000
0000
,
0000
0200
0000
0000
0000
0000
0000
0000
0000
0000
0000
0000
0000
0000
0000
0000
,
0000
0000
0000
0000
,
0000
0320
0000
0000
0000
0000
0000
0000
0000
0000
0000
0000
0000
0000
0000
0000
,
0000
0000
0000
0000
,
0000
2030
0000
0000
0000
0000
0000
0000
0000
0000
0000
0000
0000
0000
0000
0000
,
0000
0000
0000
0000
,
0000
3002
0000
0000
0000
0000
0000
0000
0000
0000
0000
0000
0000
0000
0000
0000
,
0000
0000
0000
0000
,
1003
0001
0010
0100
1000
0010
0100
0001
,
0000
0010
0001
1000
0001
0100
0010
1000
,
0001
1000
0001
0100
0010
1000
0001
0010
,
0000
0001
0100
0001
0010
0100
1000
0001
,
1000
0010
1000
0100
0010
0001
0100
0010
,
0000
0100
0001
0010
0100
1000
0010
1000
,
0100
0010
0001
0100
0001
0010
0100
1000
,
0000
0001
0100
0010
1000
0100
0010
0100
,
1000
0001
0100
0010
1000
0100
0010
0001
,
0000
0001
1000
0001
0010
0100
1000
0010
,
0100
0001
0100
0010
1000
0100
0010
0001
,
0000
0001
1000
0100
0010
0001
0100
0010
,
1000
0001
1000
0001
0010
0100
1000
0010
,
0000
0010
0100
0001
1000
0100
0010
0001
,
0100
0001
0100
0010
1000
0001
0010
0100
,
1000
1000
1000
1001
,
0110
0000
0001
0100
0010
1000
0100
0000
,
1000
0010
0001
0000
0100
0010
1000
0000
,
0001
0000
0010
0001
0100
0010
1000
0000
,
0100
0010
0001
0000
1000
0100
0001
0000
,
0010
0000
0100
0010
0001
0100
1000
0000
,
0001
1000
0010
0100
0001
0010
1000
0000
,
0100
0000
0010
0001
1000
0010
1000
0100
,
0010
0001
0100
0010
0001
0010
1000
0100
,
0010
0000
0001
0100
1000
0100
0001
0000
,
0010
0001
0100
0000
0001
0010
1000
0000
,
0100
0000
0010
1000
0010
0001
0100
0000
,
0010
1000
0001
0000
0100
0010
1000
0000
,
0100
0000
1000
0001
0010
0100
1000
0000
,
0010
0001
0010
0100
0010
1000
0010
0000
,
1000
0000
0100
0010
0001
0100
0010
1000
,
0100
0001
0100
0010
0001
1000
0010
0100
,
0001
0000
0011
1000
0100
0010
0001
0000
,
0100
1000
0001
0000
0010
0100
1000
0000
,
0010
0000
1010
1000
0001
0010
0100
0000
,
0010
0001
1000
0000
0100
0010
0001
0000
,
0100
0000
0101
1000
0001
0100
0010
0000
,
0100
1000
0100
0001
0010
0100
1000
0000
,
0001
0000
1100
0010
1000
0001
0100
0010
,
1000
0100
0010
0001
0010
0100
1000
0001
,
0100
0000
1001
0010
1000
0100
0001
0000
,
0010
0001
1000
0000
0010
1000
0100
0000
,
0010
0000
0110
0001
1000
0100
0010
0000
,
0001
0100
0010
0000
1000
0100
0001
0000
,
0010
0000
1100
0001
1000
0001
0100
0000
,
0010
0001
0010
1000
0100
0010
0001
0000
,
0100
0000
0011
1000
0100
1000
0010
0001
,
0010
1000
0100
0010
1000
0010
0001
0100
,
0010
1000
0100
0010
0001
1000
0001
0100
,
0000
0010
0100
0001
0010
1000
0010
0100
,
0000
0010
1000
0001
1000
0100
0010
0001
,
0000
0100
0010
1000
0100
0001
0100
0010
,
0000
0001
1000
0001
0010
0100
1000
0100
,
0000
0100
1000
0010
1000
0001
0010
0100
,
0000
1000
0010
0001
0010
1000
0100
0010
,
0000
0100
0010
0001
0100
1000
0100
0010
,
1000
0100
0001
0010
0010
0100
1000
0001
,
0001
1000
0100
0010
1000
0010
0001
0100
,
0100
0010
0001
1000
0010
0001
1000
0100
,
0010
0010
1000
0001
1000
0001
0100
0100
,
1000
0100
0010
0001
0010
0100
1000
0001
,
0100
1000
0010
0001
0100
0010
1000
0001
,
0100
1000
0010
0001
1000
0100
0010
0001
,
0100
0000
0000
0000
0000
0000
0010
0000
0000
1000
0000
0000
0010
0000
0100
0000
0001
0000
0000
0000
0000
0000
0000
0000
;

//---------------dance-single - ----------------
#NOTES:
     dance-single:
     :
     Medium:
     9:
     0.443842,0.507034,0.182222,0.255111,0.018222,341.000000,321.000000,20.000000,28.000000,0.000000,0.000000,0.443842,0.507034,0.182222,0.255111,0.018222,341.000000,321.000000,20.000000,28.000000,0.000000,0.000000:
0000
0000
0000
0000
,
0000
0000
0000
0000
,
0000
0000
0000
0000
,
0000
0000
0000
0000
,
0000
0000
0000
0000
,
0000
0000
0000
0000
,
0000
0000
0000
0000
,
0000
0000
0000
0000
,
0000
0200
0000
0000
0000
0000
0000
0000
0000
0000
0000
0000
0000
0000
0000
0000
,
0000
0000
0000
0000
,
0000
0320
0000
0000
0000
0000
0000
0000
0000
0000
0000
0000
0000
0000
0000
0000
,
0000
0000
0000
0000
,
0000
2030
0000
0000
0000
0000
0000
0000
0000
0000
0000
0000
0000
0000
0000
0000
,
0000
0000
0000
0000
,
0000
3002
0000
0000
0000
0000
0000
0000
0000
0000
0000
0000
0000
0000
0000
0000
,
0000
0000
0000
0000
,
0003
1000
0001
0010
0100
0000
1000
0000
,
0000
0010
1000
0001
0100
0000
0010
0000
,
0000
1000
0100
0010
0001
0000
0100
0000
,
0000
0010
0100
0001
1000
0000
0001
0000
,
0000
0010
0100
0010
0001
0000
1000
0000
,
0000
0001
0100
0001
1000
0000
0010
0000
,
0000
1000
0001
1000
0100
0000
0010
0000
,
0000
0100
1000
0100
0010
0000
0001
0000
,
0000
1000
0001
0010
0001
0000
0100
0000
,
0000
0001
0010
1000
0010
0000
0100
0000
,
0000
0010
0100
0001
0100
0000
1000
0000
,
0000
0010
1000
0100
1000
0000
0001
0000
,
0000
1000
0001
0010
0100
0000
0100
0000
,
0000
0010
0100
1000
0001
0000
0001
0000
,
0000
1000
0001
0100
0010
0000
0010
0000
,
1000
1000
1000
1001
,
0110
0000
0001
1000
0200
0000
0320
0000
,
0031
0100
0002
0000
2003
0000
3010
0000
,
0000
0000
1000
0100
0020
0000
0032
0000
,
0013
0001
0200
0000
0320
0000
1030
0000
,
0000
0000
0100
1000
0002
0000
0023
0000
,
0031
1000
0200
0000
2300
0000
3010
0000
,
0000
0000
0100
0010
1000
0000
0001
1000
,
0001
0010
0100
0000
1000
0010
0001
0000
,
0000
0000
0010
0001
2000
0000
3020
0000
,
1030
0001
0200
0000
0302
0000
0013
0000
,
0000
0000
0010
0100
2000
0000
3200
0000
,
0310
0100
0020
0000
0032
0000
1003
0000
,
0000
0000
0001
1000
0002
0000
0203
0000
,
0301
1000
0020
0000
2030
0000
3100
0000
,
0000
0000
0100
0010
0001
0000
1000
0001
,
1000
0010
0100
0000
0001
0010
1000
0000
,
0000
0000
1000
0001
0010
0000
1001
0000
,
0010
0001
1000
0000
1100
0000
0011
0000
,
0000
0000
0100
0010
1000
0000
0110
0000
,
0001
0010
1000
0000
0101
0000
1010
0000
,
0000
0000
0010
1000
0100
0000
0011
0000
,
0001
1000
0010
0000
1100
0000
0101
0000
,
0000
0000
0010
1000
0100
0000
0010
0001
,
1000
0010
0100
0000
0001
0010
1000
0000
,
0000
0000
0100
0010
0001
0000
0110
0000
,
0010
0001
1000
0000
0011
0000
1010
0000
,
0000
0000
0001
0100
1000
0000
1100
0000
,
0010
1000
0100
0000
0110
0000
1001
0000
,
0000
0000
0010
1000
0001
0000
0011
0000
,
0100
0010
0001
0000
1001
0000
0110
0000
,
0000
0000
0001
1000
0100
0000
1000
0010
,
1000
0100
0001
0000
0010
0100
1000
0000
,
0000
0001
1000
0001
0010
0000
0100
0000
,
0000
1000
0100
1000
0001
0000
0010
0000
,
0000
0010
0100
0010
0001
0000
1000
0000
,
0000
0100
1000
0100
0010
0000
0001
0000
,
0000
0001
0100
1000
0100
0000
0010
0000
,
0000
0100
0010
0001
0010
0000
1000
0000
,
0000
0010
1000
0001
1000
0000
0100
0000
,
0000
1000
0001
0100
0001
0000
0010
0000
,
0000
0001
0010
0100
1000
0000
0001
1000
,
0000
1000
0010
0100
0001
0000
0010
0100
,
0000
0010
0001
0100
0010
0000
1000
0001
,
0000
0001
1000
0100
1000
0000
0010
0100
,
0000
0010
1000
0100
0010
0000
0001
1000
,
0000
0001
1000
0001
0100
0000
0010
0100
,
0000
0001
0010
0100
1000
0000
0001
0100
,
0010
1000
0001
0000
;

//---------------dance-single - ----------------
#NOTES:
     dance-single:
     :
     Easy:
     6:
     0.291556,0.362167,0.072889,0.054667,0.018222,224.000000,216.000000,8.000000,6.000000,0.000000,0.000000,0.291556,0.362167,0.072889,0.054667,0.018222,224.000000,216.000000,8.000000,6.000000,0.000000,0.000000:
0000
0000
0000
0000
,
0000
0000
0000
0000
,
0000
0000
0000
0000
,
0000
0000
0000
0000
,
0000
0000
0000
0000
,
0000
0000
0000
0000
,
0000
0000
0000
0000
,
0000
0000
0000
0000
,
0000
0200
0000
0000
0000
0000
0000
0000
0000
0000
0000
0000
0000
0000
0000
0000
,
0000
0300
0000
0000
0000
0000
0000
0000
0000
0000
0000
0000
0000
0000
0000
0000
,
0000
0020
0000
0000
0000
0000
0000
0000
0000
0000
0000
0000
0000
0000
0000
0000
,
0000
0030
0000
0000
0000
0000
0000
0000
0000
0000
0000
0000
0000
0000
0000
0000
,
0000
2000
0000
0000
0000
0000
0000
0000
0000
0000
0000
0000
0000
0000
0000
0000
,
0000
3000
0000
0000
0000
0000
0000
0000
0000
0000
0000
0000
0000
0000
0000
0000
,
0000
0002
0000
0000
0000
0000
0000
0000
0000
0000
0000
0000
0000
0000
0000
0000
,
0000
0003
0000
0000
0000
0000
0000
0000
0000
0000
0000
0000
0000
0000
0000
0000
,
0000
1000
0100
0010
,
0000
0001
1000
0010
,
0000
0100
0001
1000
,
0000
0100
0010
0001
,
0000
0010
0001
0010
,
0000
0001
1000
0001
,
0000
1000
0100
1000
,
0000
0010
1000
0010
,
0000
0001
0100
0001
,
0000
0010
0100
0010
,
0000
1000
1000
1000
,
0000
0001
0001
0001
,
0000
0100
0100
0100
,
0000
0010
0010
0010
,
0000
1000
0100
0010
,
0002
0000
0000
0003
,
0000
0010
1000
0001
,
0100
0100
0010
1000
,
0000
0100
0010
0001
,
1000
1000
0001
0100
,
0000
0010
1000
0001
,
0010
0010
0001
0100
,
0000
0100
0010
1000
,
0100
0001
1000
0001
,
0000
0010
0100
1000
,
0001
0001
0100
1000
,
0000
0001
1000
0100
,
0010
0010
0001
1000
,
0000
0001
0100
0010
,
0100
0100
0001
0010
,
0000
1000
0100
0010
,
0001
0100
0010
1000
,
0000
1001
0010
1000
,
0100
0010
0001
0100
,
0000
0110
0001
0010
,
0001
0100
0010
1000
,
0000
1100
1000
0001
,
1000
0010
0100
0001
,
0000
0011
0010
0001
,
0100
1000
0001
0100
,
0000
0110
0001
0010
,
1000
0001
1000
0100
,
0000
1100
1000
0001
,
0010
0100
1000
0010
,
0000
1001
1000
0001
,
1000
0100
0010
0001
,
0000
0011
0001
0100
,
1000
0001
0010
0100
,
0000
1000
0010
1000
,
0000
0100
0010
0001
,
0000
0100
0001
0100
,
0000
0001
0010
1000
,
0000
0001
0010
0001
,
0000
0010
0100
1000
,
0000
1000
0100
1000
,
0000
0001
1000
0100
,
1000
0010
0001
0100
,
0010
1000
0100
0010
,
0100
1000
0010
0001
,
1000
0001
1000
0100
,
0010
0001
0100
0010
,
1000
0001
1000
0100
,
0010
0001
1000
0010
,
0200
0000
0301
0000
;

//---------------dance-single - ----------------
#NOTES:
     dance-single:
     :
     Beginner:
     2:
     0.118445,0.179945,0.072889,0.000000,0.018222,91.000000,83.000000,8.000000,0.000000,0.000000,0.000000,0.118445,0.179945,0.072889,0.000000,0.018222,91.000000,83.000000,8.000000,0.000000,0.000000,0.000000:
// measure 0
0000
0000
0000
0000
,  // measure 1
0000
0000
0000
0000
,  // measure 2
0000
0000
0000
0000
,  // measure 3
0000
0000
0000
0000
,  // measure 4
0000
0000
0000
0000
,  // measure 5
0000
0000
0000
0000
,  // measure 6
0000
0000
0000
0000
,  // measure 7
0000
0000
0000
0000
,  // measure 8
0000
0100
0000
0000
0000
0000
0000
0000
0000
0000
0000
0000
0000
0000
0000
0000
,  // measure 9
0000
0000
0000
0000
,  // measure 10
0000
0010
0000
0000
0000
0000
0000
0000
0000
0000
0000
0000
0000
0000
0000
0000
,  // measure 11
0000
0000
0000
0000
,  // measure 12
0000
1000
0000
0000
0000
0000
0000
0000
0000
0000
0000
0000
0000
0000
0000
0000
,  // measure 13
0000
0000
0000
0000
,  // measure 14
0000
0001
0000
0000
0000
0000
0000
0000
0000
0000
0000
0000
0000
0000
0000
0000
,  // measure 15
0000
0000
0000
0000
,  // measure 16
0000
0000
0010
0000
,  // measure 17
0000
0000
0010
0000
,  // measure 18
0000
0000
0001
0000
,  // measure 19
0000
0000
0001
0000
,  // measure 20
0000
0000
1000
0000
,  // measure 21
0000
0000
1000
0000
,  // measure 22
0000
0000
0100
0000
,  // measure 23
0000
0000
0100
0000
,  // measure 24
0000
0000
1000
0000
,  // measure 25
0000
0000
1000
0000
,  // measure 26
0000
0000
0001
0000
,  // measure 27
0000
0000
0001
0000
,  // measure 28
0000
0000
0100
0000
,  // measure 29
0000
0000
0100
0000
,  // measure 30
0000
0000
0010
0000
,  // measure 31
0000
0000
0000
0000
,  // measure 32
0000
1000
0000
0000
,  // measure 33
0100
0000
0100
0000
,  // measure 34
0000
0010
0000
0000
,  // measure 35
0001
0000
0001
0000
,  // measure 36
0010
0000
0000
0000
,  // measure 37
0100
0000
0100
0000
,  // measure 38
0000
1000
0000
0000
,  // measure 39
0001
0000
0001
0000
,  // measure 40
0000
0001
0000
0000
,  // measure 41
1000
0000
1000
0000
,  // measure 42
0000
0100
0000
0000
,  // measure 43
1000
0000
1000
0000
,  // measure 44
0000
0010
0000
0000
,  // measure 45
0100
0000
0100
0000
,  // measure 46
0000
0001
0000
0000
,  // measure 47
0010
0000
0010
0000
,  // measure 48
0000
0001
0000
0000
,  // measure 49
1000
0000
0100
0000
,  // measure 50
0000
0010
0000
0000
,  // measure 51
0001
0000
0100
0000
,  // measure 52
0000
0010
0000
0000
,  // measure 53
1000
0000
0001
0000
,  // measure 54
0000
0010
0000
0000
,  // measure 55
0100
0000
1000
0000
,  // measure 56
0000
1000
0000
0000
,  // measure 57
0001
0000
0100
0000
,  // measure 58
0000
0010
0000
0000
,  // measure 59
0100
0000
0001
0000
,  // measure 60
0000
1000
0000
0000
,  // measure 61
0010
0000
1000
0000
,  // measure 62
0000
0100
0000
0000
,  // measure 63
0010
0000
0001
0000
,  // measure 64
0100
0000
0000
0000
,  // measure 65
0110
0000
0000
0000
,  // measure 66
0001
0000
0000
0000
,  // measure 67
1001
0000
0000
0000
,  // measure 68
1000
0000
0000
0000
,  // measure 69
0110
0000
0000
0000
,  // measure 70
0010
0000
0000
0000
,  // measure 71
1001
0000
0000
0000
,  // measure 72
0100
0000
0000
0000
,  // measure 73
1001
0000
0000
0000
,  // measure 74
0010
0000
0000
0000
,  // measure 75
0110
0000
0000
0000
,  // measure 76
1000
0000
0000
0000
,  // measure 77
1001
0000
0000
0000
,  // measure 78
0110
0000
0000
0000
,  // measure 79
0001
0000
0000
0000
;
