#TITLE:Party Lights;
#SUBTITLE:;
#ARTIST:Tommie Sunshine;
#TITLETRANSLIT:;
#SUBTITLETRANSLIT:;
#ARTISTTRANSLIT:;
#GENRE:;
#CREDIT:;
#BANNER:Party Lights.png;
#BACKGROUND:Party Lights-bg.png;
#LYRICSPATH:;
#CDTITLE:;
#MUSIC:Party Lights.ogg;
#OFFSET:0.000000;
#SAMPLESTART:23.306000;
#SAMPLELENGTH:20.000000;
#SELECTABLE:YES;
#DISPLAYBPM:130.000000;
#BPMS:0.000000=130.434998
,4.000000=130.001007
;
#STOPS:
;
#BGCHANGES:;
#KEYSOUNDS:;
#ATTACKS:;

//---------------dance-single - ----------------
#NOTES:
     dance-single:
     :
     Beginner:
     2:
     0.118431,0.182278,0.010628,0.000000,0.000000,78.000000,77.000000,1.000000,0.000000,0.000000,0.000000,0.118431,0.182278,0.010628,0.000000,0.000000,78.000000,77.000000,1.000000,0.000000,0.000000,0.000000:
0000
0000
0000
0000
,
0000
0000
0000
0000
,
0000
0000
0000
0000
,
0001
0000
0000
0000
,
1000
0000
0000
0000
,
0001
0000
0000
0000
,
1000
0000
0000
0000
,
0001
0000
0000
0000
,
1000
0000
0000
0000
,
1000
0000
1000
0000
,
0001
0000
0001
0000
,
0100
0000
0000
0000
,
1000
0000
1000
0000
,
0001
0000
0001
0000
,
0010
0000
0000
0000
,
0001
0000
0001
0000
,
0100
0000
0000
0000
,
1000
0000
0001
0000
,
0010
0000
0000
0000
,
0001
0000
1000
0000
,
0001
0000
1000
0000
,
0010
0000
0000
0000
,
0010
0000
0000
0000
,
0001
0000
1000
0000
,
0100
0000
0100
0000
,
0010
0000
0010
0000
,
0000
0000
0000
0000
,
0010
0000
0010
0000
,
0000
0000
0000
0000
,
0001
0000
0001
0000
,
0001
0001
0001
0000
,
1000
0000
1000
0000
,
1000
1000
1000
0000
,
0001
0000
1000
0000
,
0001
0000
1000
0000
,
0100
0000
0100
0000
,
0010
0000
0000
0000
,
1000
0000
0100
0000
,
1000
0000
0100
0000
,
0001
0000
0100
0000
,
0010
0000
0000
0000
,
0001
0000
1000
0000
,
0010
0000
0000
0000
,
0100
0000
1000
0000
,
0010
0000
0000
0000
,
0100
0000
0100
0000
,
0100
0100
0100
0000
,
1000
0000
1000
0000
,
0001
0001
0001
0000
,
1001
0000
0000
0000
,
0000
0000
0000
0000
;

//---------------dance-single - ----------------
#NOTES:
     dance-single:
     :
     Easy:
     4:
     0.179165,0.234358,0.010628,0.382625,0.000000,118.000000,117.000000,1.000000,36.000000,0.000000,0.000000,0.179165,0.234358,0.010628,0.382625,0.000000,118.000000,117.000000,1.000000,36.000000,0.000000,0.000000:
0000
0000
0000
0000
,
0000
0000
0000
0000
,
0000
0000
0000
0000
,
0001
0000
1000
0000
,
0001
0000
1000
0000
,
0001
1000
0000
1000
,
0001
1000
0000
1000
,
0001
1000
0000
0100
,
1000
0001
0000
0001
,
1000
0100
0000
0000
,
0001
0010
0000
0000
,
0100
0001
1000
0000
,
1000
0010
0001
0000
,
2000
3000
0002
0003
,
2000
0000
3001
0000
,
0002
0003
2000
3000
,
0002
0000
1003
0000
,
0200
0300
0002
0003
,
2000
0000
3100
0000
,
0020
0030
2000
3000
,
0002
0000
0103
0000
,
0010
0010
0010
0010
,
0010
0010
0010
0010
,
0001
0001
1000
1000
,
0100
0100
0100
0100
,
0010
0000
0020
0030
,
0100
0000
0200
0300
,
0001
0000
0002
0003
,
1000
0000
2000
3000
,
0100
0000
0001
0000
,
0010
1000
0100
0000
,
0100
0000
0000
0000
,
0100
0001
1000
0010
,
0002
0003
2000
3000
,
0002
0000
1003
0000
,
0200
0300
0020
0030
,
0200
0000
0310
0000
,
0200
0300
0002
0003
,
2000
0000
3100
0000
,
0020
0030
2000
3000
,
0002
0000
0103
0000
,
0002
0003
2000
3000
,
0010
1000
0001
0100
,
0020
0030
0200
0300
,
0001
0010
1000
0100
,
0002
0003
0200
0300
,
1000
0010
0001
0100
,
2000
3000
0020
0030
,
0001
0100
0001
1000
,
1001
0000
0000
0000
,
0000
0000
0000
0000
;

//---------------dance-single - ----------------
#NOTES:
     dance-single:
     :
     Medium:
     6:
     0.282413,0.312477,0.138170,0.340111,0.000000,186.000000,173.000000,13.000000,32.000000,0.000000,0.000000,0.282413,0.312477,0.138170,0.340111,0.000000,186.000000,173.000000,13.000000,32.000000,0.000000,0.000000:
0000
0000
0000
0000
,
0000
0000
0000
0000
,
0000
0000
0000
0000
,
0001
0001
1000
1000
,
0001
0001
1000
1000
,
0001
1000
0001
1000
,
1000
0001
1000
0001
,
0001
1000
0100
0100
,
1000
0001
0100
0100
,
1100
0100
0011
0000
,
0011
0010
1100
0000
,
0101
0001
1010
0000
,
1010
0000
0010
0000
1001
0000
0010
0001
,
0000
0000
1000
0001
0000
0000
0100
0001
,
0000
2000
0000
3001
0000
0000
0010
0100
,
0000
0000
1000
0100
0000
0000
0001
0100
,
0000
0020
0000
0130
0000
0000
1000
0010
,
0000
0000
0100
0010
0000
0000
0001
0010
,
0000
0200
0000
0310
0000
0000
0001
1000
,
0000
0000
0010
1000
0000
0000
0100
1000
,
0000
0002
0000
1003
0000
0000
0000
0000
,
0010
0010
0010
0010
,
0010
0110
0010
0110
,
0001
0001
1000
1000
,
0100
0010
1001
1001
,
0100
0001
0200
0300
,
0010
1000
0020
0030
,
0100
0001
2000
3000
,
0010
1000
0002
0003
,
0010
1000
0020
0030
,
0100
0001
0200
0300
,
0010
1000
0002
0003
,
0100
0000
0001
0000
1000
0000
0010
1000
,
0000
0000
0001
1000
0000
0000
0100
1000
,
0000
0002
0000
1003
0000
0000
0010
0100
,
0000
0000
0001
0100
0000
0000
1000
0100
,
0000
0020
0000
0130
0000
0000
0001
0010
,
0000
0000
0100
0010
0000
0000
1000
0010
,
0000
0200
0000
0310
0000
0000
1000
0001
,
0000
0000
0010
0001
0000
0000
0100
0001
,
0000
2000
0000
3001
0000
0000
0020
0100
,
0030
0000
2000
0100
3000
0000
0002
0100
,
0003
0200
0000
0310
0000
0000
2000
0010
,
3000
0000
0200
0001
0300
0000
0020
0001
,
0030
0002
0000
1003
0000
0000
0200
0010
,
0300
0000
0002
0010
0003
0000
2000
0010
,
3000
0020
0000
0130
0000
0000
0002
1000
,
0003
0000
0020
0100
0030
0000
0002
1000
,
0000
2003
0000
0002
0000
0000
3003
0000
,
1001
0000
0000
0000
,
0000
0000
0000
0000
;

//---------------dance-single - ----------------
#NOTES:
     dance-single:
     :
     Hard:
     10:
     0.463097,0.520795,0.584565,0.595194,0.079713,305.000000,250.000000,55.000000,56.000000,0.000000,0.000000,0.463097,0.520795,0.584565,0.595194,0.079713,305.000000,250.000000,55.000000,56.000000,0.000000,0.000000:
// measure 0
0000
0000
0000
0000
,  // measure 1
0000
0000
0000
0000
,  // measure 2
0000
0000
0000
0000
,  // measure 3
1000
1000
0001
0001
,  // measure 4
1000
1000
0001
0001
,  // measure 5
1000
0100
0001
0000
1000
0000
0001
0000
,  // measure 6
0001
0100
1000
0000
0001
0000
1000
0000
,  // measure 7
1000
0100
0001
0000
0010
0000
0010
0000
,  // measure 8
0001
0100
1000
0000
0010
0000
0010
1000
,  // measure 9
1000
0000
0001
0000
0100
0000
0000
0110
0000
0000
0000
0000
0101
0000
0010
0000
,  // measure 10
0010
0000
1000
0000
0100
0000
0000
1001
0000
0000
0000
0000
0110
0000
1000
0000
,  // measure 11
0001
0000
1000
0000
0100
0000
0000
0011
0000
0000
0000
0000
1100
0000
0001
0000
,  // measure 12
0001
0000
1000
0000
0100
0000
0000
1100
0000
0000
0000
0000
0001
0000
1002
0000
,  // measure 13
0000
0000
1003
2000
0000
0000
3001
1002
,  // measure 14
0000
2003
0000
0002
3003
0000
0010
0120
,  // measure 15
0000
0000
0130
0210
0000
0000
0310
0120
,  // measure 16
0000
0230
0000
0020
0330
0000
0010
2100
,  // measure 17
0000
0000
3010
0102
0000
0000
0013
2100
,  // measure 18
0000
3002
0000
0200
0303
0000
0100
2002
,  // measure 19
0000
3003
0010
2002
0000
3003
0120
0100
,  // measure 20
0000
0100
0000
0200
0000
0000
0330
0000
,  // measure 21
0001
0001
0001
1000
1000
1000
0010
0010
,  // measure 22
0110
0000
0000
1100
0000
0000
0011
0000
0000
0110
0000
0000
1001
0000
0000
0100
,  // measure 23
0010
0010
0010
1000
1000
1000
0001
0001
,  // measure 24
0001
0000
0000
0000
0010
0000
0000
0000
0100
0000
0000
0000
1000
0000
0000
0000
0010
0000
0000
0000
0100
0000
0000
0000
0001
0000
0000
0000
0000
0000
0000
0000
0000
0110
0000
0000
0000
0000
0000
0000
0000
0000
1001
0000
0000
0000
0000
0000
,  // measure 25
1000
1000
0020
0000
0130
0000
2000
0000
,  // measure 26
3010
0100
0002
0000
0103
0100
1001
1001
,  // measure 27
0020
0031
2000
3010
,  // measure 28
0200
0301
2000
3100
,  // measure 29
0001
1000
0010
0001
0100
0010
0100
0001
,  // measure 30
0010
0100
1000
0010
0001
1000
0001
0000
,  // measure 31
1000
0000
0001
0000
0100
0000
1000
0000
0010
0000
0100
0001
0100
0000
0010
0000
,  // measure 32
0100
0000
0001
0000
1000
0000
0010
0000
1000
0001
1000
0001
1000
0000
2001
0000
,  // measure 33
0000
0000
3001
0002
0000
0000
1003
2001
,  // measure 34
0000
3002
0000
2000
3003
0000
0010
0120
,  // measure 35
0000
0000
0130
0210
0000
0000
0310
0120
,  // measure 36
0000
0230
0000
0020
0330
0000
0010
0102
,  // measure 37
0000
0000
0013
2100
0000
0000
3010
0102
,  // measure 38
0000
2003
0000
0200
3300
0000
0100
2002
,  // measure 39
0000
3003
0010
2002
0000
3003
0120
0100
,  // measure 40
0000
0100
0000
0130
0000
0000
0001
0010
,  // measure 41
0102
0000
0103
0010
2001
0000
3100
0010
,  // measure 42
1001
0100
0010
1001
0000
0000
0010
1000
,  // measure 43
0021
0000
0031
1000
0210
0000
0301
1000
,  // measure 44
0110
0001
1000
0110
0000
0000
1000
0100
,  // measure 45
2010
0000
3010
0100
1002
0000
0013
0100
,  // measure 46
1001
0010
0100
1001
0000
0000
0100
0010
,  // measure 47
1002
0000
1003
0100
0120
0000
0130
0100
,  // measure 48
1001
1000
0001
1001
0000
0001
0100
1000
,  // measure 49
0110
0000
0000
0000
;

//---------------dance-double - ----------------
#NOTES:
     dance-double:
     :
     Easy:
     5:
     0.209533,0.286437,0.223198,0.000000,0.000000,138.000000,117.000000,21.000000,0.000000,0.000000,0.000000,0.209533,0.286437,0.223198,0.000000,0.000000,138.000000,117.000000,21.000000,0.000000,0.000000,0.000000:
00000000
00000000
00000000
00000000
,
00000000
00000000
00000000
00000000
,
00000000
00000000
00000000
00000000
,
10000000
00000000
10000000
00000000
,
00010000
00000000
00010000
00000000
,
00100000
00000000
00100000
00000000
,
00001000
00000000
00001000
00000000
,
00010000
00000000
00010000
00000000
,
00000010
00000000
00000010
00000000
,
00000100
00000001
00000100
00000000
,
00001000
00010000
00001000
00000000
,
01000000
00100000
01000000
00000000
,
00010000
10000000
00010000
00000000
,
10010000
00000000
00100000
00000000
,
00110000
00000000
00001000
00000000
,
00001010
00000000
00000100
00000000
,
00001001
00000000
00000010
00000000
,
00001100
00000000
00010000
00000000
,
01010000
00000000
00100000
00000000
,
10010000
00000000
01000000
00000000
,
00011000
00000000
00000100
00000000
,
00000001
00000001
00000001
00000001
,
00000100
00000000
00000100
00000000
,
00010000
00010000
00010000
00010000
,
01000000
01000000
01000000
00100000
,
10000000
00000000
10000000
00000000
,
00010000
00000000
00010000
00000000
,
00100000
00000000
00100000
00000000
,
00001000
00000000
00001000
00000000
,
00010000
00000000
00010000
00000000
,
00000010
00000010
00000010
00000000
,
00000100
00000000
00000100
00000000
,
00000001
00000001
00000001
00000000
,
00001001
00000000
00000100
00000000
,
00001010
00000000
00001000
00000000
,
00011000
00000000
01000000
00000000
,
01100000
00000000
10000000
00000000
,
01010000
00000000
00100000
00000000
,
00011000
00000000
00000010
00000000
,
00000101
00000000
00001000
00000000
,
00001010
00000000
00010000
00000000
,
00010000
01000000
00000000
10000000
,
00100000
00010000
00000000
00011000
,
00001000
00000100
00000000
00000001
,
00000010
00001000
00000000
00011000
,
00010000
01000000
10000000
00100000
,
00010000
00010000
00010000
00011000
,
00001000
00000100
00000001
00000010
,
00001000
00001000
00001000
00011000
,
00011000
00000000
00000000
00000000
,
00000000
00000000
00000000
00000000
;

//---------------dance-double - ----------------
#NOTES:
     dance-double:
     :
     Medium:
     6:
     0.277858,0.286437,0.106285,0.201941,0.000000,183.000000,173.000000,10.000000,19.000000,0.000000,0.000000,0.277858,0.286437,0.106285,0.201941,0.000000,183.000000,173.000000,10.000000,19.000000,0.000000,0.000000:
00000000
00000000
00000000
00000000
,
00000000
00000000
00000000
00000000
,
00000000
00000000
00000000
00000000
,
00000001
00000001
00001000
00000100
,
00010000
00010000
01000000
10000000
,
00010000
00000000
01000000
00200000
00000000
00000000
00310000
00000000
,
00001000
00000100
00000001
00000100
,
00000010
00000000
00000100
00000001
00000000
00000001
00000100
00000000
,
00001000
00010000
01000000
10000000
,
00010000
01000000
01010000
00000000
,
00100000
00001000
00011000
00000000
,
00010000
00000100
00001100
00000000
,
00000010
00000000
00000001
00000000
00001001
00000000
00000010
00000100
,
00000000
00000000
00001000
00000100
00000000
00000000
00010000
00001000
,
00000000
00020000
00000000
00031000
00000000
00000000
00100000
01000000
,
00000000
00000000
10000000
01000000
00000000
00000000
00010000
00001000
,
00000000
00020000
00000000
00031000
00000000
00000000
00000010
00000001
,
00000000
00000000
00000100
00001000
00000000
00000000
00010000
00100000
,
00000000
20000000
00000000
30010000
00000000
00000000
00100000
10000000
,
00000000
00000000
01000000
00010000
00000000
00000000
00001000
00000010
,
00000000
00000002
00000000
00002000
00000000
00000000
00003003
00000000
,
00000010
00000010
00000010
00000010
,
00000010
00001001
00000100
00011000
,
00100000
00100000
00100000
00100000
,
10000000
01000000
00010000
00000000
,
00001000
00000001
00002000
00003000
,
00000010
00010000
00000200
00000300
,
00010000
00001000
00200000
00300000
,
00010000
10000000
00020000
00030000
,
01000000
00100000
02000000
03000000
,
00001000
00010000
00002000
00003000
,
00000100
00000010
00000200
00000300
,
00000001
00000000
00001000
00000000
00000002
00000000
00000103
00000010
,
00000000
00000000
00001000
00000010
00000000
00000000
00010000
00001000
,
00000000
00020000
00000000
00031000
00000000
00000000
01000000
00100000
,
00000000
00000000
10000000
00100000
00000000
00000000
00010000
00001000
,
00000000
00020000
00000000
00031000
00000000
00000000
00000100
00000001
,
00000000
00000000
00000010
00001000
00000000
00000000
00010000
01000000
,
00000000
20000000
00000000
30010000
00000000
00000000
01000000
10000000
,
00000000
00000000
00100000
00010000
00000000
00000000
00001000
00000100
,
00000000
00000002
00000000
00002000
00000000
00000000
00003003
00000000
,
00000010
00001000
00010000
00100000
,
01000000
10000000
00100000
10010000
,
00001000
00000100
00000001
00000010
,
00010000
00001000
00100000
01100000
,
10000000
01000000
00010000
00001000
,
00000100
00000001
00000010
00000100
,
00001000
00011000
00010000
01000000
,
00100000
10000000
01000000
00010000
,
00011000
00000000
00000000
00000000
,
00000000
00000000
00000000
00000000
;

//---------------dance-double - ----------------
#NOTES:
     dance-double:
     :
     Hard:
     10:
     0.394771,0.468715,0.180684,0.573937,0.037200,260.000000,243.000000,17.000000,54.000000,0.000000,0.000000,0.394771,0.468715,0.180684,0.573937,0.037200,260.000000,243.000000,17.000000,54.000000,0.000000,0.000000:
00000000
00000000
00000000
00000000
,
00000000
00000000
00000000
00000000
,
00000000
00000000
00000000
00000000
,
00000010
00000000
00000001
00000000
00000100
00000000
00001000
00010000
,
01000000
10000000
00100000
01000000
,
00020000
01000000
10000000
00100000
,
00032000
00000100
00000001
00000010
,
00023000
01000000
10000000
00100000
,
00032000
00000100
00000001
00000010
,
00013000
01000000
10000000
00000000
00020000
00000000
00130000
01000000
,
00001000
00000100
00000001
00000000
00002000
00000000
00003010
00000100
,
00010000
00100000
10000000
00000000
00020000
00000000
00130000
01000000
,
00001000
00000010
00000001
00000000
00002000
00000000
00003010
00000200
,
00000000
00000301
00000010
00002000
00000000
00003010
00000001
00000200
,
00000000
00001300
00010000
00002000
00000000
00000000
00103000
02000000
,
00000000
13000000
00100000
00020000
00000000
00130000
10000000
02000000
,
00000000
03010000
00001000
00020000
00000000
00000000
00030100
00000020
,
00000000
00000031
00000100
00002000
00000000
00003100
00000001
00000020
,
00000000
00001030
00010000
00002000
00000000
00000000
01003000
00200000
,
00000000
10300000
01000000
00020000
00000000
01030000
10000000
00200000
,
00000000
00310000
00001000
00020000
00000000
00000000
00030100
00000000
,
00000010
00000000
00000010
00000000
00000010
00000000
00000010
00001000
,
00010000
00000000
00000000
00100000
00000000
00000000
10000000
00000000
00000000
01000000
00000000
00000000
00010000
00000000
00000000
00000000
,
00000100
00000000
00000100
00000000
00000100
00000000
00000100
00001000
,
00010000
00000000
00000000
00000000
00001000
00000000
00000000
00000000
00010000
00000000
00000000
00000000
00001000
00000000
00000000
00000000
00010000
00000000
00000000
00000000
00001000
00000000
00000000
00000000
00010000
00000000
00000000
00000000
00000000
00000000
00000000
00000000
00000000
00001000
00000000
00000000
00000000
00000000
00000000
00000000
00000000
00000000
00000110
00000000
00000000
00000000
00000000
00000000
,
00002000
00000100
00000001
00000010
,
00023000
01000000
10000000
00100000
,
00032000
00000100
00000001
00000010
,
00023000
01000000
10000000
00100000
,
00031000
00000100
00000001
00000000
00002000
00000000
00003010
00000100
,
00010000
01000000
10000000
00000000
00020000
00000000
00130000
01000000
,
00001000
00000010
00000001
00000000
00002000
00000000
00003010
00000100
,
00010000
00100000
10000000
00000000
00020000
00000000
00130000
02000000
,
00000000
13000000
00100000
00020000
00000000
00130000
10000000
02000000
,
00000000
03010000
00001000
00020000
00000000
00000000
00030010
00000200
,
00000000
00000301
00000010
00002000
00000000
00003010
00000001
00000200
,
00000000
00001300
00010000
00002000
00000000
00000000
01003000
00200000
,
00000000
10300000
01000000
00020000
00000000
01030000
10000000
00200000
,
00000000
00310000
00001000
00020000
00000000
00000000
00030100
00000020
,
00000000
00000031
00000100
00002000
00000000
00003100
00000001
00000020
,
00000000
00001030
00010000
00002000
00000000
00000000
02003000
00000000
,
03010000
01010000
10010000
00110000
,
00011000
00001100
00001001
00001010
,
00011000
01010000
10010000
00110000
,
00011000
00001100
00001001
00001010
,
00010000
01000000
20000000
00000000
31000000
00010000
00002000
00000000
,
00013000
00001000
00000100
00000001
00000010
00000001
00000200
00000000
,
00010300
00100000
20000000
00000000
30100000
00010000
00002000
00000000
,
00013000
00001000
00000100
00000001
00000010
00001000
00010000
00001000
,
00011000
00000000
00000000
00000000
,
00000000
00000000
00000000
00000000
;

//---------------dance-single - ----------------
#NOTES:
     dance-single:
     :
     Challenge:
     12:
     0.578492,0.581643,0.350739,0.191312,0.233826,381.000000,348.000000,33.000000,18.000000,0.000000,0.000000,0.578492,0.581643,0.350739,0.191312,0.233826,381.000000,348.000000,33.000000,18.000000,0.000000,0.000000:
0000
0000
0000
0000
,
0000
0000
0000
0000
,
0000
0000
0000
0000
,
0001
0000
1000
0000
0001
0100
0000
0010
1000
0000
0000
0000
0010
0000
0100
0000
,
0010
0000
1000
0000
0010
0100
0000
0001
1000
0000
0000
0000
0001
0000
0100
0000
,
0110
0000
0000
0000
1000
0000
1001
0000
0000
0000
0000
0001
0100
0000
0010
0000
,
1000
0000
0001
0000
1000
0100
0000
0010
0001
0000
0000
0000
0100
0000
0010
0000
,
1010
0000
1000
1100
0000
0001
0101
0000
,
0010
0000
1000
0000
0100
0010
0000
0001
0100
0000
0000
0000
0001
0000
1000
0000
,
0010
0000
1000
0000
0001
0100
0000
0100
0010
0000
0000
0000
1000
0000
0001
0000
,
0100
0000
0001
0000
0010
0001
0000
1000
0010
0000
0000
0000
1000
0000
0100
0000
,
1000
0000
0010
0000
1000
0100
0000
0010
0001
0000
0000
0000
0001
0000
0100
0000
,
0010
0000
1000
0000
0100
0010
0000
0100
1000
0000
0000
0000
0001
0000
0001
0000
,
1002
0000
0103
0010
2010
0000
3001
0100
,
0010
1000
0100
0010
0001
0100
0010
1000
,
2100
0000
3001
0100
0201
0000
0310
1000
,
0001
1000
0100
0010
0001
1000
0010
0100
,
0120
0000
1030
0010
2010
0000
3001
0100
,
0010
1000
0100
0001
1000
0010
0100
0001
,
0012
0000
1003
0001
0201
0000
0310
0100
,
1000
0001
0010
0001
0100
0010
1000
0000
,
1001
0001
1000
1000
0100
0100
0010
0010
,
0011
0000
0000
1100
0000
0000
0110
0000
0000
0101
0000
0000
1010
0000
0000
1000
,
0100
0100
1000
1000
0001
0001
0010
0010
,
0001
0000
0000
0000
0100
0000
0000
0000
0001
0000
0000
0000
1000
0000
0000
0000
0100
0000
0000
0000
1000
0000
0000
0000
0010
0000
0000
0000
0000
0000
0000
0000
0000
0010
0000
0000
0000
0000
0000
0000
0000
0000
0010
0000
0000
0000
0000
0000
,
0110
0000
0000
0000
1000
0000
1100
0000
0001
0000
0000
0100
0001
0000
1000
0000
,
0010
0000
1000
0000
0100
0010
0000
0010
0001
0000
0000
0000
1000
0000
0001
0000
,
0011
0000
1000
1010
0000
0001
0101
0000
,
0001
0000
1000
0000
0100
1000
0000
0001
0010
0000
0000
0000
0010
0000
0100
0000
,
1000
0000
0000
0000
0001
0100
0000
0001
0010
0000
0001
0000
0100
0000
1000
0000
,
0010
0000
0000
0000
1000
0001
0000
0001
0100
0000
0010
0000
1000
0000
0100
0000
,
1000
0000
0000
0000
0001
1000
0000
0001
0100
0000
0010
1000
0010
0000
0100
0000
,
0001
0000
0000
0000
1000
0100
0000
1000
0010
0100
0010
0100
0010
0100
0001
0000
,
0012
0000
0103
0010
0120
0000
1030
0001
,
0010
1000
0001
0100
0001
1000
0010
0100
,
2001
0000
3001
0010
0102
0000
0103
1000
,
0010
0100
1000
0100
0010
0001
1000
0001
,
0012
0000
1003
0001
2010
0000
3010
0100
,
0001
0100
0010
0100
0010
1000
0001
1000
,
2010
0000
3001
1000
0210
0000
0310
0100
,
0010
0000
1000
0000
0100
0000
0010
0000
0100
0000
0010
0000
0001
1000
0001
1000
,
0001
1000
0010
0100
0001
0010
0100
1000
,
0010
1000
0100
1000
0010
0001
1000
0100
,
0001
0100
1000
0010
1000
0100
0001
0010
,
0001
0010
1000
0001
0100
0001
0010
1000
,
0001
0100
0010
0100
1000
0001
1000
0010
,
0100
0010
0100
1000
0010
0001
0010
1000
,
0010
1000
0010
0100
0001
0100
1000
0100
,
0001
1000
0010
0001
0100
0010
1000
0001
,
2002
0000
0000
3003
;
