#TITLE:Party Lights (Tommie Sunshine’s Brooklyn Fire Remix);
#SUBTITLE:;
#ARTIST:Tommie Sunshine;
#TITLETRANSLIT:;
#SUBTITLETRANSLIT:;
#ARTISTTRANSLIT:;
#GENRE:;
#CREDIT:;
#BANNER:Party Lights (Tommie Sunshine's Brooklyn Fire Remix).png;
#BACKGROUND:Party Lights (Tommie Sunshine's Brooklyn Fire Remix)-bg.png;
#LYRICSPATH:;
#CDTITLE:;
#MUSIC:Party Lights (Tommie Sunshine's Brooklyn Fire Remix).ogg;
#OFFSET:0.000000;
#SAMPLESTART:23.400999;
#SAMPLELENGTH:15.000000;
#SELECTABLE:YES;
#DISPLAYBPM:130.000000;
#BPMS:0.000000=130.000000
;
#STOPS:
;
#BGCHANGES:;
#KEYSOUNDS:;
#ATTACKS:;

//---------------dance-single - ----------------
#NOTES:
     dance-single:
     :
     Beginner:
     2:
     0.127443,0.182137,0.010620,0.000000,0.000000,84.000000,83.000000,1.000000,0.000000,0.000000,0.000000,0.127443,0.182137,0.010620,0.000000,0.000000,84.000000,83.000000,1.000000,0.000000,0.000000,0.000000:
0000
0000
0000
0000
,
0000
0000
0000
0000
,
0000
0000
0000
0000
,
0000
0000
0000
0000
,
0000
0000
0000
0000
,
1000
0000
0000
0000
,
0001
0000
0000
0000
,
0100
0000
0100
0000
,
0010
0000
0010
0000
,
1000
0000
0000
0000
,
0100
0000
0000
0000
,
0001
0000
0000
0000
,
0010
0000
0000
0000
,
1000
0000
1000
0000
,
0001
0000
0001
0000
,
0100
0000
0100
0000
,
0010
0000
0010
0000
,
1000
0000
0001
0000
,
1000
0000
0001
0000
,
0100
0000
0100
0000
,
0010
0000
0010
0000
,
1000
1000
1000
0000
,
0100
0100
0100
0000
,
0001
0001
0001
0000
,
0010
0010
0010
0000
,
0100
0000
0100
0000
,
1000
0000
0001
0000
,
1000
0000
0001
0000
,
1000
0000
1000
0000
,
0010
0000
0000
0000
,
0100
0000
0000
0000
,
0001
0000
0000
0000
,
1000
0000
0000
0000
,
0001
0000
0001
0000
,
1000
0000
1000
0000
,
0010
0000
0010
0000
,
0100
0000
0100
0000
,
0001
0000
0001
0000
,
1000
0000
1000
0000
,
0100
0000
0100
0000
,
0001
0000
0001
0000
,
1000
0000
1000
0000
,
0100
0000
0100
0000
,
0010
0000
0010
0000
,
0001
0000
0001
0000
,
1000
0000
1000
0000
,
0001
0000
0001
0000
,
0010
0000
0010
0000
,
0100
0000
0100
0000
,
1001
0000
0000
0000
,
0000
0000
0000
0000
;

//---------------dance-single - ----------------
#NOTES:
     dance-single:
     :
     Easy:
     5:
     0.235162,0.260195,0.021240,0.244265,0.000000,155.000000,153.000000,2.000000,23.000000,0.000000,0.000000,0.235162,0.260195,0.021240,0.244265,0.000000,155.000000,153.000000,2.000000,23.000000,0.000000,0.000000:
0000
0000
0000
0000
,
0000
0000
0000
0000
,
0000
0000
0000
0000
,
0000
0000
0000
0000
,
0000
0000
0000
0000
,
0100
0000
1000
1000
,
0001
0000
0010
0010
,
0001
0000
0100
0100
,
0010
0000
1000
1000
,
0010
1000
0010
0000
,
1000
0100
1000
0000
,
0001
0010
0001
0000
,
0010
0001
0010
0000
,
0001
0100
1000
0100
,
0001
0100
1000
0100
,
0010
1000
0100
0001
,
0100
1000
0010
0001
,
0010
0001
0010
1000
,
0010
0001
0010
1000
,
0010
1000
0100
0001
,
0100
1000
0010
0001
,
0010
0000
1000
0000
,
0010
0010
1000
1000
,
0001
0000
0100
0000
,
0001
0100
0001
0101
,
2000
3000
0100
2000
,
3200
0300
0001
0200
,
0302
0003
0010
0002
,
0023
0030
1000
0010
,
1000
0001
0100
1000
,
0100
0001
0100
1000
,
0100
0010
1000
0010
,
0001
0010
1000
0010
,
2000
3000
0200
0300
,
0010
0001
1000
0100
,
0020
0030
0002
0003
,
1000
0100
0010
0001
,
2000
3000
0200
0300
,
0001
0100
1000
0100
,
0020
0030
0002
0003
,
0010
1000
0010
0001
,
2000
3100
0002
0103
,
1000
0100
0001
0010
,
2000
3100
0002
0103
,
1000
0100
0001
0010
,
2000
3100
0020
0031
,
0010
0001
0100
1000
,
0200
0301
2000
3100
,
1000
0100
0001
0100
,
1001
0000
0000
0000
,
0000
0000
0000
0000
;

//---------------dance-single - ----------------
#NOTES:
     dance-single:
     :
     Medium:
     8:
     0.333778,0.341706,0.063721,0.276126,0.000000,220.000000,214.000000,6.000000,26.000000,0.000000,0.000000,0.333778,0.341706,0.063721,0.276126,0.000000,220.000000,214.000000,6.000000,26.000000,0.000000,0.000000:
0000
0000
0000
0000
,
0000
0000
0000
0000
,
0000
0000
0000
0000
,
0000
0000
0000
0000
,
0000
0000
0000
0000
,
0010
0000
1000
0000
0100
1000
0100
0000
,
0001
0000
0100
0000
1000
0010
1000
0000
,
0010
0000
0001
0000
0010
1000
0010
0000
,
1000
0000
0100
0000
0010
0001
0010
0000
,
0100
0000
1000
0000
0010
1000
0010
0000
,
0001
0000
0010
0000
1000
0100
1000
0000
,
0100
0000
0001
0000
0100
1000
0100
0000
,
1000
0000
0010
0000
0100
0000
0001
0100
,
0010
0000
1000
0100
0010
0000
1000
0010
,
0002
0000
0100
0000
0010
0000
1003
0100
,
0010
0000
0001
0100
0010
0000
0001
0010
,
2000
0000
0100
0000
0010
0000
3001
0010
,
0100
0000
1000
0010
0100
0000
1000
0100
,
0002
0000
0010
0000
0100
0000
1003
0010
,
0100
0000
0001
0010
0100
0000
0001
0100
,
2000
0010
0100
3001
,
0200
0000
0000
0002
0303
0000
0011
0000
,
0000
0000
1100
0000
,
0020
0000
0000
2000
3030
0000
0101
0000
,
0000
0011
1100
1010
,
0200
0000
0000
0002
0303
0010
2000
0000
,
0020
0000
3030
0000
0001
0100
0001
0000
,
2000
0000
0000
0020
3030
1000
0200
0000
,
0002
0000
0303
0000
0100
1000
0001
0010
,
0100
1000
0010
0001
0000
0100
0002
0000
,
0020
0000
0033
0000
1000
0100
1000
0000
,
0001
0010
1000
0010
0000
0001
0200
0000
,
2000
0000
3300
0000
0100
0001
1000
0100
,
0010
0000
0001
0100
0010
0000
0001
0010
,
2000
0000
0100
0000
0010
0000
3001
0100
,
0010
0000
1000
0100
0010
0000
1000
0010
,
0002
0000
0100
0000
0010
0000
1003
0010
,
0100
0000
0001
0010
0100
0000
0001
0100
,
2000
0000
0010
0000
0100
0000
3001
0010
,
0100
0000
1000
0010
0100
0000
1000
0100
,
0002
0000
0010
0000
0100
0000
1003
0010
,
0100
0000
0001
0000
0100
0000
0001
0010
,
0001
0010
0001
0010
,
0100
0000
1000
0100
1000
0000
0010
0000
,
0001
0000
0010
0000
1000
0000
0010
1000
,
0100
0000
1000
0000
0100
0000
1000
0010
,
1000
0010
1000
0010
,
0100
0000
0001
0100
0001
0000
0010
0000
,
1000
0000
0010
0000
0001
0000
0010
0002
,
2000
0000
3003
0000
,
0000
0000
0000
0000
;

//---------------dance-single - ----------------
#NOTES:
     dance-single:
     :
     Hard:
     11:
     0.383845,0.468352,0.000000,0.074342,0.074342,253.000000,253.000000,0.000000,7.000000,0.000000,0.000000,0.383845,0.468352,0.000000,0.074342,0.074342,253.000000,253.000000,0.000000,7.000000,0.000000,0.000000:
0000
0000
0000
0000
,
0000
0000
0000
0000
,
0000
0000
0000
0000
,
0000
0000
0000
0000
,
0000
0000
0000
0000
,
1000
0000
0100
0010
0001
0000
1000
0000
,
0010
0100
0001
1000
0100
0000
0010
0001
,
1000
0000
0100
0010
0001
0000
1000
0000
,
0010
0100
0001
1000
0100
0000
0010
0001
,
1000
0000
0010
0100
0001
1000
0100
0000
,
0010
0001
1000
0001
0100
0000
0010
1000
,
0100
0000
0010
0001
1000
0000
0001
0000
,
0100
0010
1000
0001
0010
0000
0100
1000
,
0001
0000
0100
0010
0000
0000
1000
0001
,
0000
1000
0000
0100
0000
0010
0001
1000
,
0000
0000
0010
0100
0000
0000
0010
1000
,
0000
0001
0000
0010
0000
0100
1000
0001
,
0000
0000
0100
0010
0000
0000
1000
0001
,
0000
0010
0000
0100
0000
1000
0001
1000
,
0000
0000
0001
0100
0000
0000
0010
1000
,
0000
0001
0000
0010
0000
0100
1000
0001
,
0100
0000
0010
1000
0001
0100
0001
1000
,
0001
1000
0001
0000
0100
0000
0000
0010
1000
0000
0010
0000
1000
0000
0001
0000
,
0010
0000
0100
1000
0001
0100
0010
1000
,
0001
1000
0001
0000
1000
0000
0100
0000
0010
0001
0000
0000
1000
0001
0000
0000
,
1000
0000
0000
0100
0010
0000
0001
0000
1000
0000
0001
0000
0100
0000
0010
0000
,
1000
0100
0010
0001
1000
0000
0001
1000
,
0100
0000
0000
0010
0001
0000
1000
0000
0010
0000
0100
0000
0001
0000
0000
0000
,
1000
0001
0010
0100
1000
0000
0001
1000
,
0010
0000
0000
0100
0001
0000
1000
0000
0100
0000
0010
0000
0001
0000
0000
0000
,
1000
0100
0010
0001
0100
0001
1000
0000
,
0100
0000
0000
0010
0001
0000
1000
0000
0010
0000
0100
0000
0001
0000
0000
0000
,
1000
0000
0100
0000
1000
0000
0001
0000
0100
0000
0000
0000
0010
0100
0010
0100
,
0010
0000
1000
0100
0000
0000
1000
0001
,
0000
0100
0000
0010
0000
1000
0001
1000
,
0000
0000
0100
0010
0000
0000
0001
1000
,
0000
0010
0000
0100
0000
0001
1000
0100
,
0000
0000
0010
0001
0000
0000
1000
0001
,
0000
0100
0000
0010
0000
1000
0001
1000
,
0000
0000
0100
0010
0000
0000
0001
1000
,
0000
0000
0010
0000
0000
0000
0100
0000
0001
0000
1000
0000
0001
1000
0001
1000
,
0002
0010
0100
1003
,
0200
0010
1000
0301
,
2000
0010
0100
3001
,
0100
0000
0001
1000
0100
0000
0010
0000
,
0002
0010
0100
1003
,
0200
0010
1000
0301
,
0020
0001
0100
0031
,
2000
0000
0000
0000
0010
0000
0000
0000
0100
0000
0000
0000
3001
0000
1000
0001
,
1000
0000
0000
0000
,
0000
0000
0000
0000
;

//---------------dance-double - ----------------
#NOTES:
     dance-double:
     :
     Easy:
     5:
     0.233645,0.260195,0.010620,0.244265,0.000000,154.000000,153.000000,1.000000,23.000000,0.000000,0.000000,0.233645,0.260195,0.010620,0.244265,0.000000,154.000000,153.000000,1.000000,23.000000,0.000000,0.000000:
00000000
00000000
00000000
00000000
,
00000000
00000000
00000000
00000000
,
00000000
00000000
00000000
00000000
,
00000000
00000000
00000000
00000000
,
00000000
00000000
00000000
00000000
,
00000001
00000000
00000100
00001000
,
00010000
00000000
01000000
10000000
,
01000000
00000000
00010000
00001000
,
00000010
00000000
00000001
00000100
,
00001000
00010000
00001000
00000000
,
00010000
00100000
00010000
00000000
,
00100000
10000000
00100000
00000000
,
00010000
00001000
00000100
00000000
,
00000001
00000100
00001000
00010000
,
00100000
10000000
01000000
00010000
,
00001000
00000010
00000001
00000100
,
00001000
00010000
01000000
10000000
,
01000000
00010000
00001000
00000100
,
00000001
00000100
00001000
00010000
,
00100000
10000000
01000000
00010000
,
00001000
00000010
00000001
00000100
,
00001000
00000000
00010000
00000000
,
00100000
00100000
10000000
10000000
,
00100000
00000000
00010000
00000000
,
00001000
00000100
00000001
00000100
,
00002000
00003000
00010000
02000000
,
23000000
30000000
01000000
00020000
,
00032000
00003000
00000010
00000002
,
00000023
00000030
00001000
00010000
,
00100000
00010000
01000000
00010000
,
00001000
00000100
00000001
00000100
,
00001000
00010000
00100000
10000000
,
01000000
00010000
00001000
00010000
,
00002000
00003000
00000200
00000300
,
00000001
00000100
00001000
00010000
,
02000000
03000000
20000000
30000000
,
01000000
00010000
00001000
00000010
,
00000002
00000003
00000200
00000300
,
00001000
00010000
00100000
10000000
,
02000000
03000000
00020000
00030000
,
00001000
00000100
00000001
00000100
,
00002000
00013000
00200000
10300000
,
00100000
00010000
00001000
00000100
,
00000002
00000103
00002000
00013000
,
00100000
10000000
01000000
00010000
,
00002000
00003010
00000002
00000103
,
00001000
00010000
01000000
10000000
,
02000000
03010000
00002000
00003100
,
00000001
00000100
00001000
00010000
,
00110000
00000000
00000000
00000000
,
00000000
00000000
00000000
00000000
;

//---------------dance-double - ----------------
#NOTES:
     dance-double:
     :
     Medium:
     8:
     0.323158,0.341706,0.021240,0.276126,0.000000,213.000000,211.000000,2.000000,26.000000,0.000000,0.000000,0.323158,0.341706,0.021240,0.276126,0.000000,213.000000,211.000000,2.000000,26.000000,0.000000,0.000000:
00000000
00000000
00000000
00000000
,
00000000
00000000
00000000
00000000
,
00000000
00000000
00000000
00000000
,
00000000
00000000
00000000
00000000
,
00000000
00000000
00000000
00000000
,
00000001
00000010
00000001
00000000
00000010
00000000
00001000
00000000
,
00010000
00001000
00010000
00000000
00100000
00000000
10000000
00000000
,
01000000
10000000
01000000
00000000
00010000
00000000
00001000
00000000
,
00000100
00001000
00000100
00000000
00000001
00000000
00000010
00000000
,
00000001
00000100
00000001
00000000
00000100
00000000
00001000
00000000
,
00010000
00001000
00010000
00000000
01000000
00000000
10000000
00000000
,
00100000
10000000
00100000
00000000
00010000
00000000
00001000
00000000
,
00000010
00000000
00000001
00000000
00000100
00000000
00001000
00000100
,
00001000
00000000
00010000
01000000
00010000
00000000
01000000
20000000
,
00100000
00000000
00010000
00000000
31000000
00000000
00010000
01000000
,
00010000
00000000
00001000
00000100
00001000
00000000
00000100
00000002
,
00000010
00000000
00001000
00000000
00000103
00000000
00000001
00000010
,
00001000
00000000
00010000
00001000
00010000
00000000
00100000
00020000
,
00001000
00000000
00100000
00000000
00130000
00000000
10000000
01000000
,
00010000
00000000
00001000
00010000
00001000
00000000
00000100
00002000
,
00010000
00000100
00003200
00000001
,
00000001
00000010
00002300
00000000
,
00010000
00000010
00023000
00000000
,
00100000
00001000
00230000
00000000
,
10000000
00310000
01010000
00011000
,
00000020
00000000
00000000
00000002
00000030
00000000
00000200
00000003
,
00000000
00002000
00000300
00003000
00010000
01000000
10000000
00000000
,
00200000
00000000
00000000
20000000
00300000
00000000
02000000
30000000
,
00000000
00020000
03000000
00030000
00001000
00000100
00000001
00000000
,
00000010
00000000
00001000
00000020
00000000
00000001
00000031
00000000
,
00000100
00002000
00000000
00003000
00010000
01000000
10000000
00000000
,
00100000
00000000
00010000
00200000
00000000
10000000
10300000
00000000
,
01000000
00020000
00000000
00030000
00001000
00000100
00000001
00000010
,
00001000
00000000
00010000
01000000
00010000
00000000
01000000
20000000
,
00100000
00000000
00010000
00000000
31000000
00000000
00010000
01000000
,
00010000
00000000
00001000
00000100
00001000
00000000
00000100
00000002
,
00000010
00000000
00001000
00000000
00000103
00000000
00000001
00000010
,
00001000
00000000
00010000
00001000
00010000
00000000
00100000
00020000
,
00001000
00000000
00100000
00000000
00130000
00000000
10000000
01000000
,
00010000
00000000
00001000
00010000
00001000
00000000
00000100
00002000
,
00010000
00000100
00003100
00000001
,
00000010
00001000
00010000
00001000
,
00000100
00000000
00001000
00000000
00010000
00000000
00001000
00010000
,
01000000
00010000
00001000
00010000
,
00100000
00000000
00010000
00000000
00001000
00000000
00010000
00001000
,
00000100
00000001
00000010
00000001
,
00001000
00000000
00000100
00000000
00001000
00000000
00010000
00001000
,
00010000
00100000
10000000
00100000
,
00010000
00000000
01000000
00000000
00010000
00000000
00001000
00000020
,
00000002
00000000
00000033
00000000
,
00000000
00000000
00000000
00000000
;

//---------------dance-double - ----------------
#NOTES:
     dance-double:
     :
     Hard:
     11:
     0.382328,0.468352,0.000000,0.106202,0.063721,252.000000,252.000000,0.000000,10.000000,0.000000,0.000000,0.382328,0.468352,0.000000,0.106202,0.063721,252.000000,252.000000,0.000000,10.000000,0.000000,0.000000:
00000000
00000000
00000000
00000000
,
00000000
00000000
00000000
00000000
,
00000000
00000000
00000000
00000000
,
00000000
00000000
00000000
00000000
,
00000000
00000000
00000000
00000000
,
10000000
00000000
01000000
00010000
00001000
00000000
00000100
00000000
,
00000001
00001000
00000010
00000100
00001000
00000000
00010000
00100000
,
10000000
00000000
00010000
00100000
01000000
00000000
00010000
00000000
,
00001000
00000100
00000001
00001000
00000010
00000000
00000100
00001000
,
00010000
00000000
00100000
10000000
00010000
10000000
01000000
00000000
,
00010000
00001000
00000100
00000001
00001000
00000000
00000010
00000100
,
00001000
00000000
00010000
01000000
10000000
00000000
00010000
00000000
,
10000000
00100000
00010000
00001000
00000100
00000000
00000001
00001000
,
00000001
00000000
00000100
00001000
00000000
00000000
00010000
00100000
,
00000000
10000000
00000000
00010000
00000000
01000000
00010000
01000000
,
00000000
00000000
00001000
00010000
00000000
00000000
00000010
00001000
,
00000000
00000001
00000000
00000100
00000000
00001000
00010000
00100000
,
00000000
00000000
10000000
01000000
00000000
00000000
00010000
00001000
,
00000000
00000010
00000000
00000001
00000000
00000100
00000001
00000100
,
00000000
00000000
00000010
00001000
00000000
00000000
00000100
00010000
,
00000000
00001000
00000000
00100000
00000000
00010000
01000000
00010000
,
00100000
00000000
00010000
00001000
00000010
00000100
00000010
00000100
,
00001000
00010000
00001000
00000000
00010000
00000000
00000000
00100000
10000000
00000000
00010000
00000000
10000000
00000000
01000000
00000000
,
00010000
00000000
00001000
00000100
00000001
00001000
00000010
00000100
,
00001000
00010000
00001000
00000000
00010000
00000000
01000000
00000000
10000000
00010000
00000000
00000000
10000000
00100000
00000000
00000000
,
00010000
00000000
00000000
00001000
00000010
00000000
00000001
00000000
00001000
00000000
00000010
00000000
00000100
00000000
00001000
00000000
,
00010000
01000000
10000000
00010000
00100000
00000000
01000000
10000000
,
00100000
00000000
00000000
00010000
00001000
00000000
00000010
00000000
00000001
00000000
00001000
00000000
00000001
00000000
00000000
00000000
,
00000100
00001000
00010000
01000000
10000000
00000000
00010000
00100000
,
01000000
00000000
00000000
00010000
00001000
00000000
00000010
00000000
00000001
00000000
00000100
00000000
00000001
00000000
00000000
00000000
,
00000100
00001000
00010000
00100000
10000000
00010000
00100000
00000000
,
00100000
00000000
00000000
00010000
00001000
00000000
00000010
00000000
00001000
00000000
00000001
00000000
00000100
00000000
00000000
00000000
,
00000010
00000000
00000100
00000000
00000010
00000000
00001000
00000000
00000100
00000000
00000000
00000000
00010000
00001000
00010000
00001000
,
00100000
00000000
00010000
10000000
00000000
00000000
01000000
00010000
,
00000000
00000010
00000000
00001000
00000000
00000001
00000100
00000001
,
00000000
00000000
00000100
00001000
00000000
00000000
00010000
00100000
,
00000000
10000000
00000000
01000000
00000000
00010000
00001000
00000010
,
00000000
00000000
00000001
00000100
00000000
00000000
00000010
00001000
,
00000000
00010000
00000000
00001000
00000000
00100000
00010000
10000000
,
00000000
00000000
01000000
00010000
00000000
00001000
00000010
00000001
,
00000000
00001000
00000000
00000010
00010000
00001000
00100000
00100000
,
00020000
00100000
01000000
10030000
,
02000000
00100000
03010000
00002000
,
00003200
00000001
00001000
00000301
,
00001000
00000000
00010000
00100000
10000000
00000000
00010000
00000000
,
00200000
01300000
00020000
00031000
,
00000200
00000001
00001000
00000301
,
00002000
00013000
02000000
13000000
,
00020000
00000000
00000000
00000000
00100000
00000000
00000000
00000000
10000000
00000000
00000000
00000000
01030000
00000000
00010000
10000000
,
00010000
00000000
00000000
00000000
,
00000000
00000000
00000000
00000000
;

//---------------dance-single - ----------------
#NOTES:
     dance-single:
     :
     Challenge:
     13:
     0.571975,0.604556,0.159303,0.180544,0.228335,377.000000,362.000000,15.000000,17.000000,0.000000,0.000000,0.571975,0.604556,0.159303,0.180544,0.228335,377.000000,362.000000,15.000000,17.000000,0.000000,0.000000:
// measure 0
0000
0000
0000
0000
,  // measure 1
0000
0000
0000
0000
,  // measure 2
0000
0000
0000
0000
,  // measure 3
0000
0000
0000
0000
,  // measure 4
0000
0000
0000
0000
,  // measure 5
0020
0001
0031
0200
0001
0301
2000
0100
,  // measure 6
3100
0020
0001
0031
0100
0010
1000
0000
,  // measure 7
0002
0100
0103
0002
0010
0013
2000
0001
,  // measure 8
3001
0200
0010
0310
0100
0001
0010
0000
,  // measure 9
0001
0000
0100
0000
0010
1000
0000
0100
0010
0000
0001
0000
0000
0000
1000
0000
,  // measure 10
0001
0000
1000
0100
0000
1000
0001
0000
0100
0000
0000
0000
0000
0000
0000
0000
,  // measure 11
0001
0000
1000
0010
0000
1000
0100
0000
0010
0000
0000
0000
0000
0000
0001
0000
,  // measure 12
0010
0001
0010
0001
0010
0000
0100
0000
1000
0000
0000
0000
1001
0000
0010
0000
,  // measure 13
1001
0100
0010
0001
0100
0001
1000
0100
,  // measure 14
1000
0010
0100
0010
0001
0010
0100
1000
,  // measure 15
1100
0100
0010
0100
1000
0001
0010
0100
,  // measure 16
0010
0001
0100
1000
0010
1000
0001
0100
,  // measure 17
0101
1000
0001
0010
0001
0100
0010
1000
,  // measure 18
0100
0010
0100
1000
0010
0100
0001
1000
,  // measure 19
0110
0100
0010
1000
0001
0010
0100
1000
,  // measure 20
0010
0000
1000
0000
0100
0000
0010
0000
0100
0000
1000
0000
0001
0000
0100
0010
,  // measure 21
0100
0000
0000
0001
1000
0000
1100
0000
0001
0000
0000
0000
0100
0000
0010
0000
,  // measure 22
1000
0100
1000
0000
0001
0000
0000
1010
0000
0010
0100
0001
0010
0100
1000
0000
,  // measure 23
0010
0000
0000
0000
0101
0000
0001
1000
0100
0000
0000
0000
0001
0000
0100
0000
,  // measure 24
0010
1000
0010
0000
1001
0000
0000
0000
1000
0100
0000
0000
0001
0100
0000
0000
,  // measure 25
2000
0100
3100
0002
1000
1003
0200
0001
,  // measure 26
0301
0020
0100
0130
0010
0100
2000
0000
,  // measure 27
3002
1000
1003
0200
1000
1300
0020
0100
,  // measure 28
0130
0001
0100
0001
1000
0001
1000
0010
1000
0010
0100
0010
,  // measure 29
0100
0000
0000
0000
0001
1000
0000
1000
0100
0000
0010
0000
0001
0000
0100
0000
,  // measure 30
1000
0000
0000
0000
0001
0010
0000
0010
0100
0000
1000
0000
0010
0000
0100
0000
,  // measure 31
0001
0000
0000
0000
1000
0001
0000
0001
1000
0000
0010
0100
0010
0000
1000
0000
,  // measure 32
0100
0000
0000
0000
0010
0001
0000
0001
0100
0010
0100
0010
1000
0001
1000
0001
,  // measure 33
0010
0001
0100
0001
1000
0100
0010
0100
,  // measure 34
1000
0010
1000
0001
0100
0001
0010
0100
,  // measure 35
0110
0100
1000
0010
1000
0001
0010
0001
,  // measure 36
0100
0001
1000
0100
1000
0010
0100
0001
,  // measure 37
0011
0100
0010
1000
0100
0010
0001
1000
,  // measure 38
0100
0010
1000
0100
0001
1000
0010
1000
,  // measure 39
1001
0010
1000
0001
0100
0001
0010
0100
,  // measure 40
1000
0000
0010
0000
0100
0000
0010
0000
1000
0000
0100
0000
0010
0001
0010
0001
,  // measure 41
0100
0001
0010
0100
0010
1000
0100
0001
,  // measure 42
0010
0001
0100
1000
0001
1000
0010
0100
,  // measure 43
1010
0001
0010
0100
1000
0001
1000
0100
,  // measure 44
1000
0001
0100
1000
0010
0100
0010
1000
,  // measure 45
0101
0010
0100
0010
0001
1000
0100
0001
,  // measure 46
1000
0001
0100
0001
0010
0100
1000
0010
,  // measure 47
0110
0100
0010
1000
0001
1000
0100
0010
,  // measure 48
0001
0000
1000
0000
0001
0000
0100
0000
1000
0000
0010
0000
0100
0000
0001
1000
,  // measure 49
0020
0000
0030
0000
;
