#TITLE:PUT YOUR FAITH IN ME;
#SUBTITLE:;
#ARTIST:UZI-LAY;
#TITLETRANSLIT:;
#SUBTITLETRANSLIT:;
#ARTISTTRANSLIT:;
#GENRE:;
#CREDIT:;
#BANNER:PUT YOUR FAITH IN ME.png;
#BACKGROUND:PUT YOUR FAITH IN ME-bg.png;
#LYRICSPATH:;
#CDTITLE:;
#MUSIC:PUT YOUR FAITH IN ME.ogg;
#OFFSET:0.000000;
#SAMPLESTART:9.500000;
#SAMPLELENGTH:20.000000;
#SELECTABLE:YES;
#DISPLAYBPM:120.000000;
#BPMS:0.000000=120.000000
;
#STOPS:
;
#BGCHANGES:;
#KEYSOUNDS:;
#ATTACKS:;

//---------------dance-single - ----------------
#NOTES:
     dance-single:
     :
     Beginner:
     3:
     0.118506,0.143182,0.034091,0.000000,0.000000,73.000000,70.000000,3.000000,0.000000,0.000000,0.000000,0.118506,0.143182,0.034091,0.000000,0.000000,73.000000,70.000000,3.000000,0.000000,0.000000,0.000000:
0000
0000
0000
0000
,
0000
0000
0000
0000
,
0000
0000
0000
0000
,
0000
0000
0000
0000
,
0000
0000
0000
0000
,
0000
0000
0000
0000
,
0000
0000
0000
0000
,
0000
0001
0000
0001
,
0000
0001
0000
0001
,
0001
0000
0010
0000
,
0100
0100
0100
0000
,
1000
0000
0010
0000
,
0100
0100
0100
0000
,
1000
1000
0000
0000
,
1000
1000
0000
0000
,
0100
0100
0000
0000
,
0100
0100
0000
0000
,
1001
0000
0000
0000
,
1001
0000
0000
0000
,
0001
0001
0000
0000
,
0001
0001
0000
0000
,
0010
0000
0000
0000
,
0010
0000
0010
0000
,
0100
0000
0000
0000
,
0100
0000
0100
0000
,
0001
0001
0000
0000
,
0001
0001
0000
0000
,
0010
0010
0000
0000
,
1001
0000
0000
0000
,
0100
0000
0000
0000
,
0100
0100
0100
0000
,
1000
1000
0000
0000
,
1000
1000
0000
0000
,
1000
0000
1000
0000
,
1000
0000
0010
0000
,
0100
0100
0100
0000
,
0010
0000
0010
0000
,
0100
0000
0100
0000
,
0001
0000
0010
0000
,
0100
0100
0100
0000
,
0010
0000
0010
0000
,
0100
0000
0100
0000
,
0100
0000
0000
0000
,
0000
0000
0000
0000
;

//---------------dance-single - ----------------
#NOTES:
     dance-single:
     :
     Easy:
     5:
     0.211039,0.262500,0.022727,0.000000,0.000000,130.000000,128.000000,2.000000,0.000000,0.000000,0.000000,0.211039,0.262500,0.022727,0.000000,0.000000,130.000000,128.000000,2.000000,0.000000,0.000000,0.000000:
0000
0000
0000
0000
,
0000
0000
0000
0000
,
0000
0000
0000
0000
,
0000
0000
0000
0000
,
0000
0000
0000
0000
,
0000
0000
0000
0000
,
0000
0000
0000
0000
,
0000
0001
0000
0001
,
0000
0100
0000
0100
,
0010
0100
1000
0001
,
0010
0010
0010
0010
,
0100
0010
0001
1000
,
0100
0100
0100
0100
,
1000
0010
0100
0001
,
0001
0010
0100
1000
,
0001
0100
0001
0100
,
1000
0100
0001
0100
,
0010
1000
0100
0000
0000
0000
0100
0000
,
0010
0001
0100
1000
,
0001
1000
0100
0100
,
0001
0010
1000
0100
,
0001
0100
0000
0100
,
0000
0010
0000
0010
,
0000
1000
0000
1000
,
0000
0100
0000
0100
,
0010
1000
0100
0000
0001
0000
1000
0000
,
0001
0010
1000
0010
,
0001
1000
0001
1000
,
0101
0000
1000
0100
,
0000
0010
1000
0001
0100
0000
0100
0000
,
1000
0100
0101
0000
,
0001
0010
0100
1000
,
1000
0010
0100
0001
,
0000
0001
0000
0001
,
0010
0100
1000
0001
,
1000
0100
0100
0001
,
0010
0001
0100
0100
,
0010
0001
0100
1000
,
0010
0100
1000
0001
,
1000
0100
0100
0001
,
0010
0001
0100
0100
,
0010
0001
0100
1000
,
0010
0000
0000
0000
,
0000
0000
0000
0000
;

//---------------dance-single - ----------------
#NOTES:
     dance-single:
     :
     Medium:
     6:
     0.251623,0.310227,0.113636,0.000000,0.000000,155.000000,145.000000,10.000000,0.000000,0.000000,0.000000,0.251623,0.310227,0.113636,0.000000,0.000000,155.000000,145.000000,10.000000,0.000000,0.000000,0.000000:
0000
0000
0000
0000
,
0000
0000
0000
0000
,
0000
0000
0000
0000
,
0000
0000
0000
0000
,
0000
0000
0000
0000
,
0000
0000
0000
0000
,
0000
0000
0000
0000
,
0000
0001
0000
0001
,
0000
0100
0000
0100
,
0010
0100
0001
0000
1000
0000
0100
0000
,
0100
1000
0010
0010
,
0100
0001
0100
1000
,
0100
0001
0010
0010
,
0010
1000
0100
0000
0001
0000
0100
0000
,
0010
0001
0100
0000
1000
0000
0100
0000
,
0001
0100
0001
0100
,
1000
0100
0001
0100
,
0010
1000
0001
0000
0100
0000
0100
0000
,
0010
0001
0100
1000
,
0001
1100
0100
0100
,
0001
0010
1000
0100
,
0001
0010
0100
0010
,
0001
0001
1000
1000
,
1000
0010
0100
0010
,
1000
1000
0001
0001
,
0010
1000
0100
0000
0001
0100
1000
0000
,
0011
0100
1100
0010
,
0001
0100
1000
0000
0001
0000
1000
0000
,
0101
0000
0000
0000
1000
0001
0100
0000
,
0000
0010
1000
0001
0100
0000
0100
0000
,
1000
0011
1100
0000
,
0010
0000
1000
0000
0010
0100
0001
0000
,
1000
0100
0001
0100
,
0000
0001
0000
0001
,
0010
1000
0100
0000
0001
0000
0100
0000
,
1000
0010
0001
0100
,
1000
0100
0001
0100
,
0010
0001
1100
0101
,
0010
1000
0100
0000
0001
0000
0100
0000
,
1000
0010
0001
0100
,
1000
0100
0001
0100
,
0010
0001
1100
0101
,
0010
0000
0000
0000
,
0000
0000
0000
0000
;

//---------------dance-single - ----------------
#NOTES:
     dance-single:
     :
     Hard:
     9:
     0.339286,0.405682,0.068182,0.000000,0.000000,209.000000,203.000000,6.000000,0.000000,0.000000,0.000000,0.339286,0.405682,0.068182,0.000000,0.000000,209.000000,203.000000,6.000000,0.000000,0.000000,0.000000:
0000
0000
0000
0000
,
0000
0000
0000
0000
,
0000
0000
0000
0000
,
0000
0000
0000
0000
,
0000
0000
0000
0000
,
0000
0000
0000
0000
,
0000
0000
0000
0000
,
0000
0001
0000
0001
,
0000
0100
0000
0100
,
0010
0100
0001
0100
1000
0100
0100
0000
,
0100
1000
1000
0000
0010
0010
0001
0000
,
0100
0010
0001
0010
0100
0010
1000
0000
,
0100
0001
0001
0000
0010
0010
1000
0000
,
0010
1000
0100
0010
0001
0100
0100
0000
,
0010
0001
0100
0010
1000
0100
0100
0000
,
0001
0010
1000
0000
0001
0010
1000
0000
,
0001
0100
1000
0000
0001
0010
1000
0000
,
0010
1000
0001
0000
0100
0010
0100
0000
,
0010
0001
0001
0000
0100
0100
1000
0000
,
0001
1000
0100
0000
0100
0010
0100
0000
,
0001
0010
0010
0000
1000
1000
0100
0000
,
0001
0010
0100
0010
0001
0010
0100
0000
,
0001
0000
0001
0010
1000
0000
1000
0000
,
1000
0010
0100
0010
1000
0010
0100
0000
,
1000
0000
1000
0010
0001
0000
0001
0000
,
0010
1000
0100
0010
0001
0100
1000
0000
,
0011
1100
0011
1100
,
0001
0100
1000
0010
0001
0010
1000
0000
,
0101
0000
0000
0000
1000
0001
0100
0000
,
0000
0010
1000
0001
0100
0100
0100
0000
,
0010
0010
1000
0000
0101
0000
0000
0000
,
0010
0100
1000
0000
0010
0100
0001
0000
,
1000
0001
0100
0000
0001
1000
0100
0000
,
0000
0001
0000
0001
,
0010
0100
0001
0100
1000
0100
0100
0000
,
0100
1000
1000
0000
0010
0010
0001
0000
,
0100
0010
0001
0010
0100
0010
1000
0000
,
0100
0000
0001
0100
1000
0001
0100
0000
,
0010
0100
1000
0100
0001
0100
0100
0000
,
0100
0001
0001
0000
0010
0010
1000
0000
,
0100
0010
1000
0010
0100
0010
0001
0000
,
0100
0000
1000
0100
0001
1000
0100
0000
,
0010
0000
0000
0000
,
0000
0000
0000
0000
;

//---------------dance-double - ----------------
#NOTES:
     dance-double:
     :
     Easy:
     6:
     0.222403,0.286364,0.022727,0.000000,0.000000,137.000000,135.000000,2.000000,0.000000,0.000000,0.000000,0.222403,0.286364,0.022727,0.000000,0.000000,137.000000,135.000000,2.000000,0.000000,0.000000,0.000000:
00000000
00000000
00000000
00000000
,
00000000
00000000
00000000
00000000
,
00000000
00000000
00000000
00000000
,
00000000
00000000
00000000
00000000
,
00000000
00000000
00000000
00000000
,
00000000
00000000
00000000
00000000
,
00000000
00000000
00000000
00000000
,
00000000
00001000
00000000
00001000
,
00000000
01000000
00000000
01000000
,
10000000
01000000
00010000
01000000
,
00010000
00010000
00010000
00010000
,
00001000
00000100
00010000
01000000
,
00010000
00010000
10000000
01000000
,
00100000
00010000
10000000
01000000
,
00010000
00001000
00000100
00010000
,
00000100
00010000
00000100
00010000
,
00100000
00001000
00100000
00001000
,
00000100
00001000
00010000
00000000
00100000
00000000
10000000
00000000
,
01000000
00010000
01000000
10000000
,
01000000
01000000
00010000
00001000
,
00000100
00000001
00001000
00000001
,
00000000
00000100
00000000
00001000
,
00000000
00010000
00000000
10000000
,
00000000
00001000
00000000
00000100
,
00000000
01000000
00000000
10000000
,
00100000
10000000
01000000
00000000
00010000
01000000
10000000
00000000
,
00010000
00001000
00000100
00010000
,
00000100
00000001
00001000
00000010
,
00000001
00000000
00000001
00000001
,
00000000
00001000
00010000
01000000
10000000
00000000
10000000
00000000
,
00100000
01000000
00010000
00000000
,
10000000
01000000
00010000
00001000
,
00000010
00001000
00000100
00000001
,
00000000
00000100
00000000
00000100
,
00000010
00001000
00000001
00000000
00000100
00000000
00001000
00000000
,
00010000
01000000
01000000
11000000
,
01000000
00010000
00001000
00000000
00000100
00000001
00000010
00000000
,
00001000
00010000
01000000
10000000
,
00100000
00010000
10000000
00000000
01000000
00000000
00010000
00000000
,
00001000
00000100
00000100
00000101
,
00000100
00001000
00010000
00000000
01000000
10000000
00100000
00000000
,
00010000
00001000
00000100
00000001
,
00000010
00000000
00000000
00000000
,
00000000
00000000
00000000
00000000
;

//---------------dance-double - ----------------
#NOTES:
     dance-double:
     :
     Medium:
     8:
     0.243507,0.310227,0.034091,0.000000,0.000000,150.000000,147.000000,3.000000,0.000000,0.000000,0.000000,0.243507,0.310227,0.034091,0.000000,0.000000,150.000000,147.000000,3.000000,0.000000,0.000000,0.000000:
00000000
00000000
00000000
00000000
,
00000000
00000000
00000000
00000000
,
00000000
00000000
00000000
00000000
,
00000000
00000000
00000000
00000000
,
00000000
00000000
00000000
00000000
,
00000000
00000000
00000000
00000000
,
00000000
00000000
00000000
00000000
,
00000000
01000000
00000000
00001000
,
00000000
00000100
00000000
00010000
,
00010000
00100000
10000000
00000000
00010000
00000000
10000000
00000000
,
00100000
00010000
00001000
00000100
,
00000010
00000001
00000100
00001000
00010000
01000000
10000000
00000000
,
00100000
01000000
00100000
00010000
,
10000000
01000000
00010000
00000000
10000000
00100000
00010000
00000000
,
00010000
00001000
00000100
00000000
00000100
00001000
00010000
00000000
,
01000000
00001000
01000000
00001000
,
00000100
00010000
00000100
00010000
,
00000100
00000001
00000010
00000000
00001000
00000000
00010000
00000000
,
01000000
10000000
00010000
10000000
,
00100000
01000000
00010000
00001000
,
00000010
00000001
00000100
00001000
,
00000000
00000001
00000000
00000010
,
00000000
00001000
00000000
00100000
,
00000000
00010000
00000000
00000100
,
00000000
01000000
00000000
10000000
,
00100000
10000000
01000000
00000000
00100000
00010000
01000000
00000000
,
00100000
01000000
00010000
01000000
,
00100000
00010000
00001000
00000100
,
00000001
00000000
00000001
00000001
,
00000000
00000100
00001000
00010000
01000000
00000000
01000000
00000000
,
00100000
01000000
11000000
00000000
,
10000000
01000000
00100000
00010000
,
00001000
00000100
00000010
00000001
,
00000000
00000100
00000000
00000100
,
00000010
00001000
00000001
00000000
00000100
00000010
00000100
00000000
,
00001000
00010000
01000000
11000000
,
01000000
00010000
00001000
00000100
00001000
00010000
01000000
00000000
,
00001000
01000000
10000000
00010000
,
00100000
00010000
10000000
00000000
01000000
00100000
01000000
00000000
,
00010000
00001000
00000100
00000101
,
00000100
00001000
00010000
01000000
00010000
00001000
00000100
00000000
,
00010000
00000100
00000001
00001000
,
00000010
00000000
00000000
00000000
,
00000000
00000000
00000000
00000000
;

//---------------dance-double - ----------------
#NOTES:
     dance-double:
     :
     Hard:
     8:
     0.300325,0.381818,0.170455,0.000000,0.000000,185.000000,170.000000,15.000000,0.000000,0.000000,0.000000,0.300325,0.381818,0.170455,0.000000,0.000000,185.000000,170.000000,15.000000,0.000000,0.000000,0.000000:
00000000
00000000
00000000
00000000
,
00000000
00000000
00000000
00000000
,
00000000
00000000
00000000
00000000
,
00000000
00000000
00000000
00000000
,
00000000
00000000
00000000
00000000
,
00000000
00000000
00000000
00000000
,
00000000
00000000
00000000
00000000
,
01000000
00000000
01000000
00000000
00100000
00010000
10000000
00000000
,
01000000
00001000
00000100
00000001
,
00000100
00000000
00001000
00000000
00000010
00010000
00000100
00000000
,
00001000
00000010
00010000
00001000
,
00100000
01000000
10000000
00000000
00100000
01000000
00010000
00000000
,
00011000
00001010
00000101
00001100
,
00010000
00000000
00000010
00001000
00000100
00010000
00001000
00000000
,
00100000
00010000
01000000
00001000
00010000
00000000
00110000
00000000
,
00001000
01000000
00010000
00000000
00100000
00000000
00001000
00000000
,
00010000
00000000
00000100
00000000
00000010
00000001
00000100
00000000
,
00000000
00000010
00010000
00000000
00001000
00000000
00100000
00000000
,
00000000
01000000
10000000
00000000
00010000
00000000
01000000
00000000
,
00001000
00100000
00010000
00000000
01000000
00001000
00010000
00000000
,
00000010
00001000
00000100
00000010
00000001
00000100
00000010
00000000
,
00000000
00000000
00001000
00001000
00000000
00000000
00000100
00000000
,
00000000
00000000
00010000
00010000
00000000
00000000
00000010
00000000
,
00000000
00000000
00001000
00001000
00000000
00000000
00000100
00000000
,
00010000
00000000
00001000
10010000
,
00100000
01000000
00010000
00100000
00100000
00000000
00001000
00000000
,
00010000
00000100
00000010
00000001
00000100
00000000
00000010
00000000
,
00010000
00001000
00001000
00000000
00000000
00100000
01000000
00000000
,
10000000
00000000
00010000
00000000
01000000
00001000
00010000
00000000
,
00000000
00000100
00001000
00000010
00010000
00000000
00001000
00000000
,
00000000
00100000
00010000
01000000
00001000
00000000
00010000
00000000
,
00000100
00000010
00000001
00000000
00001000
00000010
00010000
00000000
,
00001000
00100000
01000000
00000000
10000000
00010000
01000000
00000000
,
00001000
00010000
00001000
00000000
,
00000010
00000000
00000001
00000000
00000100
00000010
00001000
00000000
,
00000100
00010000
00001000
00100000
,
00010000
10000000
01000000
00000000
00100000
00001000
01000000
00000000
,
00010010
00001001
00000110
00011000
,
00000010
00000000
00000100
00000000
00000001
00001000
00000100
00000000
,
00010000
00000000
00001000
00000000
00100000
01000000
10000000
00000000
,
00010000
01000000
00001000
00000000
00010000
00000100
00000010
00000000
,
00001001
00011000
10010000
00101000
,
00010100
00000000
00000000
00000000
,
00000000
00000000
00000000
00000000
;

//---------------dance-couple - ----------------
#NOTES:
     dance-couple:
     :
     Easy:
     3:
     0.185065,0.286364,0.022727,0.000000,0.000000,114.000000,112.000000,2.000000,0.000000,0.000000,0.000000,0.186688,0.262500,0.034091,0.000000,0.000000,115.000000,112.000000,3.000000,0.000000,0.000000,0.000000:
00000000
00000000
00000000
00000000
,
00000000
00000000
00000000
00000000
,
00000000
00000000
00000000
00000000
,
00000000
00000000
00000000
00000000
,
00000000
00000000
00000000
00000000
,
00000000
00000000
00000000
00000000
,
00000000
00000000
00000000
00000000
,
00000000
00010001
00000000
00010001
,
00000000
01000100
00000000
01000100
,
00100010
01000100
10001000
00010001
,
00100010
00100010
00100010
00100010
,
01000100
00100010
00010001
10001000
,
01000100
01000100
01000100
01000100
,
10000000
00100100
01000000
00010100
,
00010000
00100001
01000000
10000001
,
10000000
01000010
00010000
01000010
,
01100000
10010100
01000000
01000001
,
00100000
10000000
01000100
00000000
00000000
00000000
01000100
00000000
,
00100000
00011000
01000000
10001000
,
00010000
10000010
01000000
01000010
,
00010000
00100100
10000000
01000100
,
00010001
01000100
00000000
01000100
,
00000000
00100010
00000000
00100010
,
00000000
10001000
00000000
10001000
,
00000000
01000100
00000000
01000100
,
00001000
00000010
01000001
00000000
00001001
00000000
01000100
00000000
,
00000001
10000010
00001000
10001000
,
00000001
00100100
00001000
00100001
,
00001100
01000000
00000001
10000100
,
00000000
00000010
01001000
00000001
00000100
00000000
01000100
00000000
,
00001000
00010100
00000101
00010000
,
00000001
00100010
00000100
00101000
,
00001000
01000010
00000100
01000001
,
00000000
00010001
00000000
00011000
,
00100010
01000100
10000001
00011000
,
10000001
01000100
01000100
00011000
,
00100010
10000001
01000100
01000100
,
00100010
00011000
01000100
10000001
,
00100010
01000100
10000001
00011000
,
10000001
01000100
01000100
00011000
,
00100010
10000001
01000100
01000100
,
00100010
00011000
01000100
10000001
,
00100010
00000000
00000000
00000000
,
00000000
00000000
00000000
00000000
;

//---------------dance-couple - ----------------
#NOTES:
     dance-couple:
     :
     Medium:
     4:
     0.222403,0.310227,0.102273,0.000000,0.000000,137.000000,128.000000,9.000000,0.000000,0.000000,0.000000,0.225649,0.357955,0.125000,0.000000,0.000000,139.000000,128.000000,11.000000,0.000000,0.000000,0.000000:
00000000
00000000
00000000
00000000
,
00000000
00000000
00000000
00000000
,
00000000
00000000
00000000
00000000
,
00000000
00000000
00000000
00000000
,
00000000
00000000
00000000
00000000
,
00000000
00000000
00000000
00000000
,
00000000
00000000
00000000
00000000
,
00000000
00010001
00000000
00010001
,
00000000
01000100
00000000
01000100
,
00100010
01000100
00010001
00000000
10001000
00000000
01000100
00000000
,
01000100
10001000
00100010
00100010
,
01000100
00010001
01000100
10001000
,
01000100
00010001
00100010
00100010
,
00100000
10000000
01000100
00000000
01100000
00000000
10000100
00000000
,
00100000
00010000
01001000
00000000
01100000
00000000
00011000
00000000
,
00010000
10000000
01000010
00000000
10000000
00010000
01000010
00000000
,
10000000
01100100
00010000
01100001
,
00100010
10000001
00011000
00000000
01000000
00000000
01000100
00000000
,
00100000
00010000
10000001
00000000
01000000
00000000
01000001
00000000
,
00010000
11000010
00010000
01000010
,
00010000
00100100
10000000
01000100
,
00010001
00100010
01000100
00100010
,
00010001
00010001
10001000
10001000
,
10001000
00100010
01000100
00100010
,
10001000
10001000
00010001
00010001
,
00000010
00001000
00010100
00000000
00001010
00000000
01000101
00000000
,
00000010
00000001
10000100
00000000
00000011
00000000
01001100
00000000
,
00000001
00000100
01001000
00000000
00000001
00001000
01000100
00000000
,
01000101
00000000
00000000
00000000
00001000
00000100
01001000
00000000
,
00000000
00100010
10001000
00010001
00000100
00000000
01000100
00000000
,
00001000
01000110
01000101
00000000
,
00000010
00000000
01000001
00000000
00001000
00000010
01000001
00000000
,
00001000
00000000
01000100
00000000
00000001
00001000
01000100
00000000
,
00000000
00010001
00000000
00010001
,
00100010
10000001
01000100
00000000
00011000
00000000
01000100
00000000
,
10000000
00100100
00010000
01000100
,
00000001
01000010
00001000
01000100
,
00100010
00011000
11000101
01011100
,
00100010
10001000
01000100
00000000
00010001
00000000
01000100
00000000
,
10001000
00100010
00010001
01000100
,
10001000
01000100
00010001
01000100
,
00100010
00010001
11001100
01010101
,
00100010
00000000
00000000
00000000
,
00000000
00000000
00000000
00000000
;

//---------------dance-couple - ----------------
#NOTES:
     dance-couple:
     :
     Hard:
     6:
     0.326299,0.405682,0.068182,0.000000,0.000000,201.000000,195.000000,6.000000,0.000000,0.000000,0.000000,0.326299,0.405682,0.068182,0.000000,0.000000,201.000000,195.000000,6.000000,0.000000,0.000000,0.000000:
00000000
00000000
00000000
00000000
,
00000000
00000000
00000000
00000000
,
00000000
00000000
00000000
00000000
,
00000000
00000000
00000000
00000000
,
00000000
00000000
00000000
00000000
,
00000000
00000000
00000000
00000000
,
00000000
00000000
00000000
00000000
,
00000000
00010001
00000000
00010001
,
00000000
01000100
00000000
01000100
,
00100010
01000100
00011000
01000100
10000001
01000100
01000100
00000000
,
01000100
10000001
10000001
00000000
00100010
00100010
00011000
00000000
,
01000100
00100010
00011000
00100010
01000100
00100010
10000001
00000000
,
01000100
00011000
00011000
00000000
00100010
00100010
10000001
00000000
,
00100010
00001000
01000100
00000010
00010001
00000100
01000100
00000000
,
00100010
00010000
01000100
00100000
10001000
01000000
01000100
00000000
,
00010001
00000010
10001000
00000000
00010001
00000010
10001000
00000000
,
00010001
01000000
10001000
00000000
00010001
00100000
10001000
00000000
,
00100010
10001000
00010001
00000000
01000100
00100010
01000100
00000000
,
00100010
00010001
00010001
00000000
01000100
01000100
10001000
00000000
,
00010001
10001000
01000100
00000000
01000100
00100010
01000100
00000000
,
00010001
00100010
00100010
00000000
10001000
10001000
01000100
00000000
,
00010001
00100000
01000100
00100000
00010001
00100000
01000100
00000000
,
00010001
00000000
00010001
00100010
10001000
00000000
10001000
00000000
,
10001000
00000010
01000100
00000010
10001000
00000010
01000100
00000000
,
10001000
00000000
10001000
00100010
00010001
00000000
00010001
00000000
,
00100010
10000001
01000100
00100010
00011000
01000100
10000001
00000000
,
00111010
11000101
00111010
11000101
,
00011000
01000100
10000001
00100010
00011000
00100010
10000001
00000000
,
01011100
00000000
00000000
00000000
10000001
00011000
01000100
00000000
,
00000000
00100010
10000001
00011000
01000100
01000100
01000100
00000000
,
00100010
00100010
10000001
00000000
01011100
00000000
00000000
00000000
,
00100010
01000100
10000001
00000000
00100010
01000100
00011000
00000000
,
10000001
00011000
01000100
00000000
00011000
10000001
01000100
00000000
,
00000000
00011000
00000000
00011000
,
00100010
01000100
00010001
01000100
10001000
01000100
01000100
00000000
,
01000100
10001000
10001000
00000000
00100010
00100010
00010001
00000000
,
01000100
00100010
00010001
00100010
01000100
00100010
10001000
00000000
,
01000100
00000000
00010001
01000100
10001000
00010001
01000100
00000000
,
00100010
01000100
10001000
01000100
00010001
01000100
01000100
00000000
,
01000100
00010001
00010001
00000000
00100010
00100010
10001000
00000000
,
01000100
00100010
10001000
00100010
01000100
00100010
00010001
00000000
,
01000100
00000000
10001000
01000100
00010001
10001000
01000100
00000000
,
00100010
00000000
00000000
00000000
,
00000000
00000000
00000000
00000000
;

//---------------dance-solo - ----------------
#NOTES:
     dance-solo:
     :
     Easy:
     6:
     0.207792,0.237216,0.022727,0.000000,0.000000,128.000000,126.000000,2.000000,0.000000,0.000000,0.000000,0.207792,0.237216,0.022727,0.000000,0.000000,128.000000,126.000000,2.000000,0.000000,0.000000,0.000000:
000000
000000
000000
000000
,
000000
000000
000000
000000
,
000000
000000
000000
000000
,
000000
000000
000000
000000
,
000000
000000
000000
000000
,
000000
000000
000000
000000
,
000000
000000
000000
000000
,
000010
000000
000010
000000
,
001000
000000
001000
000000
,
000100
100000
000010
010000
,
000100
000100
000100
000100
,
001000
000010
100000
000001
,
001000
001000
001000
001000
,
000100
001000
000100
100000
,
000001
000100
001000
010000
,
000001
001000
000001
001000
,
100000
001000
000010
001000
,
000100
100000
001000
000000
001000
000000
000000
000000
,
010000
000001
001000
100000
,
000010
100000
001000
001000
,
000010
000100
100000
001000
,
000001
000000
000100
000000
,
001000
000000
001000
000000
,
010000
000000
010000
000000
,
001000
000000
001000
000000
,
000100
100000
001000
000000
000010
000000
100000
000000
,
000001
000100
010000
000100
,
000001
100000
000001
100000
,
001010
100000
001000
000000
,
100000
000100
100000
000000
000010
000000
000010
000000
,
001000
000100
100001
000000
,
000001
000100
001000
100000
,
010000
000100
001000
000001
,
000000
000010
000000
000010
,
000100
001000
100000
000001
,
010000
000100
000100
100000
,
001000
000001
001000
010000
,
000100
001000
000001
100000
,
000100
001000
000010
100000
,
001000
000100
000100
000001
,
010000
000010
001000
001000
,
000100
100000
000010
010000
;

//---------------dance-solo - ----------------
#NOTES:
     dance-solo:
     :
     Medium:
     7:
     0.251623,0.310227,0.113636,0.000000,0.000000,155.000000,145.000000,10.000000,0.000000,0.000000,0.000000,0.251623,0.310227,0.113636,0.000000,0.000000,155.000000,145.000000,10.000000,0.000000,0.000000,0.000000:
000000
000000
000000
000000
,
000000
000000
000000
000000
,
000000
000000
000000
000000
,
000000
000000
000000
000000
,
000000
000000
000000
000000
,
000000
000000
000000
000000
,
000000
000000
000000
000000
,
010000
000000
000100
000000
,
000010
000000
000100
000000
,
000001
010000
001000
000000
100000
000000
000001
000000
,
001000
000010
000100
000100
,
000001
010000
001000
100000
,
000001
001000
000100
000100
,
000100
100000
001000
000000
010000
000000
000001
000000
,
000100
000010
001000
000000
000100
000000
100000
000000
,
000001
001000
000010
001000
,
100000
001000
000001
001000
,
000100
100000
000010
000000
001000
000000
001000
000000
,
000100
100000
001000
010000
,
000001
101000
001000
001000
,
000001
000100
010000
001000
,
000001
000100
001000
010000
,
000001
000001
100000
100000
,
100000
000010
010000
000100
,
100000
100000
000001
000001
,
000100
001000
010000
000000
000100
001000
000010
000000
,
100001
001000
010001
000100
,
100000
000010
001000
000000
000001
000000
100000
000000
,
001100
000000
000000
000000
010000
000001
001000
000000
,
000000
000100
100000
000010
001000
000000
001000
000000
,
000100
100010
010001
000000
,
000100
000000
100000
000000
000010
001000
000100
000000
,
100000
001000
000010
001000
,
100000
000000
100000
000000
,
000100
001000
000010
000000
100000
000000
001000
000000
,
100000
000100
000001
000010
,
100000
000100
000001
000010
,
010000
001000
100001
001010
,
000100
100000
001000
000000
010000
000000
000001
000000
,
001000
000100
100000
001000
,
000001
001000
010000
001000
,
000100
000001
011000
100001
,
000100
000000
000000
000000
;

//---------------dance-solo - ----------------
#NOTES:
     dance-solo:
     :
     Hard:
     9:
     0.339286,0.405682,0.068182,0.000000,0.000000,209.000000,203.000000,6.000000,0.000000,0.000000,0.000000,0.339286,0.405682,0.068182,0.000000,0.000000,209.000000,203.000000,6.000000,0.000000,0.000000,0.000000:
000000
000000
000000
000000
,
000000
000000
000000
000000
,
000000
000000
000000
000000
,
000000
000000
000000
000000
,
000000
000000
000000
000000
,
000000
000000
000000
000000
,
000000
000000
000000
000000
,
010000
000000
001000
000000
,
000010
000000
000001
000000
,
010000
001000
000001
001000
100000
001000
001000
000000
,
001000
010000
010000
000000
000001
000001
000100
000000
,
001000
010000
000001
000100
001000
010000
100000
000000
,
010000
000001
000001
000000
000100
000100
001000
000000
,
100000
000001
001000
000100
100000
000010
000010
000000
,
000100
000001
001000
000100
100000
001000
001000
000000
,
000001
000100
100000
000000
000001
010000
001000
000000
,
000001
100000
010000
000000
000001
001000
000100
000000
,
000100
100000
000010
000000
001000
000001
001000
000000
,
000010
000001
000001
000000
100000
100000
000100
000000
,
010000
100000
000100
000000
001000
000100
001000
000000
,
000010
000100
000100
000000
010000
010000
001000
000000
,
000001
000100
001000
010000
000001
000100
001000
000000
,
000001
000000
000001
010000
001000
000000
100000
000000
,
100000
000100
001000
000010
100000
000100
001000
000000
,
100000
000000
100000
000010
001000
000000
000001
000000
,
000100
100000
001000
000010
000001
100000
000100
000000
,
001001
101000
100100
010001
,
000010
001000
100000
001000
000001
010000
001000
000000
,
100001
000000
000000
000000
010000
000010
000100
000000
,
000000
010000
000001
100000
001000
001000
001000
000000
,
000100
000100
000001
000000
011000
000000
000000
000000
,
000100
000001
100000
000000
000100
001000
000001
000000
,
100000
000010
010000
000000
000100
001000
000001
000000
,
010000
000000
010000
000000
,
000100
001000
000010
001000
100000
001000
001000
000000
,
001000
000010
000010
000000
000100
000100
000001
000000
,
001000
000100
000001
000100
001000
000100
100000
000000
,
001000
000000
000010
001000
100000
000001
001000
000000
,
000100
001000
100000
001000
000010
001000
001000
000000
,
100000
001000
001000
000000
000100
000100
000001
000000
,
001000
000100
100000
000100
001000
000010
100000
000000
,
001000
000000
100000
001000
000010
001000
010000
000000
,
000001
000000
000000
000000
;

//---------------dance-single - ----------------
#NOTES:
     dance-single:
     :
     Challenge:
     13:
     0.542208,0.680114,0.363636,0.136364,0.528409,334.000000,302.000000,32.000000,12.000000,0.000000,0.000000,0.542208,0.680114,0.363636,0.136364,0.528409,334.000000,302.000000,32.000000,12.000000,0.000000,0.000000:
0000
0000
0000
0000
,
0000
0000
0000
0000
,
0000
0000
0000
0000
,
0000
0000
0000
0000
,
0000
0000
0000
0000
,
0000
0000
0000
0000
,
0000
0000
0000
0000
,
0001
0100
0000
0010
1000
0000
0100
0000
0010
0000
0001
0000
1000
0000
0100
0000
,
0010
0000
0011
0000
1100
0000
0101
1000
,
0001
0000
0010
0000
0100
0000
1000
0000
0010
0000
1000
0000
0001
0100
0000
0010
,
0100
0000
0010
0000
1000
0000
0001
0010
0002
0000
0000
0203
0000
0000
1000
0000
,
1300
0100
0000
0001
0100
0000
0010
0000
1000
0000
0100
0000
0010
0000
0001
0000
,
0012
1003
2010
3001
,
1000
0001
0100
0000
0110
0000
0110
0000
1000
0001
0000
0010
0000
0010
0000
0000
,
0001
0010
0100
1000
0000
1000
0010
0100
0001
0000
1000
0100
0000
0100
0000
0000
,
1000
0001
0000
0100
0000
0010
0000
0100
0001
0000
0010
0100
0000
1000
0000
0001
,
1000
0000
0001
0100
0000
0010
0000
0100
0001
0000
0010
0100
0000
1000
0000
0000
,
1000
0100
1000
0001
0000
0100
0001
0000
1001
0000
0010
0000
0100
0000
0000
0000
,
0010
1000
0010
1000
0000
0001
0000
0100
0000
0001
0010
0100
0000
1000
0000
0000
,
0100
1000
0100
0000
0000
1000
0001
0100
0010
0000
1000
0100
0000
1000
0001
0010
,
0001
0000
0000
0000
0000
0000
0100
0010
0100
0000
0001
0010
0000
0100
1000
0000
,
1001
0010
1000
0100
0011
0100
0001
1000
,
2100
0000
0000
3100
1000
0000
0001
0000
0100
0000
0010
1000
0100
0010
0100
0000
,
1100
1000
0010
0100
0110
0001
0010
0100
,
0012
0000
0000
0013
0001
0000
1000
0000
0010
0000
0100
0001
1000
0100
0010
0000
,
1001
0000
0010
0100
0000
0000
0001
0010
1000
0010
0001
0000
0100
0010
0000
0000
,
1010
0000
0010
1000
0100
1000
0100
0010
0001
0000
0001
0000
0001
0100
1000
0000
,
0010
0100
0001
0100
0010
0000
1000
0100
0001
0100
1000
0000
0010
0100
0010
0000
,
0110
0000
0000
0000
0000
0000
0010
1000
0001
0000
0001
0100
0000
0100
0010
0000
,
0000
0000
1100
0000
0101
0000
0010
0001
0100
0000
0001
1000
0100
0000
0000
0000
,
0000
0000
0000
1000
0000
0000
0100
0000
0000
0010
0000
0000
0001
0000
0000
0000
0100
0000
0000
0000
0001
0000
0000
0000
1000
0000
0000
0000
0000
0000
0000
0000
0000
0000
0000
0000
0011
0000
0000
0000
0000
0000
0000
0000
0000
0000
0000
0000
,
0001
0010
0001
0100
0000
0010
1000
0001
0000
1000
0100
0000
0110
0000
0000
0000
,
1001
0101
1000
0000
0001
0010
0100
1000
,
0011
0000
0000
0000
1100
0000
0000
0000
1000
0001
0000
0000
0110
0000
1000
0000
,
0010
0000
0100
0000
0001
0000
0010
0000
0001
0000
1000
0000
0100
0010
0000
0100
,
1000
1000
1000
0001
0100
0010
0010
0100
,
0001
1000
0000
0100
1000
0000
0010
0000
0100
0000
0001
0000
1000
0000
0100
0000
,
0010
0000
0110
0000
1100
0000
1001
0010
,
1000
0000
0001
0000
0010
0000
0001
0000
0100
0000
0010
0000
1000
0100
0000
1000
,
0001
0000
1000
0000
0010
0000
1000
0100
2000
0000
0000
3002
0000
0000
0100
0000
,
0103
0010
0000
0100
0001
0000
0010
0000
0100
0000
1000
0000
0001
0000
0100
0000
,
2010
3100
0012
0103
,
2002
0000
0000
3003
;

//---------------dance-solo - ----------------
#NOTES:
     dance-solo:
     :
     Beginner:
     4:
     0.181818,0.242898,0.090909,0.045455,0.000000,112.000000,104.000000,8.000000,4.000000,0.000000,0.000000,0.181818,0.242898,0.090909,0.045455,0.000000,112.000000,104.000000,8.000000,4.000000,0.000000,0.000000:
000000
000000
000000
000000
,
000000
000000
000000
000000
,
000000
000000
000000
000000
,
000000
000000
000000
000000
,
000000
000000
000000
000000
,
000000
000000
000000
000000
,
000000
000000
000000
000000
,
010000
010000
010000
010000
,
000010
000000
010000
000000
,
001000
001000
010000
000010
,
001000
001000
001000
000000
,
000010
000010
000010
000010
,
010000
000000
000010
000000
,
001000
000010
001000
000000
,
000010
010000
000010
000000
,
010000
001000
010000
000000
,
010000
000010
001000
000000
,
000010
000010
000010
000000
,
010000
010000
010000
000000
,
010010
000000
001000
001000
,
010010
000000
001000
001000
,
010010
000000
010000
000000
,
001000
001000
001000
000000
,
010010
000000
000010
000000
,
001000
001000
001000
000000
,
000010
010000
001000
000000
,
010000
000010
001000
001000
,
000010
001000
000010
010000
,
010010
000000
010000
000010
,
000000
001000
001000
001000
,
000000
000010
010000
000000
,
010000
001000
010000
000010
,
010010
000000
001000
001000
,
020020
000000
030030
000000
,
000010
000010
010000
001000
,
010000
000000
000010
000000
,
001000
001000
001000
001000
,
010000
000000
000000
000000
,
010000
000010
001000
001000
,
000010
000000
010000
000000
,
001000
001000
001000
001000
,
000010
000000
010000
000000
,
020020
000000
000000
030030
;

//---------------dance-solo - ----------------
#NOTES:
     dance-solo:
     :
     Challenge:
     13:
     0.547078,0.680114,0.500000,0.329545,0.443182,337.000000,293.000000,44.000000,29.000000,0.000000,0.000000,0.547078,0.680114,0.500000,0.329545,0.443182,337.000000,293.000000,44.000000,29.000000,0.000000,0.000000:
// measure 0
000000
000000
000000
000000
,  // measure 1
000000
000000
000000
000000
,  // measure 2
000000
000000
000000
000000
,  // measure 3
000000
000000
000000
000000
,  // measure 4
000000
000000
000000
000000
,  // measure 5
000000
000000
000000
000000
,  // measure 6
000000
000000
000000
000000
,  // measure 7
000100
100000
000000
100000
000001
000000
001000
000000
000010
000000
010000
000000
001000
000000
100000
000000
,  // measure 8
000001
000000
000101
000000
101000
000000
100001
001000
,  // measure 9
020010
000000
000000
000000
030020
000000
000000
000000
002030
000000
000000
000000
003001
010000
000000
001000
,  // measure 10
100000
000000
100000
000000
100000
000000
000100
001000
000002
000000
000000
020003
000000
000000
031000
000000
,  // measure 11
100000
000010
000000
000010
001000
000000
000001
000000
010000
000000
000100
000000
001000
000000
000010
000000
,  // measure 12
020010
001000
031000
000000
010020
001000
001030
000000
,  // measure 13
000001
100000
000001
000000
001100
000000
001100
000000
010000
000000
000010
000000
001000
000000
000000
000000
,  // measure 14
000100
100000
000100
100000
000000
000010
001000
000000
010010
000000
010010
000000
001001
000000
000000
000000
,  // measure 15
000010
000100
000000
000010
000000
010000
000000
001000
100000
000001
000000
001000
000000
000100
000000
100000
,  // measure 16
001000
000000
010000
000010
000000
000100
000000
000001
100000
000000
001000
010000
000000
000010
000000
000000
,  // measure 17
100000
000100
100000
000100
000000
000000
011000
000000
011000
000000
010000
000010
010000
000000
000000
000000
,  // measure 18
000001
000100
000001
000100
000000
000000
001010
000000
001010
000000
100000
000010
100000
000000
000000
000000
,  // measure 19
000100
001000
000100
000000
000000
000000
100000
001000
100000
000000
000010
010000
000000
010000
000001
000000
,  // measure 20
000102
000000
000000
000000
100003
000000
000100
001000
000100
000000
010000
000001
000000
010000
000010
000000
,  // measure 21
001100
100001
100000
001000
101000
000001
010000
000010
,  // measure 22
000210
000000
000000
000301
100000
000000
100000
000000
100000
000000
000100
001000
000010
001000
000100
000000
,  // measure 23
100100
100000
001000
000100
000101
000001
010000
000010
,  // measure 24
020010
000000
000000
031000
000100
000000
000100
000000
000100
000000
000001
100000
001000
100000
000001
000000
,  // measure 25
000100
000000
000010
000000
001000
000000
000001
010000
000100
010000
000001
000000
100100
000000
000000
000000
,  // measure 26
001010
000000
000010
010000
000010
010000
000100
001000
000001
000000
000001
000000
000001
100000
001000
000000
,  // measure 27
010000
001000
000100
001000
010000
000000
100001
000000
000100
100000
000001
000000
100000
000010
100000
000000
,  // measure 28
101000
000000
000001
000000
001000
000000
000100
010000
000010
000000
100000
000001
000000
001000
000100
000000
,  // measure 29
000000
000000
110000
000000
000011
000000
000100
010000
000010
000000
001000
000000
100001
000000
000000
000000
,  // measure 30
000010
000000
000000
000100
000000
000000
000010
000000
000000
000100
000000
000000
000001
000000
000000
000000
100000
000000
000000
000000
001000
000000
000000
000000
020000
000000
000000
000000
000000
000000
000001
000000
000000
000000
000000
000000
030001
000000
000000
000000
000000
000000
000000
000000
000000
000000
000000
000000
,  // measure 31
100000
001000
010000
000100
000000
001000
000000
000001
000000
010000
000010
000000
001001
000000
000000
000000
,  // measure 32
101000
001001
000001
000200
000320
020030
032000
103000
,  // measure 33
200001
000000
000000
000000
300002
000000
000000
000000
001003
000100
000000
000000
010010
000000
001100
000000
,  // measure 34
010020
000000
000000
000000
002030
000000
000000
000000
003200
000000
000000
000000
100300
000001
000000
010000
,  // measure 35
001000
001000
001000
100000
000100
001000
000001
010000
,  // measure 36
000010
000100
000000
000100
000001
000000
100000
000000
000010
000000
010000
000000
001000
000000
100000
000000
,  // measure 37
000001
000000
000101
000000
101000
000000
100001
001000
,  // measure 38
020010
000000
000000
000000
030002
000000
000000
000000
200003
000000
000000
000000
300010
001000
000000
000100
,  // measure 39
010000
000000
010000
000000
010000
000000
001000
000100
000002
000000
000000
000203
000000
000000
000310
000000
,  // measure 40
010000
001000
000000
001000
000010
000000
000100
000000
000001
000000
100000
000000
000010
000000
010000
000000
,  // measure 41
012000
100000
103000
000000
002010
000001
003001
000000
,  // measure 42
200200
000000
000000
300300
;
