#VERSION:0.83;
#TITLE:PUT YOUR FAITH IN ME;
#SUBTITLE:(SATURDAY NIGHT MIX);
#ARTIST:UZI-LAY;
#TITLETRANSLIT:;
#SUBTITLETRANSLIT:;
#ARTISTTRANSLIT:;
#GENRE:;
#ORIGIN:;
#CREDIT:;
#BANNER:PUT YOUR FAITH IN ME (SATURDAY NIGHT MIX).png;
#BACKGROUND:PUT YOUR FAITH IN ME (SATURDAY NIGHT MIX)-bg.png;
#PREVIEWVID:;
#JACKET:PUT YOUR FAITH IN ME (SATURDAY NIGHT MIX)-jacket.png;
#CDIMAGE:;
#DISCIMAGE:;
#LYRICSPATH:;
#CDTITLE:;
#MUSIC:PUT YOUR FAITH IN ME (SATURDAY NIGHT MIX).ogg;
#OFFSET:0.000000;
#SAMPLESTART:75.500000;
#SAMPLELENGTH:15.000000;
#SELECTABLE:YES;
#DISPLAYBPM:120.000000;
#BPMS:0.000=120.200,
4.000=120.000;
#STOPS:;
#DELAYS:;
#WARPS:;
#TIMESIGNATURES:0.000=4=4;
#TICKCOUNTS:0.000=4;
#COMBOS:0.000=1;
#SPEEDS:0.000=1.000=0.000=0;
#SCROLLS:0.000=1.000;
#FAKES:;
#LABELS:0.000=Song Start;
#BGCHANGES:;
#KEYSOUNDS:;
#ATTACKS:
;

//---------------dance-single - ----------------
#NOTEDATA:;
#CHARTNAME:;
#STEPSTYPE:dance-single;
#DESCRIPTION:;
#CHARTSTYLE:;
#DIFFICULTY:Beginner;
#METER:3;
#RADARVALUES:0.113703,0.140051,0.000000,0.000000,0.000000,78.000000,78.000000,0.000000,0.000000,0.000000,0.000000,0.000000,0.000000,0.000000,0.113703,0.140051,0.000000,0.000000,0.000000,78.000000,78.000000,0.000000,0.000000,0.000000,0.000000,0.000000,0.000000,0.000000;
#CREDIT:;
#DISPLAYBPM:120.000000;
#NOTES:
0000
0000
0000
0000
,
0000
0000
0000
0000
,
0000
0000
0000
0000
,
0000
0000
0000
0000
,
0000
0000
0000
0000
,
0000
0000
0000
0000
,
0000
0001
0000
0000
,
0000
0001
0000
0000
,
0000
1000
0000
0000
,
1000
1000
0000
0000
,
0000
0001
0000
0001
,
0000
0100
0000
0100
,
0000
0100
0000
1000
,
0000
0010
0010
0010
,
0000
0001
0000
0001
,
0000
0010
0000
0010
,
0000
0010
0000
1000
,
0000
0100
0100
0100
,
0000
0100
0000
0100
,
0000
0100
0000
0100
,
0000
0100
0000
0100
,
0000
1000
0000
1000
,
0000
1000
0000
0100
,
0000
0010
0000
0100
,
0000
0100
0000
0100
,
0000
0000
0001
0000
,
0000
1000
0000
1000
,
0000
0100
0000
1000
,
0000
0010
0000
0010
,
0000
0010
0000
0000
,
0001
0000
1000
0000
,
0000
1000
0000
0100
,
0000
0000
0001
0000
,
0001
0000
0100
0000
,
1000
0000
0100
0000
,
0010
0000
1000
0000
,
0010
0000
1000
0000
,
1000
0000
0100
0000
,
0010
0000
0100
0100
,
0000
0001
0000
0001
,
0000
0100
0000
0001
,
0000
0100
0100
0000
,
0010
0000
0100
0100
,
0000
1000
0000
1000
,
0000
1000
0000
1000
,
0000
0010
0000
1000
;

//---------------dance-single - ----------------
#NOTEDATA:;
#CHARTNAME:;
#STEPSTYPE:dance-single;
#DESCRIPTION:;
#CHARTSTYLE:;
#DIFFICULTY:Easy;
#METER:5;
#RADARVALUES:0.196793,0.211225,0.030612,0.061224,0.000000,135.000000,132.000000,3.000000,6.000000,0.000000,0.000000,0.000000,0.000000,0.000000,0.196793,0.211225,0.030612,0.061224,0.000000,135.000000,132.000000,3.000000,6.000000,0.000000,0.000000,0.000000,0.000000,0.000000;
#CREDIT:;
#DISPLAYBPM:120.000000;
#NOTES:
0000
0000
0000
0000
,
0000
0000
0000
0000
,
0000
0000
0000
0000
,
0000
0000
0000
0000
,
0000
0000
0000
0000
,
0000
0000
0000
0000
,
0000
0001
0000
0000
,
0000
0001
0000
0000
,
0000
1000
0000
0000
,
1000
1000
0000
0000
,
0000
0001
0000
0001
,
0000
0100
0000
0100
,
0010
0100
0001
1000
,
0200
0010
0010
0310
,
0000
0001
0000
0001
,
0000
0010
0000
0010
,
0100
0010
0001
1000
,
0020
0100
0100
0130
,
0001
0100
0001
0100
,
0001
0100
0001
0100
,
0010
0100
0010
0100
,
0010
1000
0100
1000
,
0001
1000
0100
0100
,
1000
0010
1000
0100
,
1000
0100
0010
0100
,
2000
3000
0002
0003
,
0000
1000
0000
1000
,
0010
0100
0001
1000
,
0000
0010
0000
0010
,
0100
0010
1001
0000
,
0101
0000
1000
0100
,
0000
1000
0100
0100
,
1010
0000
0001
0010
,
0001
0010
0100
1000
,
1000
0010
0100
0001
,
0010
0100
1000
0001
,
0010
0100
1000
0001
,
1000
0100
0100
1000
,
0010
1000
0100
0100
,
0010
0001
0100
0001
,
0010
0100
1000
0001
,
2000
0100
0100
3001
,
0010
0001
0100
0100
,
0010
1000
0100
1000
,
0010
1000
0100
1000
,
0002
0010
0100
1003
,
0010
0000
0000
0000
;

//---------------dance-single - ----------------
#NOTEDATA:;
#CHARTNAME:;
#STEPSTYPE:dance-single;
#DESCRIPTION:;
#CHARTSTYLE:;
#DIFFICULTY:Medium;
#METER:8;
#RADARVALUES:0.317784,0.355867,0.081633,0.112245,0.000000,218.000000,210.000000,8.000000,11.000000,0.000000,0.000000,0.000000,0.000000,0.000000,0.317784,0.355867,0.081633,0.112245,0.000000,218.000000,210.000000,8.000000,11.000000,0.000000,0.000000,0.000000,0.000000,0.000000;
#CREDIT:;
#DISPLAYBPM:120.000000;
#NOTES:
0000
0000
0000
0000
,
0000
0000
0000
0000
,
0000
0000
0000
0000
,
0000
0000
0000
0000
,
2000
0000
0000
3000
,
0002
0000
0000
0003
,
0010
0000
0010
0000
1000
0001
0100
0000
,
0010
0001
1000
0000
0100
0010
0001
0000
,
1000
0000
2000
0000
0100
3000
0200
0000
,
0010
0300
0020
0000
0001
0000
0031
0000
,
0010
1000
0001
0000
0100
0010
1000
0000
,
0100
0001
0010
1001
,
0100
0000
0010
0000
1000
0100
0010
0000
,
1000
0010
0100
1001
,
0010
0001
1000
0000
0100
0010
0001
0000
,
1000
0010
0100
1001
,
0100
0010
0001
0000
0010
1000
0100
0000
,
0001
0100
0010
1000
0001
0000
1001
0000
,
0010
1000
0100
0000
0010
0001
0100
0000
,
0010
0000
0010
0000
1000
0001
1000
0000
,
0001
1000
0100
0000
0010
0001
0100
0000
,
0010
0000
0010
0000
1000
0001
0100
0000
,
0001
1000
0001
0000
0100
0000
0100
0000
,
0010
1000
0100
0000
0010
0001
1000
0000
,
0001
1000
0001
0000
1000
0001
0100
0000
,
0010
0000
0010
0000
0100
0010
2000
0000
,
0001
0001
3001
0002
,
0100
0100
0103
0200
,
0010
0010
0310
0020
,
1000
1000
1000
1030
,
0010
0000
0010
0000
1000
0001
1000
0000
,
0010
0100
0001
0000
1000
0001
0100
0000
,
1000
0100
0010
0000
0001
1000
0001
0000
,
0100
0000
0100
0000
1000
0001
1000
0000
,
0001
0002
0100
0103
,
0010
0020
1000
1030
,
1000
0001
1000
0000
0100
0010
0001
0000
,
0010
0100
1000
0000
0001
1000
0001
0000
,
0010
1000
0001
0000
0100
0010
1000
0000
,
0100
0001
0010
1001
,
0100
0000
0010
0000
1000
0100
0010
0000
,
1000
0010
0100
1001
,
0001
1000
0100
0010
0001
1000
0010
0000
,
0100
0001
1000
0110
,
1000
0100
0010
0001
1000
0010
1000
0000
,
0001
1000
0100
0000
0010
0100
0010
0000
,
1000
0001
0110
0000
;

//---------------dance-single - ----------------
#NOTEDATA:;
#CHARTNAME:;
#STEPSTYPE:dance-single;
#DESCRIPTION:;
#CHARTSTYLE:;
#DIFFICULTY:Hard;
#METER:9;
#RADARVALUES:0.386297,0.403316,0.132653,0.122449,0.000000,265.000000,252.000000,13.000000,12.000000,0.000000,0.000000,0.000000,0.000000,0.000000,0.386297,0.403316,0.132653,0.122449,0.000000,265.000000,252.000000,13.000000,12.000000,0.000000,0.000000,0.000000,0.000000,0.000000;
#CREDIT:;
#DISPLAYBPM:120.000000;
#NOTES:
0000
0000
0000
0000
,
0000
0000
0000
0000
,
0000
0000
0000
0000
,
0000
0000
0000
0000
,
0001
0001
0001
0001
,
1000
1000
1000
1000
,
0010
1000
0100
0000
0010
0001
0100
0000
,
0010
1000
0001
0000
0100
0010
1000
0000
,
0001
0000
0002
0000
0100
0003
0200
0000
,
0010
0300
0020
0000
1000
0000
1030
0000
,
0100
0010
0100
0001
1000
0100
0010
0000
,
0100
0010
0100
0010
0100
1000
0110
0000
,
0001
0100
0010
1000
0100
0010
0001
0000
,
0100
0010
0100
0001
1000
0000
1100
0000
,
0001
1000
0100
0010
0001
1000
0010
0000
,
0100
0010
1000
0001
0010
0000
1001
0000
,
0100
0010
0001
0100
0010
1000
0100
0000
,
0010
0001
1000
0010
0100
0001
1100
0000
,
0010
0001
0200
0000
0310
1000
0100
0000
,
0010
0001
2000
0000
3010
0100
0010
0000
,
0001
1000
0100
0000
0010
0001
0100
0000
,
0010
0100
0010
1000
0001
0010
1100
0000
,
0010
0100
0020
0000
1000
0030
0100
0000
,
0010
0001
0200
0000
0010
0000
0301
0000
,
0010
1000
0100
0000
0010
0001
0100
0000
,
1000
0000
1000
0000
0100
0010
0200
0000
,
0010
0010
0010
2300
,
0001
0001
3001
0200
,
0010
0010
0010
0302
,
1000
1000
1000
1003
,
0010
0001
0200
0000
0310
1000
0100
0000
,
0010
0100
0010
0100
1000
0010
1100
0000
,
1000
0001
0100
0010
1000
0100
0010
0000
,
0001
0000
1100
0000
0010
0100
0001
0000
,
0010
0001
0100
0010
0100
0001
1000
0000
,
0100
0010
0001
0100
0010
1000
0001
0000
,
1000
0001
1000
0000
0100
0010
0001
0000
,
0100
0010
1100
0000
0010
1000
0001
0000
,
0100
0010
0100
0001
1000
0100
0010
0000
,
0100
0010
0100
0010
0100
1000
0101
0000
,
0010
0100
0001
1000
0100
0010
0001
0000
,
0100
0010
0100
0001
1000
0000
0110
0000
,
0001
1000
0100
0010
0001
1000
0010
0000
,
0100
0010
1000
0001
0010
0000
1001
0000
,
0100
0010
0001
0100
0010
1000
0100
0000
,
0010
0001
0100
0010
1000
0001
0110
0000
,
1000
0001
1100
0000
;

//---------------dance-double - ----------------
#NOTEDATA:;
#CHARTNAME:;
#STEPSTYPE:dance-double;
#DESCRIPTION:;
#CHARTSTYLE:;
#DIFFICULTY:Easy;
#METER:5;
#RADARVALUES:0.189504,0.211225,0.071429,0.061224,0.000000,130.000000,123.000000,7.000000,6.000000,0.000000,0.000000,0.000000,0.000000,0.000000,0.189504,0.211225,0.071429,0.061224,0.000000,130.000000,123.000000,7.000000,6.000000,0.000000,0.000000,0.000000,0.000000,0.000000;
#CREDIT:;
#DISPLAYBPM:120.000000;
#NOTES:
00000000
00000000
00000000
00000000
,
00000000
00000000
00000000
00000000
,
00000000
00000000
00000000
00000000
,
00000000
00000000
00000000
00000000
,
00010000
00001000
00000000
00001000
,
00000000
00000001
00000000
00000100
,
00001000
00010000
00000000
00010000
,
00000000
10000000
00000000
01000000
,
00010000
00001000
00000000
00000100
,
00000100
00000000
00000000
00000000
,
00000001
00000100
00000001
00000010
,
00001000
00010000
00100000
10000000
,
00100000
00000000
00100000
00000000
,
10000000
00010000
01000000
00010000
,
10000000
00100000
10000000
01000000
,
00010000
00001000
00000100
00000001
,
00000100
00000000
00000100
00000000
,
00000101
00000000
00001100
00000000
,
00000001
00000100
00001000
00000000
,
00001000
01000000
00010000
00000000
,
00010000
01000000
10000000
00000000
,
01000000
00001000
00010000
00000000
,
00001000
00000100
00000001
00000000
,
00000001
00000010
00000100
00000000
,
00002000
00003000
00000002
00000003
,
00001000
00000100
00001000
00000100
,
00010000
00000000
00011000
00000000
,
01000000
00000000
10010000
00000000
,
01000000
00010000
00001000
00000000
,
00000220
00000000
00000000
00000330
,
00000010
00000001
00000100
00000000
,
00000100
00001000
00010000
00000000
,
01000000
10000000
00010000
00000000
,
00100000
00001000
00010000
00000000
,
00001000
00000100
00000001
00000000
,
00000010
00000100
00001000
00000000
,
00000100
00010000
00001000
00000000
,
00022000
00000000
00033000
00000000
,
10000000
01000000
10000000
00100000
,
00010000
00001000
00000010
00000001
,
00000010
00000000
00000010
00000000
,
00000001
00001000
00000100
00001000
,
00000001
00000010
00000001
00000100
,
00001000
00010000
01000000
10000000
,
01000000
00000000
01000000
00000000
,
00100000
00100000
00001000
00010000
,
00011000
00000000
00000000
00000000
;

//---------------dance-double - ----------------
#NOTEDATA:;
#CHARTNAME:;
#STEPSTYPE:dance-double;
#DESCRIPTION:;
#CHARTSTYLE:;
#DIFFICULTY:Medium;
#METER:7;
#RADARVALUES:0.327988,0.375510,0.265306,0.061224,0.000000,225.000000,199.000000,26.000000,6.000000,0.000000,0.000000,0.000000,0.000000,0.000000,0.327988,0.375510,0.265306,0.061224,0.000000,225.000000,199.000000,26.000000,6.000000,0.000000,0.000000,0.000000,0.000000,0.000000;
#CREDIT:;
#DISPLAYBPM:120.000000;
#NOTES:
00000000
00000000
00000000
00000000
,
00000000
00000000
00000000
00000000
,
00000000
00000000
00000000
00000000
,
00000000
00000000
00000000
00000000
,
00000001
00001000
00001000
00000100
,
00010000
00000010
00000010
00010000
,
00001000
00010000
00001000
00000000
01000000
00010000
01000000
00000000
,
10000000
01000000
00010000
00001000
,
00000100
00000001
00000100
00000000
00000010
00001000
00000010
00000000
,
00002002
00000000
00000000
00003003
,
00000100
00010000
00000100
00000000
00010000
00000000
00000100
00000000
,
00010000
00000000
01000000
00000000
01000000
00100000
01000000
00100000
,
10000000
00010000
00010000
10000000
,
00100000
01000000
00001000
00011000
,
00010000
00000100
00010000
00000000
00000100
00000000
00010000
00000000
,
00000100
00000000
00001000
00000000
00000001
00000100
00000001
00000100
,
00000010
00000100
00000100
00000010
,
00001000
00000100
00010000
00011000
,
00010000
01000000
10000000
00000000
10000000
01000000
00010000
00000000
,
01000000
00010000
01100000
10010000
,
01000000
00010000
00001000
00000000
00001000
00010000
01000000
00000000
,
00010000
00001000
00001100
00001001
,
00000100
00000001
00000010
00000000
00000010
00000001
00000100
00000000
,
00001000
00010000
00011000
01001000
,
00010000
01000000
10000000
00000000
10000000
01000000
00010000
00000000
,
01010000
10010000
11000000
10010000
,
01000000
00010000
00001000
00000100
,
00001000
00000000
00010000
00000000
00001000
00000000
00000100
00000001
,
00000100
00000001
00000100
00000010
,
00002002
00003003
00000220
00000330
,
00001000
00000010
00000001
00000000
00000001
00000010
00001000
00000000
,
00000010
00000001
00000110
00001001
,
00000100
00001000
00010000
00000000
00010000
00001000
00000100
00000000
,
00001000
00010000
01010000
10010000
,
00100000
10000000
01000000
00000000
01000000
10000000
00100000
00000000
,
00010000
00001000
00011000
00001100
,
00001000
00000100
00000001
00000000
00000001
00000100
00001000
00000000
,
00001100
00001001
00000101
00001001
,
00000100
00000001
00000100
00000000
00000001
00000000
00000100
00000000
,
00001000
00000000
00010000
00000000
01000000
10000000
01000000
10000000
,
00100000
10000000
10000000
01000000
,
00010000
00001000
00010000
00011000
,
00000100
00001000
00000100
00000000
00001000
00000000
00000100
00000000
,
00001000
00000000
00000001
00000000
00001000
00000100
00001000
00000100
,
00000010
00000001
00000001
00000100
,
00001000
00000000
00010000
00000000
01000000
10000000
01000000
00010000
,
00001000
00000000
00000000
00000000
;

//---------------dance-double - ----------------
#NOTEDATA:;
#CHARTNAME:;
#STEPSTYPE:dance-double;
#DESCRIPTION:;
#CHARTSTYLE:;
#DIFFICULTY:Hard;
#METER:12;
#RADARVALUES:0.418367,0.524745,0.061224,0.051020,0.275510,287.000000,281.000000,6.000000,5.000000,0.000000,0.000000,0.000000,0.000000,0.000000,0.418367,0.524745,0.061224,0.051020,0.275510,287.000000,281.000000,6.000000,5.000000,0.000000,0.000000,0.000000,0.000000,0.000000;
#CREDIT:;
#DISPLAYBPM:120.000000;
#NOTES:
00000000
00000000
00000000
00000000
,
00000000
00000000
00000000
00000000
,
00000000
00000000
00000000
00000000
,
00000000
00000000
00000000
00000000
00000000
00000000
00000000
00000010
,
00000100
00000100
00010000
00010000
,
00100000
00000000
00100000
00000000
10000000
00000000
01000000
00010000
,
00001000
00000000
00000100
00000000
00000001
00000010
00001000
00000000
,
00001000
00000000
00000010
00000000
00000001
00000000
00000000
00000000
00001000
00000000
00000001
00000000
00000100
00000010
00000100
00000010
,
00000000
00000000
00001000
00000000
00000100
00010000
00001000
00000000
,
01000000
00000000
00100000
00000000
10000000
00000000
01000000
00010000
,
00001000
00000000
00000000
00000000
00000100
00000000
00000000
00000000
00000001
00000000
00000000
00000000
00000010
00000001
00000000
00001000
,
00000000
00000100
00010000
00000000
00001000
00000000
00001000
00000000
,
01000000
00100000
01000000
00100000
10000000
00010000
01000000
00000000
,
00010000
00000000
00010000
00000000
10000000
00100000
00010000
00001000
,
00000010
00000000
00000000
00000000
00000001
00000000
00000000
00000000
00000001
00000000
00000000
00000000
00000010
00000001
00000000
00001000
,
00000000
00000100
00010000
00000000
00001000
00000000
00001000
00000000
,
01000000
00100000
01000000
00100000
10000000
00010000
01000000
00000000
,
00010000
00000000
00010000
00000000
10000000
00010000
10000000
00000000
,
10000000
01000000
10000000
00000000
01000000
00000000
00010000
00000000
00001000
00010000
00000000
00001000
00000000
00000100
00000000
00000000
,
00000001
00001000
00000001
00001000
00000000
00000100
00000010
00000100
00000010
00000000
00000001
00001000
00000000
00000001
00000000
00000000
,
00000001
00000100
00000000
00000100
00000000
00000010
00000000
00001000
00000100
00001000
00000000
00000100
00000000
00010000
00000000
00010000
,
01000000
00000000
00000000
00000000
00000000
00000000
10000000
00000000
00000000
00000000
00000000
00000000
00000000
00100000
00000000
00000000
00000000
00000000
00000000
00000000
00000000
01000000
00000000
00000000
00000000
00000000
00000000
00000000
00010000
00000000
00000000
00000000
00100000
00000000
00000000
00000000
00000000
00000000
00010000
00000000
00000000
00000000
00000000
00000000
00000000
01000000
00000000
00000000
00000000
00000000
00000000
00000000
00100000
00000000
00000000
00000000
00000000
00000000
00000000
00000000
00000000
00000000
00000000
00000000
,
10000000
00000000
01000000
00100000
00000000
00100000
00000000
00001000
00000000
00001000
00010000
00000000
00010000
00000000
00000100
00000000
,
00000100
00001000
00000100
00001000
00000000
00000001
00000000
00000001
00000000
00001000
00000010
00000000
00000100
00000000
00000100
00000000
,
00000010
00000100
00000010
00000000
00000000
00000000
00001000
00000001
00001000
00000001
00001000
00000001
00000000
00000000
00000000
00000000
,
00000010
00000001
00000100
00001000
00010000
01000000
10000000
00000000
,
00010000
10000000
01000000
00000000
01000000
00000000
00110000
00000000
,
10010000
00000000
01000000
00000000
01000000
00000000
10000000
01000000
,
00010000
00001000
00000100
00000000
00000100
00000000
00000001
00001000
,
00001001
00000000
00000000
00000000
00000000
00000000
00001000
00000000
00000001
00000000
00000010
00000100
00000010
00000100
00000000
00000000
,
00001000
00000000
00001000
00000000
00000010
00000000
00001000
00000000
00000100
00000000
00010000
00000000
00001000
00010000
00000000
00000000
,
01000000
00000000
01000000
00000000
00100000
00000000
00010000
00000000
10000000
00000000
00100000
00000000
01000000
00010000
01000000
00000000
,
00100000
00000000
00100000
00000000
00010000
00000000
00001000
00000000
00000010
00000000
00000001
00000000
00000100
00000010
00000100
00000000
,
00000001
00000000
00000001
00000000
00001000
00000000
00000100
00000000
00020000
00000000
00000000
00032000
00000000
00000000
02003000
00000000
,
00000000
03000000
00100000
00000000
01000000
00000000
00000000
00000000
00010000
00000000
10000000
00000000
10010000
00000000
00000000
00000000
,
00100000
00100000
00010000
00001000
00000010
00000001
00000100
00000000
,
00000001
00000001
00001000
00000000
00000100
00000100
00010000
00001000
,
01001000
00000000
00010000
00000000
10000000
00100000
00010000
00001000
,
00000010
00000000
00000000
00000000
00000001
00000000
00000000
00000000
00000001
00000000
00000000
00000000
00000010
00000001
00000000
00001000
,
00000000
00000100
00010000
00000000
00001000
00000000
00001000
00000000
,
01000000
00100000
01000000
00100000
10000000
00010000
01000000
00000000
,
00010000
00000000
00010000
00000000
10000000
00100000
00010000
00001000
,
00000010
00000000
00000000
00000000
00000001
00000000
00000000
00000000
00000001
00000000
00000000
00000000
00000010
00000001
00000000
00001000
,
00000000
00000100
00010000
00000000
00001000
00000000
00001000
00000000
,
01000000
00100000
10000000
00010000
10000000
00010000
00100000
00000000
,
01000000
00010000
00001000
00000000
00000100
00000001
00000010
00001000
,
00022000
00000000
00000000
00033000
;

//---------------dance-single - ----------------
#NOTEDATA:;
#CHARTNAME:;
#STEPSTYPE:dance-single;
#DESCRIPTION:;
#CHARTSTYLE:;
#DIFFICULTY:Challenge;
#METER:12;
#RADARVALUES:0.587464,0.596301,0.489796,0.326531,0.362245,403.000000,355.000000,48.000000,32.000000,0.000000,0.000000,0.000000,0.000000,0.000000,0.587464,0.596301,0.489796,0.326531,0.362245,403.000000,355.000000,48.000000,32.000000,0.000000,0.000000,0.000000,0.000000,0.000000;
#CREDIT:;
#DISPLAYBPM:120.000000;
#NOTES:
// measure 0
0000
0000
0000
0000
,  // measure 1
0000
0000
0000
0000
,  // measure 2
0000
0000
0000
0000
,  // measure 3
0000
0000
0000
0000
,  // measure 4
2002
3000
2000
0003
0020
3000
0002
0030
,  // measure 5
0200
0003
0020
0300
2000
3030
1100
0101
,  // measure 6
1100
0001
0100
0010
1000
0001
1000
0100
,  // measure 7
0010
0000
0001
0000
0100
0000
0010
0000
1000
0000
0000
1000
0001
0010
0001
0010
,  // measure 8
0200
1300
1020
0130
,  // measure 9
0010
0000
1000
0001
1000
0010
0000
0100
0000
0100
0001
0000
0011
0000
0101
0000
,  // measure 10
2001
0000
0010
0000
3020
0000
0100
0000
0230
0000
0001
0000
0301
1000
0000
1000
,  // measure 11
0100
0000
0010
0000
0001
0000
0100
0000
0001
1000
0000
1000
0100
0000
0010
0000
,  // measure 12
0001
0100
0000
0100
1000
0000
0010
0000
1001
0000
0110
0000
1000
0001
0100
0010
,  // measure 13
1000
0000
1100
0000
0011
0000
1010
0110
,  // measure 14
2001
0000
0100
0000
3200
0000
1000
0000
2300
0000
0010
0000
3010
0100
0000
0001
,  // measure 15
1000
0000
1000
0000
1000
0000
0010
0100
0010
0100
0000
0001
1000
0000
0011
0000
,  // measure 16
0001
1000
0000
1000
0100
0000
0010
0000
0011
0000
1100
0000
0010
0100
0001
1000
,  // measure 17
0002
0010
2003
0010
,  // measure 18
3001
0010
0001
0000
0100
0000
0100
0000
0010
0000
1000
0000
0001
0000
1000
0000
,  // measure 19
0100
1000
0100
0000
1000
0000
1000
0000
0001
0000
0010
0000
0001
0000
0100
0000
,  // measure 20
0010
0100
0010
0000
1000
0000
1000
0000
0001
0000
0100
0000
0001
0000
1000
0000
,  // measure 21
0010
0000
0010
0000
0100
0000
0100
0000
0001
0000
0010
0100
1000
0000
1000
0000
,  // measure 22
0001
0010
0100
0000
1000
0000
1000
0000
0010
0000
1000
0000
0001
0000
0100
0000
,  // measure 23
0010
0100
0010
0000
0100
0000
0100
0000
0001
0000
0010
0000
0100
0000
1000
0000
,  // measure 24
0001
1000
0100
0000
1001
0000
0000
0000
0010
0000
1000
0100
0000
0010
0001
0000
,  // measure 25
0102
0000
0000
0000
2003
0000
0000
0000
3010
0000
1000
0100
0000
0010
0001
0000
,  // measure 26
1001
0110
1001
0010
1000
0100
0010
0001
,  // measure 27
0200
0000
0000
0310
0100
0000
0001
0000
1000
0000
0001
0010
0100
1000
0010
0000
,  // measure 28
0110
1001
0110
0100
0001
1000
0010
0100
,  // measure 29
0002
0000
0000
0013
0001
0000
0100
0000
0100
0000
0010
1000
0000
1000
0000
0001
,  // measure 30
0000
0000
1002
0000
0200
0000
0303
0000
0010
1000
0010
0000
1000
0001
1000
0000
,  // measure 31
0001
0000
0010
0000
0100
0000
1000
0000
0010
0000
0100
0000
0010
1000
0001
0000
,  // measure 32
1000
0100
0010
0000
0001
0000
0001
0000
0100
0010
1000
0000
0001
1000
0100
0000
,  // measure 33
0110
0000
0001
0000
0100
0000
0000
0000
0010
0000
1000
0001
0000
1000
0100
0000
,  // measure 34
0000
1010
0101
0010
1001
1000
0100
0000
,  // measure 35
0010
0000
0000
1001
0000
0000
1000
0000
0100
0000
0010
0000
0001
0000
0000
1000
0000
0000
0100
0000
0000
0000
0000
0000
,  // measure 36
0010
0001
0010
0000
0100
0000
1000
0000
0010
0100
0010
0000
1000
0000
0000
0000
,  // measure 37
0011
0011
0100
0010
1000
0001
1100
0110
,  // measure 38
0012
0000
1000
0000
2003
0000
0010
0000
3020
0000
0100
0000
0130
0001
0000
0001
,  // measure 39
1000
0000
0001
0000
0100
0000
0010
0000
1000
0100
0000
1000
0001
0000
0010
0000
,  // measure 40
0001
0100
0000
0001
1000
0000
1000
0000
1010
0000
0110
0000
0100
0010
0100
0001
,  // measure 41
1000
0001
0100
0000
0110
0000
1001
1010
,  // measure 42
1200
0000
1000
0000
2300
0000
0010
0000
3020
0000
0100
0000
0130
0001
0000
0001
,  // measure 43
0010
0000
0001
0000
0100
0000
0001
1000
0001
1000
0000
0010
1000
0000
0100
0000
,  // measure 44
1000
0010
0000
0010
0100
0000
0001
0000
0011
0000
1100
0000
0010
0100
0001
1000
,  // measure 45
0002
0010
2003
0010
,  // measure 46
3001
1000
1100
0000
0110
0000
0011
0000
;
