#TITLE:PUT YOUR FAITH IN ME (Jazzy Groove);
#SUBTITLE:;
#ARTIST:UZI-LAY;
#TITLETRANSLIT:;
#SUBTITLETRANSLIT:;
#ARTISTTRANSLIT:;
#GENRE:;
#CREDIT:;
#BANNER:PUT YOUR FAITH IN ME (Jazzy Groove)-bn.png;
#BACKGROUND:PUT YOUR FAITH IN ME (Jazzy Groove)-bg.png;
#LYRICSPATH:;
#CDTITLE:;
#MUSIC:PUT YOUR FAITH IN ME (Jazzy Groove).ogg;
#OFFSET:0.000000;
#SAMPLESTART:47.974998;
#SAMPLELENGTH:20.000000;
#SELECTABLE:YES;
#DISPLAYBPM:120.000000;
#BPMS:0.000000=120.112999
;
#STOPS:
;
#BGCHANGES:;
#KEYSOUNDS:;
#ATTACKS:;

//---------------dance-couple - ----------------
#NOTES:
     dance-couple:
     :
     Easy:
     4:
     0.246522,0.305218,0.070435,0.000000,0.000000,147.000000,141.000000,6.000000,0.000000,0.000000,0.000000,0.243168,0.305218,0.046957,0.000000,0.000000,145.000000,141.000000,4.000000,0.000000,0.000000,0.000000:
00000000
00000000
00000000
00000000
,
00000000
00000000
00000000
00000000
,
00000000
00000000
00000000
00000000
,
00000000
00000000
00000000
00000000
,
00000000
00000000
00000000
00000000
,
00000000
00000000
00000000
00000000
,
00000000
00010001
00000000
00010001
00000000
00010001
00000000
00010001
,
00000000
00010001
00000000
00010001
00000000
00000000
01000100
00000000
,
00010001
10001000
01100110
10001000
,
00010001
00100010
01000100
10001000
,
01000100
00010001
01000100
10001000
,
00100010
00000000
00010001
00000000
00010001
01000100
10001000
00000000
,
00010001
10001000
01100110
10001000
,
00010001
00100010
01000100
10001000
,
00100010
10001000
01000100
00000000
00100010
00010001
01000100
00000000
,
00100010
10001000
01000100
00000000
01000100
00000000
01000100
00000000
,
01000000
00010100
00100000
01000001
,
10000000
00100100
01000000
10011000
,
00100000
00010100
00100000
00010010
,
00100000
10001000
01000000
10010100
,
00100010
10000001
01000100
00000000
00100010
00000000
01000100
00000000
,
00100010
00011000
01000100
00000000
00100010
00000000
01000100
00000000
,
00100010
10000001
01000100
00000000
00011000
00000000
01000100
00000000
,
00100010
00011000
01000100
00000000
10000001
00000000
01000100
00000000
,
00000001
01000010
00000100
10000010
,
00000001
01001000
00000100
00010001
,
00001000
01000100
00000010
00100100
,
00001000
00010001
00000100
01001000
,
00100010
00010001
01000100
00010001
,
00100010
10001000
01000100
10001000
,
00010001
10001000
01000100
10001000
,
00010001
10001000
01000100
10001000
,
10000001
00011000
01100110
00011000
,
10000001
00100010
01000100
00011000
,
01000100
10000001
01000100
00011000
,
00100010
00000000
10000001
00000000
10000001
01000100
00011000
00000000
,
00011000
10000001
01100110
10000001
,
00011000
00100010
01000100
10000001
,
00100010
10000001
01000100
00000000
00100010
00011000
01000100
00000000
,
00100010
10000001
01000100
00000000
00100010
01000100
00100010
00000000
,
01000100
00000000
00000000
00000000
;

//---------------dance-couple - ----------------
#NOTES:
     dance-couple:
     :
     Medium:
     5:
     0.276709,0.352175,0.152609,0.000000,0.000000,165.000000,152.000000,13.000000,0.000000,0.000000,0.000000,0.276709,0.352175,0.164348,0.000000,0.000000,165.000000,151.000000,14.000000,0.000000,0.000000,0.000000:
00000000
00000000
00000000
00000000
,
00000000
00000000
00000000
00000000
,
00000000
00000000
00000000
00000000
,
00000000
00000000
00000000
00000000
,
00000000
00000000
00000000
00000000
,
00000000
00000000
00000000
00000000
,
00000000
00010001
00000000
01000100
00000000
10001000
00000000
01000100
,
00000000
00010001
00000000
00010001
00000000
00000000
01000100
00000000
,
00100010
01100110
01010101
10011001
,
00100010
00010001
00100010
10001000
,
00100010
00010001
01000100
00000000
00100010
01000100
00010001
00000000
,
00100010
10001000
01000100
00000000
00100010
01000100
10001000
00000000
,
00100010
01100110
01010101
10011001
,
00100010
00010001
00100010
10001000
,
00100010
00010001
01000100
00010001
00100010
01000100
10001000
00000000
,
00100010
10001000
01000100
10001000
00100010
01000100
00010001
00000000
,
00010000
00100000
01000100
00000000
10000000
00000000
01001001
00000000
,
10000000
00100000
01000010
00000000
00010000
00000000
01000100
00000000
,
00000001
00000010
01001000
00000000
00000001
00000000
10011000
00000000
,
00000001
00000100
00101000
00000000
00000001
00000000
01001001
00000000
,
10001000
00010001
00100010
01000100
00000000
00000000
01000100
00000000
,
00000000
01000100
00000000
01000100
,
00010001
01000100
00010001
00000000
10001000
00000000
01000100
00000000
,
10001000
00100010
10001000
00000000
00010001
00000000
00100010
00000000
,
10000000
00100000
01000100
00000000
00100000
01000000
00010001
00000000
,
00001000
00000010
01000100
00000000
00000010
00000100
00010001
00000000
,
00010001
10001000
01000100
01000100
,
00010001
10001000
01000100
01000100
10001000
00010001
01000100
00000000
,
00000000
00010000
00000000
01000000
00000000
10000000
00000000
01000000
,
01000000
01000000
00000000
00000001
00000000
00000010
00000000
00001000
,
00000010
00000001
00000000
00100010
00000000
10001000
00000000
00010001
,
00000000
00000000
00000000
01000100
,
00100010
01100110
01011100
10011001
,
00100010
00011000
00100010
10000001
,
00100010
00011000
01000100
00000000
00100010
01000100
00011000
00000000
,
00100010
10000001
01000100
00000000
00100010
01000100
10000001
00000000
,
00100010
01100110
01011100
10011001
,
00100010
00011000
00100010
10000001
,
00100010
00011000
01000100
00011000
00100010
01000100
10000001
00000000
,
00100010
10000001
01000100
10000001
00100010
01000100
00011000
00000000
,
01000100
00000000
00000000
00000000
;

//---------------dance-couple - ----------------
#NOTES:
     dance-couple:
     :
     Hard:
     6:
     0.338758,0.352175,0.058696,0.000000,0.005870,202.000000,197.000000,5.000000,0.000000,0.000000,0.000000,0.338758,0.352175,0.058696,0.000000,0.005870,202.000000,197.000000,5.000000,0.000000,0.000000,0.000000:
00000000
00000000
00000000
00000000
,
00000000
00000000
00000000
00000000
,
00000000
00000000
00000000
00000000
,
00000000
00000000
00000000
00000000
,
00000000
00000000
00000000
00000000
,
00000000
00000000
00000000
00000000
,
00100010
00000000
00000000
00010001
00000000
00000000
01000100
00000000
00000000
00000000
10001000
00000000
00000000
00000000
01000100
00000000
,
00100010
00000000
01000100
00000000
00100010
00100010
00100010
00000000
,
10001000
00010001
00010001
00000000
10001000
00100010
10011001
00000000
,
00100010
00100010
10001000
00000000
01000100
00100010
00010001
00000000
,
00100000
00010000
00000000
00000000
00000100
00001000
00000000
01000100
,
00010001
01000100
10001000
01000100
00010001
00100010
10001000
00000000
,
10001000
00010001
00010001
00000000
10001000
00100010
10011001
00000000
,
00100010
00100010
10001000
00000000
01000100
00100010
00010001
00000000
,
00100010
00010000
00100010
10000000
00100010
00010000
01000100
00000000
,
00100010
00001000
00100010
00000001
00100010
00001000
01000100
00000000
,
10001000
00000100
00100010
00000100
00010001
00001000
10001000
00000000
,
00100010
10000000
00100010
10000000
01000100
00010000
00010001
00000000
,
00010001
00000100
10001000
00000010
00010001
00000010
00100010
00000000
,
01000100
00010000
00100010
01000000
10001000
00100000
00100010
00000000
,
00010001
10001000
00100010
01000100
01000100
00000000
00010001
00000000
,
10001000
00010001
00100010
01000100
01000100
00000000
10001000
00000000
,
00100010
10001000
00100010
00000000
00010001
01000100
00010001
00000000
,
10001000
00100010
10001000
00000000
01000100
00010001
01000100
00000000
,
10000001
00100010
01000100
00011000
00100010
01000100
00011000
00000000
,
10000001
01000100
00100010
00011000
01000100
00100010
00011000
00000000
,
10000001
01000100
00100010
00011000
01000100
00100010
00011000
00000000
,
00011000
01000100
00100010
10000001
01000100
00100010
10000001
00000000
,
00000000
01000100
00000000
00011000
00000000
00100010
00000000
10000001
,
00100010
00011000
00000000
01000100
00000000
00011000
00000000
01000100
,
00011000
10000001
00000000
00100010
00000000
00011000
00000000
01000100
,
00000000
01000100
00100010
10011001
,
10001000
00010001
00010001
00000000
10001000
00100010
10011001
00000000
,
00100010
00100010
10001000
00000000
01000100
00100010
00010001
00000000
,
00100010
00010001
00000000
00000000
01000100
10001000
00000000
01000100
,
00010001
01000100
10001000
01000100
00010001
00100010
10001000
00000000
,
10001000
00010001
00010001
00000000
10001000
00100010
10011001
00000000
,
00100010
00100010
10001000
00000000
01000100
00100010
00010001
00000000
,
00100010
00010001
00100010
10001000
00100010
00010001
01000100
00000000
,
00100010
00010001
00100010
01000100
00100010
10001000
00100010
00000000
,
01000100
00000000
00000000
00000000
;

//---------------dance-solo - ----------------
#NOTES:
     dance-solo:
     :
     Easy:
     7:
     0.251553,0.305218,0.070435,0.000000,0.000000,150.000000,144.000000,6.000000,0.000000,0.000000,0.000000,0.251553,0.305218,0.070435,0.000000,0.000000,150.000000,144.000000,6.000000,0.000000,0.000000,0.000000:
000000
000000
000000
000000
,
000000
000000
000000
000000
,
000000
000000
000000
000000
,
000000
000000
000000
000000
,
000000
000000
000000
000000
,
000000
000000
000000
000000
,
000000
000010
000000
000010
000000
000010
000000
000010
,
010000
000000
000000
001000
,
000001
100000
001100
010000
,
000010
000100
001000
100000
,
001000
000010
001000
010000
,
000100
000000
100000
000000
000010
001000
100000
000000
,
000001
100000
001100
100000
,
000010
000100
001000
100000
,
000100
010000
001000
000000
000100
000001
001000
000000
,
000100
010000
001000
000000
001000
000000
001000
000000
,
001000
000001
000100
001000
,
010000
000100
001000
100001
,
000100
000010
000100
000010
,
000100
100000
001000
010001
,
000010
100000
001000
000000
000100
000000
001000
000000
,
000100
000001
001000
000000
000100
000000
001000
000000
,
000100
010000
001000
000000
000001
000000
001000
000000
,
000010
000000
000000
000000
,
000001
000100
001000
010000
,
000001
100000
001000
000001
,
010000
001000
000100
001000
,
100000
000001
001000
100000
,
000100
000001
001000
000010
,
010000
001000
000100
000001
,
100000
000001
001000
100000
,
000001
010000
001000
100000
,
100000
000001
001100
000010
,
010000
000100
001000
000001
,
001000
100000
001000
000001
,
000100
000000
010000
000000
000010
100000
001000
000000
,
000001
000100
001100
010000
,
000001
100000
000010
001000
,
000100
100000
001000
000000
000100
000001
001000
000000
,
000100
010000
001000
000000
000100
001000
000100
000000
,
001000
000000
000000
000000
;

//---------------dance-solo - ----------------
#NOTES:
     dance-solo:
     :
     Medium:
     8:
     0.300187,0.352175,0.152609,0.000000,0.000000,179.000000,166.000000,13.000000,0.000000,0.000000,0.000000,0.300187,0.352175,0.152609,0.000000,0.000000,179.000000,166.000000,13.000000,0.000000,0.000000,0.000000:
000000
000000
000000
000000
,
000000
000000
000000
000000
,
000000
000000
000000
000000
,
000000
000000
000000
000000
,
000000
000000
000000
000000
,
000000
000000
000000
000000
,
000000
000001
000000
001000
000000
010000
000000
001000
,
000100
000000
000000
001000
,
000010
100100
001001
100010
,
010000
000001
000100
001000
,
000100
000001
001000
000000
000010
100000
000100
000000
,
000100
100000
001000
000000
010000
001000
000100
000000
,
000100
001010
011000
100001
,
000100
000010
000100
010000
,
000100
100000
001000
010000
000001
000100
000010
000000
,
010000
001000
000100
000001
000010
001000
000100
000000
,
000001
010000
000010
000000
100000
000000
000100
000000
,
100000
000100
001000
000000
000001
000000
001000
000000
,
000010
000100
001000
000000
000001
000000
100000
000000
,
000100
001000
000010
000000
100000
000000
010001
000000
,
000100
001000
010000
000001
000000
000000
001000
000000
,
000000
001000
000000
001000
,
000010
001000
000010
000000
100000
000000
001000
000000
,
010000
000001
010000
000000
000001
000000
000100
000000
,
001000
010000
000001
000000
100000
000010
001000
000000
,
000100
100000
001000
000000
000100
000001
001000
000000
,
000010
100000
001000
001000
,
010000
000001
000100
000100
000010
010000
000100
000000
,
000000
000001
000000
100000
000000
001000
000000
000100
,
000100
000100
000000
000001
000000
000100
000000
100000
,
000100
010000
000000
000010
000000
000100
000000
001000
,
000000
000000
000000
001000
,
000100
001100
010001
100010
,
001000
000100
100000
000001
,
000100
001000
010000
000000
000100
001000
000010
000000
,
100000
001000
000100
000000
000001
001000
000100
000000
,
100000
001010
100001
001100
,
000010
000001
010000
100000
,
000100
000001
001000
000010
000100
000001
100000
000000
,
000100
010000
000010
000100
000001
001000
000100
000000
,
001000
000000
000000
000000
;

//---------------dance-solo - ----------------
#NOTES:
     dance-solo:
     :
     Hard:
     10:
     0.352175,0.375653,0.023478,0.000000,0.005870,210.000000,208.000000,2.000000,0.000000,0.000000,0.000000,0.352175,0.375653,0.023478,0.000000,0.005870,210.000000,208.000000,2.000000,0.000000,0.000000,0.000000:
000000
000000
000000
000000
,
000000
000000
000000
000000
,
000000
000000
000000
000000
,
000000
000000
000000
000000
,
000000
000000
000000
000000
,
000000
000000
000000
000000
,
010000
000000
000000
000001
000000
000000
001000
000000
000000
000000
100000
000000
000000
000000
001000
000000
,
000010
000000
001000
000000
010000
010000
010000
000000
,
001000
000010
000010
000000
100000
001000
000100
000000
,
000001
000001
100000
000000
001000
000100
000001
000000
,
010000
000010
000000
000000
001000
100000
000000
001000
,
000010
001000
100000
001000
000010
000100
001000
000000
,
100000
000001
000001
000000
100000
000100
001000
000000
,
000010
000010
100000
000000
001000
000100
000001
000000
,
010000
000010
100000
000100
100000
000001
001000
000000
,
000100
100000
010000
100000
000010
010000
001000
000000
,
000100
000001
010000
000100
100000
000010
010000
000000
,
000100
100000
000100
100000
001000
000001
000001
000000
,
000001
001000
100000
000100
000001
000010
000010
000000
,
001000
000001
000100
001000
010000
000100
000100
000000
,
000001
100000
000100
001000
001000
000000
000010
000000
,
100000
001000
000100
000001
000001
000000
010000
000000
,
000100
100000
000100
000000
000001
001000
000001
000000
,
100000
000100
100000
000000
001000
000001
001000
000000
,
100000
000100
001000
000001
000100
001000
000010
000000
,
001000
010000
000100
001000
000001
000100
000001
000000
,
100000
001000
000100
000001
000010
001000
000100
000000
,
000001
001000
000100
100000
001000
010000
000001
000000
,
000000
001000
000000
000010
000000
100000
000000
001000
,
000100
000001
000000
001000
000000
000100
000000
100000
,
000010
010000
000000
000100
000000
001000
000000
000001
,
000000
100000
001000
000101
,
010000
000010
000010
000000
001000
000100
100000
000000
,
001000
001000
010000
000000
000001
000100
001000
000000
,
000100
000001
000000
000000
001000
010000
000000
001000
,
000010
001000
100000
001000
000001
000100
100000
000000
,
100000
000010
000010
000000
010000
000100
001000
000000
,
000010
000010
100000
000000
001000
000100
000001
000000
,
000100
000001
010000
100000
000100
000001
001000
000000
,
000010
000001
000100
001000
010100
100000
000100
000000
,
001000
000000
000000
000000
;

//---------------dance-solo - ----------------
#NOTES:
     dance-solo:
     :
     Challenge:
     13:
     0.556771,0.637143,0.234783,0.328696,0.534132,332.000000,312.000000,20.000000,28.000000,0.000000,0.000000,0.556771,0.637143,0.234783,0.328696,0.534132,332.000000,312.000000,20.000000,28.000000,0.000000,0.000000:
000000
000000
000000
000000
,
000000
000000
000000
000000
,
000000
000000
000000
000000
,
000000
000000
000000
000000
,
000000
000000
000000
000000
,
000000
000000
000000
000000
,
000110
000000
000000
001100
000000
000000
021000
000000
000000
000000
000001
000000
030001
000000
100000
000000
,
001000
000000
100000
000010
000000
010000
000000
000100
001000
000000
100001
000000
000001
000000
100000
000000
,
101000
000000
000001
000000
001001
000000
100000
000000
000100
010000
000100
000000
001000
000010
000000
010000
,
000000
001000
100000
000000
000001
000000
000000
000000
000100
000010
002000
000000
003002
000000
200003
000000
,
300200
100300
000002
002003
000100
000010
003001
100000
,
000000
000000
100000
000100
100000
000100
001000
000001
001000
000001
010000
000010
010000
000000
000001
000000
,
000101
000000
100000
000000
100100
000000
000001
000000
010000
000010
001000
000000
000100
100000
000000
000001
,
000000
001000
000010
000000
100000
000000
000000
000000
000010
010000
000002
000000
020003
000000
030200
000000
,
100300
000010
000000
000010
001000
000100
010000
000000
000001
000000
100000
000000
001000
000000
010000
000000
,
000020
100000
100000
000000
000100
010000
010030
000000
,
001000
100000
000001
000000
010000
000000
010000
000000
000010
000000
001000
000000
000100
000000
000000
000000
,
100000
000100
001000
000000
000010
000000
000010
000000
010000
000000
000001
000000
001000
000000
000000
000000
,
000100
001000
000000
000000
000001
000000
100000
000010
001000
000000
000100
000000
010000
000000
000000
000000
,
001000
000000
100000
000000
000010
000000
010000
000100
001000
000000
000001
000000
100000
000000
000000
000000
,
010000
000010
010000
000010
000000
000100
000001
000000
001002
000000
100000
000000
100003
000000
000000
000000
,
000100
010000
000010
000000
000100
000000
001000
000000
100000
000000
000001
000000
010000
000000
000000
000000
,
000010
000100
000001
000000
010001
000000
000000
000000
001000
000000
100000
000100
000000
010000
000010
010000
,
001000
000000
100000
000000
000001
000000
000100
000010
001000
000000
000100
010000
000000
000001
100000
000000
,
001100
000000
010000
000000
000010
000000
001000
000000
000001
000100
000001
010000
000010
100000
002000
000000
,
000000
000010
000000
000000
103000
000000
000100
010000
000000
010000
000001
000000
001000
000000
000100
000000
,
000000
200100
000000
000000
300001
100000
000000
000100
001000
000000
000010
000000
010000
000000
000100
000000
,
000000
000000
100000
000010
000000
000100
000010
000100
000001
000000
010001
000000
000000
100010
000000
000000
,
100000
000100
100000
000100
000000
001000
000010
000000
000000
000000
010000
000100
010000
000001
000010
000000
,
000000
000000
000010
100000
000010
000000
001000
000100
100000
000000
000001
010000
000100
000000
001000
000010
,
000000
000000
002010
000000
000000
003020
000000
200030
000000
000000
301000
000000
000000
010000
000001
000100
,
000001
000000
001000
000100
000000
100000
000000
000001
010000
000000
010010
000000
000100
000000
001000
000000
,
001010
000000
000100
000000
011000
000000
000100
000000
100000
001000
010000
000000
000001
001000
000000
000010
,
000000
100000
000001
000000
001000
000000
000000
000000
000100
100000
002000
000000
023000
000000
030020
000000
,
000230
000000
000301
000000
200000
000000
302000
000000
000001
000000
000000
000100
000000
000000
013000
000000
,
000000
000000
000010
100000
000100
001000
000100
001000
000010
010000
000001
010000
000001
000000
100000
000000
,
010100
000000
001000
000000
000110
000000
001000
000000
000001
100000
000010
000000
010000
000100
000000
100000
,
000000
000001
001000
000000
000100
000000
000000
000000
100000
001000
200000
000000
300020
000000
002030
000000
,
003010
010000
000000
010000
000100
000000
001000
000000
000001
000000
100000
000000
000010
000000
001000
000000
,
000002
000000
100000
000000
100000
000000
000000
000000
000100
000000
000010
000000
000013
000001
000000
000000
,
100000
010000
001000
000100
000010
000002
000000
000000
000000
000000
000000
000000
000000
000000
000000
000000
,
000000
000000
000000
000000
000000
000000
001003
000100
100000
000000
001000
000100
000001
000000
000000
000000
;

//---------------dance-solo - ----------------
#NOTES:
     dance-solo:
     :
     Beginner:
     4:
     0.162671,0.219229,0.093913,0.011739,0.000000,97.000000,89.000000,8.000000,1.000000,0.000000,0.000000,0.162671,0.219229,0.093913,0.011739,0.000000,97.000000,89.000000,8.000000,1.000000,0.000000,0.000000:
000000
000000
000000
000000
,
000000
000000
000000
000000
,
000000
000000
000000
000000
,
000000
000000
000000
000000
,
000000
000000
000000
000000
,
000000
000000
000000
000000
,
000010
000010
000010
000000
,
010000
000000
010010
000000
,
010000
000010
010000
010000
,
001000
000000
000000
000000
,
010000
000010
000000
000000
,
001000
000010
010000
000010
,
001000
001000
000010
010000
,
001000
000000
000000
000000
,
010000
010000
000010
000010
,
010010
000000
000000
000000
,
010000
000000
000010
000000
,
001000
001000
001000
000000
,
000010
000000
010000
000000
,
001000
001000
001000
000000
,
010000
000010
010010
000000
,
000010
000010
000010
000000
,
011000
000000
000010
000000
,
001010
000000
010000
000000
,
010010
010000
000010
010000
,
000000
000000
000010
001000
,
000010
000000
000000
000000
,
010000
000000
000010
000000
,
010000
000000
000010
000000
,
010000
001000
000010
001000
,
000000
010000
000010
000000
,
001000
001000
010010
000000
,
000010
000010
010000
010000
,
001000
000000
000000
000000
,
010000
001000
000000
000000
,
000010
010000
001000
010000
,
000010
000010
001000
000010
,
010000
000000
000000
000000
,
001000
010000
000010
010000
,
010010
000000
000000
000000
,
000020
000000
000000
000000
,
000000
000000
010030
000000
;

//---------------dance-single - ----------------
#NOTES:
     dance-single:
     :
     Hard:
     14:
     0.630560,0.661648,0.352175,0.375653,0.768915,376.000000,346.000000,30.000000,32.000000,0.000000,0.000000,0.630560,0.661648,0.352175,0.375653,0.768915,376.000000,346.000000,30.000000,32.000000,0.000000,0.000000:
0000
0000
0000
0000
,
0000
0000
0000
0000
,
0000
0000
0000
0000
,
0000
0000
0000
0000
,
1000
0010
0100
0001
0000
0000
0010
0001
1000
0100
0000
0000
1000
0001
0100
0010
,
0000
0000
0100
0001
1000
0010
0000
0000
1000
0100
1000
0100
0010
0001
0010
0001
,
0200
0000
0000
0320
0000
0000
2030
0000
0000
0000
0000
0000
0000
0000
0000
0000
,
3001
0000
0010
0100
0000
1000
0000
0010
0100
0000
1001
0000
0010
0000
0100
0000
,
0101
0000
0010
0000
1100
0000
0010
0000
0101
0000
0010
0000
1000
0001
0000
0010
,
0001
0100
1000
0010
0100
0002
0023
0230
,
2300
0000
3010
0000
2000
0000
3002
0000
0013
0000
0001
0100
0000
0001
1000
0000
,
0010
0000
0100
0001
0100
0010
0100
0001
1000
0100
1000
0010
0100
0000
0001
0000
,
0011
0000
0100
0000
1010
0000
0100
0000
0011
0000
0100
0000
1000
0001
0000
1000
,
0100
0010
0001
0100
1000
0002
2003
3020
,
0130
0001
0000
1000
0100
0000
0010
0000
1001
0000
0110
0000
1000
0000
0001
0000
,
0200
0000
0000
0302
0000
0000
0013
0001
1000
0000
1000
0000
1000
0001
0000
0000
,
1000
0100
0010
0000
0001
0000
1000
0000
0001
0100
0000
1010
0000
0101
0000
0000
,
0010
1000
0010
0100
0000
0001
0010
0100
1000
0000
0001
0100
0000
0110
0000
0000
,
0010
1000
0000
1010
0000
1000
0000
0001
0100
0010
0000
0101
0000
1100
0000
0001
,
1000
0000
0010
1000
0000
0110
0000
1000
0001
0000
0100
0010
0000
1010
0000
0000
,
1000
0100
1000
0001
0000
0010
0001
0100
0000
0010
1000
0100
0000
0011
0000
0000
,
1000
0001
1000
0010
0000
1001
0000
0110
0000
1000
0001
0010
0000
1100
0000
0000
,
1000
0100
0001
0000
0001
0000
0001
0000
0001
0010
0100
1000
0000
0010
0100
0001
,
1000
0000
0100
0000
0100
0000
0100
0000
0100
1000
0001
1000
0000
0010
0100
0000
,
0001
0010
0001
0010
0100
1000
0100
1000
0010
0100
0010
1000
0100
0010
0002
0000
,
0000
0000
0000
0000
0000
0000
1003
0010
0000
0010
0000
1000
0001
0000
0200
0000
,
0000
0320
0000
0000
0000
0000
0000
0000
0000
0000
0000
0000
0000
0000
0000
0000
,
1030
0000
0100
0010
0100
1000
0100
0010
0001
0000
2000
0000
0000
3002
0000
0000
,
0013
0001
0100
1000
0000
0001
0000
0000
0000
0000
0100
0010
1000
0020
0000
0000
,
0000
0000
0130
0010
1000
0001
1000
0100
0010
0100
0010
0001
0100
0000
0010
0000
,
0000
0000
2000
0000
0000
3001
0000
2000
0000
0000
0000
0000
0000
3010
0100
0001
,
0000
0000
1000
0100
1000
0100
1000
0100
1000
0000
1001
0000
0010
0000
0100
0000
,
0101
0000
0010
0000
1100
0000
0010
0000
0101
0000
0010
0000
1000
0100
0000
0010
,
0001
0100
0001
0010
1000
0002
2003
3200
,
0320
0000
0031
0000
2000
0000
3002
0000
0013
0000
0100
1000
0000
1000
0001
0000
,
0000
0000
0100
0010
0100
0001
1000
0001
0010
0100
1000
0001
0100
0000
0010
0000
,
1010
0000
0100
0000
0011
0000
0100
0000
1010
0000
0001
0000
1000
0001
0000
0100
,
0010
1000
0100
0010
0001
2000
3002
0203
,
0301
0010
0000
0001
1000
0000
0010
0000
1001
0000
0110
0000
1000
0000
0001
0000
,
0010
0000
0001
0100
0000
0001
1000
0010
0100
0000
0100
0000
0100
0001
0000
0000
,
1000
0100
0010
0100
0010
0002
0000
0000
0000
0000
0000
0000
0000
0000
0000
0000
,
0000
0000
0000
0000
0000
0000
0103
0010
1000
0000
0100
0010
0001
0000
0000
0000
;

//---------------dance-single - ----------------
#NOTES:
     dance-single:
     :
     Medium:
     10:
     0.410870,0.441099,0.117392,0.328696,0.058696,245.000000,235.000000,10.000000,28.000000,0.000000,0.000000,0.410870,0.441099,0.117392,0.328696,0.058696,245.000000,235.000000,10.000000,28.000000,0.000000,0.000000:
0000
0000
0000
0000
,
0000
0000
0000
0000
,
0000
0000
0000
0000
,
0000
0000
0000
0000
,
1000
0010
0000
0100
0001
0000
0010
0001
,
0000
1000
0100
0000
1000
0001
0100
0010
,
2000
0000
0000
3200
0000
0000
0320
0000
0000
0000
0000
0000
0000
0000
0000
0000
,
0031
0100
0010
1000
1001
1001
0010
0100
,
0002
0000
2003
0000
3002
0000
0013
0100
,
1000
0010
0100
0001
0010
0001
1000
0010
,
2000
0000
3001
0200
0000
0000
0310
0000
,
1000
0001
0010
0001
0100
0010
1000
0001
,
0020
0000
0230
0000
0320
0000
0031
1000
,
0001
0100
0010
1000
0010
0100
0001
1000
,
0010
1000
0010
0100
0001
2000
0000
3100
,
0010
0000
0000
0001
0000
0000
1000
0000
0000
0000
0001
0000
1000
0100
0000
0000
,
0010
0001
0100
0010
1000
0100
1001
0000
,
0010
1000
0010
0100
0001
0010
1100
0000
,
0001
0010
0001
0100
1000
0010
0101
0000
,
1000
0001
0010
0001
0100
0010
0110
0000
,
1000
0001
1000
0010
1001
0000
0100
0001
,
0010
0100
1000
0010
1000
0001
0011
0000
,
0100
0010
0010
0010
0010
1000
0001
1000
,
0100
0010
0010
0010
0010
0001
1000
0000
,
0001
0100
0001
0010
1000
0100
0010
0002
,
0000
0000
0000
0103
0010
1000
0010
0100
,
0000
0002
0000
0000
0000
0000
0000
0000
0000
0000
0000
0000
0000
0000
0000
0000
,
1003
0000
0001
0000
0100
0000
0010
0000
1000
0000
0200
0000
0000
0320
0000
0000
,
0031
0100
0001
1000
0000
0010
0100
0000
,
0000
0001
0010
0001
0100
0010
1000
0001
,
0000
0000
1000
0000
0000
0010
0000
0200
0000
0000
0000
0000
0000
0000
0301
0000
,
0000
0010
0001
1000
0110
0110
1000
0001
,
2000
0000
3200
0000
0320
0000
0031
0100
,
0001
0010
0100
1000
0010
0100
0010
1000
,
0200
0000
0310
0002
0000
0000
1003
0000
,
0001
0010
0001
0100
0010
1000
0010
0100
,
0002
0000
2003
0000
3020
0000
1030
0100
,
0010
0001
0100
0001
0010
0100
1000
0010
,
1000
0001
1000
0010
0100
0002
0000
0013
,
0100
0000
0000
1000
0000
0000
0001
0000
0000
0000
1000
0000
0010
0100
0000
0000
,
0001
0000
0010
0000
0002
2000
0000
0000
0000
0000
0000
0000
0000
0000
0000
0000
,
0000
0003
0000
3010
1000
0100
0001
0000
;

//---------------dance-single - ----------------
#NOTES:
     dance-single:
     :
     Easy:
     6:
     0.251553,0.294066,0.117392,0.023478,0.000000,150.000000,140.000000,10.000000,2.000000,0.000000,0.000000,0.251553,0.294066,0.117392,0.023478,0.000000,150.000000,140.000000,10.000000,2.000000,0.000000,0.000000:
0000
0000
0000
0000
,
0000
0000
0000
0000
,
0000
0000
0000
0000
,
0000
0000
0000
0000
,
1000
0010
1000
0100
,
0010
0001
0100
0010
,
1000
0100
0010
0001
,
0100
0110
1001
0000
,
0010
1000
0100
1000
,
0001
0010
0001
0100
,
1000
0010
1000
0100
,
0010
0001
0100
0010
,
1000
0100
1000
0010
,
1000
0100
0010
0001
,
0100
0010
1000
0001
,
0010
0001
0100
1000
,
0001
0010
0100
1100
,
0010
1000
0100
0011
,
0100
0010
1000
1010
,
0001
1000
0010
0101
,
1000
0001
1001
0100
,
0010
1000
0100
0110
,
0010
0001
0100
1000
,
0001
0010
1000
0100
,
0010
0001
0100
0010
,
0000
0000
1000
0100
,
0001
0000
0000
0000
,
0010
0001
0100
0000
,
0010
1000
0100
0010
,
0001
0100
0001
0010
,
1000
0100
1000
0001
,
0100
0110
1001
0000
,
0010
1000
0010
0100
,
0001
0010
0001
1000
,
0100
0010
0001
0100
,
0001
0010
0001
0100
,
1000
0010
1000
0001
,
1000
0100
0010
0001
,
0100
0010
0100
0001
,
0010
0100
1000
0010
,
2000
0002
0000
0000
,
0000
3000
0100
0103
;

//---------------dance-single - ----------------
#NOTES:
     dance-single:
     :
     Beginner:
     2:
     0.122423,0.146152,0.023478,0.000000,0.000000,73.000000,71.000000,2.000000,0.000000,0.000000,0.000000,0.122423,0.146152,0.023478,0.000000,0.000000,73.000000,71.000000,2.000000,0.000000,0.000000,0.000000:
0000
0000
0000
0000
,
0000
0000
0000
0000
,
0000
0000
0000
0000
,
0000
0000
0000
0000
,
1000
0000
0001
0000
,
1000
0000
0010
0000
,
0100
0100
0100
0000
,
0000
0000
1001
0000
,
0001
0000
0010
0000
,
0001
0000
0000
0000
,
1000
1000
0000
0000
,
0010
0000
1000
0000
,
0001
0000
0100
0000
,
0001
0000
0000
0000
,
0010
0010
0010
0000
,
0100
0000
0000
0000
,
1000
0000
1000
0000
,
0001
0000
0001
0000
,
0100
0000
0100
0000
,
0010
0000
0010
0000
,
0100
0000
0001
0000
,
1000
0000
0001
0000
,
0010
0000
0100
0000
,
1000
0000
0010
0000
,
0001
0001
0001
0001
,
0000
0000
0100
0000
,
0010
0000
0000
0000
,
1000
0000
1000
0000
,
0001
0001
0000
0100
,
0000
0001
0000
0010
,
0000
0100
0100
0000
,
0000
0000
1001
0000
,
1000
0000
0010
0000
,
1000
0000
0000
0000
,
0001
0001
0000
0000
,
0100
0000
0010
0000
,
1000
0000
0100
0000
,
1000
0000
0000
0000
,
0001
0001
0001
0000
,
0100
0000
0000
0000
,
0010
0010
0000
0000
,
0000
0000
0100
0000
;

//---------------dance-single - ----------------
#NOTES:
     dance-single:
     :
     Challenge:
     16:
     0.858635,0.784176,0.023478,0.000000,1.267829,512.000000,510.000000,2.000000,0.000000,0.000000,0.000000,0.858635,0.784176,0.023478,0.000000,1.267829,512.000000,510.000000,2.000000,0.000000,0.000000,0.000000:
// measure 0
0000
0000
0000
0000
,  // measure 1
0000
0000
0000
0000
,  // measure 2
0000
0000
0000
0000
,  // measure 3
0000
0000
0000
0000
,  // measure 4
1000
0010
0001
0100
0010
0000
1000
0001
0010
0100
1000
0000
0001
0100
0010
0100
,  // measure 5
0001
1000
0001
0010
0001
0100
0010
0000
1000
0100
0010
0001
0100
0010
1000
0001
,  // measure 6
0010
0000
0001
0100
0000
0001
1000
0010
0100
0000
0001
0000
1000
0001
0010
0000
,  // measure 7
0100
0000
0000
0000
1000
0001
1000
0000
0000
0000
0010
0000
0000
0000
0100
0000
0010
0000
0000
0000
1001
0000
0000
0000
1000
0000
0000
0000
0001
0000
0000
0000
,  // measure 8
0010
0000
0001
0000
0100
0000
1000
0001
0010
0100
1000
0010
0100
0001
1000
0010
,  // measure 9
0100
0000
0000
0000
0000
0000
0001
0000
0000
0000
0000
0000
0010
0000
0000
0001
0000
0000
0100
0000
0000
0000
0000
0000
1000
0000
0000
0010
0000
0000
0100
0000
0000
0000
0000
0000
0001
0000
0000
0010
0000
0000
1000
0000
0000
0000
0000
0100
,  // measure 10
0010
0000
1000
0000
0001
0100
0010
0100
0001
1000
0100
0010
0001
0000
1000
0000
,  // measure 11
0010
0000
1000
0100
0010
0100
1000
0010
1000
0001
0010
0001
1000
0100
0010
0001
,  // measure 12
0100
0000
0000
0000
0010
0000
0000
0000
1000
0000
0001
0000
0010
0000
0100
0000
1000
0000
0001
0010
0001
0000
0100
0000
0010
0000
1000
0000
0001
0000
0100
0000
,  // measure 13
0010
0000
1000
0000
0100
0010
0001
0000
1000
0010
0100
0000
0001
0010
1000
0000
,  // measure 14
0100
0010
0001
0100
1000
0010
0100
0010
1000
0000
0001
0010
1000
0001
1000
0100
,  // measure 15
0010
0000
0001
0100
0001
0010
0100
1000
0001
0000
0100
0000
0010
1000
0100
0000
,  // measure 16
1000
0010
1000
0000
0100
0000
0001
0010
0001
0100
0010
1000
0010
0100
0001
0000
,  // measure 17
1000
0100
0010
0001
0100
0010
0100
0001
1000
0001
0010
0100
0000
0100
1000
0000
,  // measure 18
0001
0100
0010
1000
0001
1000
0100
0010
0100
1000
0010
1000
0001
0100
0010
1000
,  // measure 19
0100
0010
0001
1000
0010
0100
0001
1000
0001
0010
0001
0100
0010
1000
0001
0000
,  // measure 20
1000
0100
0010
0001
0100
0010
1000
0001
0010
0100
1000
0010
1000
0100
0001
0010
,  // measure 21
0001
0100
0001
0010
1000
0100
0010
0100
1000
0001
0010
1000
0100
0010
0001
0000
,  // measure 22
1000
0100
0010
0000
0010
0000
0010
0001
0100
0010
0100
0001
1000
0100
0010
0001
,  // measure 23
1000
0000
0010
0100
0010
1000
0010
0100
0001
0010
0001
0100
1000
0010
0001
0000
,  // measure 24
1000
0100
0010
0001
0100
0001
0010
0100
1000
0010
1000
0001
1000
0100
0010
0000
,  // measure 25
0001
0000
0000
0000
0100
0000
0000
0000
0000
0000
0000
0000
0010
0000
0000
0000
1000
0000
0000
0000
0000
0000
0000
0000
0100
0000
0000
0000
0001
0000
0000
0000
1000
0000
0000
0000
0010
0000
0000
0000
1000
0000
0000
0000
0100
0000
0000
0000
0010
0000
0000
0000
0001
0000
0000
0100
0010
0000
0000
0000
0000
0000
0000
0000
,  // measure 26
1000
0100
0001
0000
0010
0001
1000
0001
0100
0000
0010
0000
1000
0010
0100
0001
,  // measure 27
0010
0000
0000
0100
0000
0000
1000
0000
0000
0010
0000
0000
1000
0000
0000
0001
0000
0000
0100
0000
0000
0010
0000
0000
1000
0000
0000
0000
0000
0000
0001
0000
0010
0000
0100
0000
1000
0000
0000
0010
0000
0000
0100
0000
0000
0001
0000
0000
,  // measure 28
1000
0100
1000
0010
0001
0100
0010
0000
1000
0001
0010
1000
0100
0010
0001
0000
,  // measure 29
0100
0001
0010
0001
1000
0100
0010
0100
1000
0010
0100
0001
0010
1000
0001
1000
,  // measure 30
0100
0000
0001
0000
0010
0100
1000
0001
0100
0000
0010
0000
0100
0001
1000
0010
,  // measure 31
0100
0000
0000
0001
0010
0001
0010
0001
0010
0001
0010
0001
0010
0000
0000
1001
0000
0000
0100
0000
0000
0010
0000
0000
,  // measure 32
1000
0000
0100
0000
0001
0010
0001
0100
0001
1000
0010
0100
0010
1000
0001
0100
,  // measure 33
0001
0000
0000
0000
0000
0000
0010
0000
0000
0000
0000
0000
1000
0000
0000
0100
0000
0000
0010
0000
0000
0000
0000
0000
0001
0000
0000
1000
0000
0000
0010
0000
0000
0000
0000
0000
0100
0000
0000
0001
0000
0000
1000
0000
0000
0000
0000
0001
,  // measure 34
0100
0000
0010
0000
1000
0100
0010
0100
1000
0001
0010
0100
0010
0001
1000
0000
,  // measure 35
0001
0000
0010
0100
1000
0010
0001
0100
0001
0010
0001
1000
0010
1000
0100
0001
,  // measure 36
0010
0000
0100
0000
1000
0010
1000
0001
0100
0010
1000
0001
1000
0100
0010
0001
,  // measure 37
1000
0000
0010
0000
0100
0001
1000
0000
0001
0010
0100
0000
1000
0001
0010
0000
,  // measure 38
0100
1000
0010
1000
0001
0010
0001
0100
1000
0000
0010
0100
0010
1000
0100
0010
,  // measure 39
0001
0000
0100
0010
0100
0001
1000
0100
0010
0000
0001
0000
1000
0001
0000
0000
,  // measure 40
1000
0000
0000
0100
0000
0000
0001
0000
0000
1000
0000
0000
0010
0000
0000
0001
0000
0000
0100
0000
0010
0000
1000
0000
0001
0000
0000
0000
0000
0000
0010
0000
0000
0000
0000
0000
0001
0000
0000
0000
0000
0000
1000
0000
0000
0000
0000
0000
,  // measure 41
0000
0000
0000
0000
0000
0000
0010
1000
0100
0000
0010
0001
0100
0000
0000
0000
;
