#TITLE:POSSESSION;
#SUBTITLE:(Gowrock Remix);
#ARTIST:Gowrock;
#TITLETRANSLIT:;
#SUBTITLETRANSLIT:;
#ARTISTTRANSLIT:;
#GENRE:;
#CREDIT:;
#BANNER:POSSESSION (Gowrock Remix)-bn.png;
#BACKGROUND:POSSESSION (Gowrock Remix)-bg.png;
#LYRICSPATH:;
#CDTITLE:;
#MUSIC:POSSESSION (Gowrock Remix).ogg;
#OFFSET:0.000000;
#SAMPLESTART:37.974682;
#SAMPLELENGTH:20.000000;
#SELECTABLE:YES;
#DISPLAYBPM:158.000000;
#BPMS:0.000000=158.000000
;
#STOPS:
;
#BGCHANGES:;
#KEYSOUNDS:;
#ATTACKS:;

//---------------dance-single - ----------------
#NOTES:
     dance-single:
     :
     Hard:
     17:
     0.979076,0.938622,0.282003,0.051273,1.542471,802.000000,769.000000,33.000000,6.000000,0.000000,0.000000,0.979076,0.938622,0.282003,0.051273,1.542471,802.000000,769.000000,33.000000,6.000000,0.000000,0.000000:
0000
0000
0000
0000
,
0000
0000
0000
0000
,
0000
0000
0000
0000
,
0000
0000
0000
0000
,
1000
0000
0010
0100
0000
0100
0001
0000
0010
0000
0001
0100
0000
0100
0010
1000
,
0001
0000
0010
0000
0100
1000
0000
1000
0001
0000
0001
0100
0000
0100
0010
1000
,
0001
0000
0010
0001
0000
0001
1000
0000
0010
0000
1000
0100
0000
0100
1000
0001
,
0010
0000
0100
0000
1000
0010
0000
0010
0100
0000
0100
0001
0000
0001
1000
0100
,
1000
0000
0001
1000
0000
1000
0010
0000
0100
0000
0010
0100
0000
0100
0001
0010
,
0100
0000
1000
0000
0010
1000
0000
1000
0100
0000
0100
0010
0000
0010
0001
0100
,
0001
0000
0010
0001
0000
0001
1000
0000
0100
0000
1000
0010
0000
0010
0100
0010
,
1000
0000
0000
0000
0000
0000
0010
0000
0000
0000
0000
0000
0100
0000
0000
0001
0000
0000
0000
0000
0000
0001
0000
0000
1000
0000
0000
0000
0010
0000
0000
0000
1000
0000
0000
0000
0100
0000
0000
0010
0000
0000
0001
0000
0000
1000
0000
0000
,
0020
0000
0000
0030
,
0110
0000
0010
1000
0000
1000
0100
0000
0010
0001
0000
0100
0000
0010
1000
0000
,
0001
0000
0100
0001
0000
1000
0010
0000
0100
0010
0000
1000
0000
0010
0100
0000
,
0010
0000
1000
0100
0000
1000
0010
0000
0100
0001
0000
0001
0000
0100
0010
0000
,
1000
0000
0100
0010
0000
0001
1000
0000
0001
0010
0100
0000
0010
0100
1000
0000
,
0010
0000
0100
0001
0000
0001
0010
0000
0100
1000
0000
1000
0000
0001
0100
0000
,
0010
0000
1000
0010
0000
0100
0001
0000
1000
0100
0000
0010
0000
0001
1000
0000
,
0010
0000
1000
0001
0000
0100
0010
0000
0100
0001
0000
1000
0000
0010
1000
0000
,
0100
0000
1000
0001
0000
0100
0010
0000
1000
0000
1000
0000
0001
0000
0001
0000
,
1001
0010
1000
0100
1100
1000
0001
0100
,
0101
0100
0010
1000
1010
0010
1000
0001
,
0011
0010
0110
0100
1100
1000
1001
0001
,
0101
0000
0000
0100
0000
0000
0110
0000
0000
0010
0000
0000
1000
0000
0100
0000
0010
0000
0001
0000
0000
0000
0000
0000
,
1001
0000
0001
0010
0000
0001
0100
0010
1000
0100
0000
1000
0000
0001
0010
0001
,
0100
0000
0010
1000
0000
0001
1000
0000
0010
0100
0000
0001
0000
0010
0100
1000
,
0001
0000
1000
0010
0000
1000
0100
0000
0010
0001
0000
0100
0000
0001
1000
0001
,
1000
0000
0010
0100
0000
0001
1000
0000
0001
0010
0100
0000
1000
0010
1000
0000
,
0001
0000
0010
0100
0000
0010
0001
0000
1000
0100
0000
1000
0000
0001
1000
0010
,
0100
0000
0001
0010
0000
0100
1000
0000
0100
1000
0000
0001
0000
0001
1000
0010
,
0100
0000
0010
0100
0000
0001
0010
0000
0100
1000
0000
1000
0000
1000
0001
0010
,
0100
0000
0010
0001
0000
1000
0100
0000
2000
0000
3200
0000
0320
0000
0032
0000
,
0103
0010
1000
0000
0001
0010
0000
0010
0100
0000
0100
1000
0000
1000
0001
0000
,
1000
0010
0100
0000
0001
1000
0000
1000
0001
0000
0001
0100
0000
0100
0010
1000
,
0100
1000
0001
0000
0010
0100
0000
0100
1000
0000
1000
0001
0000
0001
0100
0000
,
0001
0010
0100
0000
1000
0010
0000
1000
0100
0000
0010
0001
0000
1000
0001
0100
,
0010
1000
0100
0000
1000
0001
0000
0001
0010
0000
0010
0001
0000
1000
0100
0000
,
1000
0001
0010
0000
0100
0010
0000
0100
1000
0000
0001
1000
0000
0010
0100
0001
,
0010
0100
1000
0000
0001
1000
0000
1000
0001
0000
0001
0100
0000
0100
0010
0000
,
1000
0000
0000
0001
0000
0000
0010
0000
0000
0000
0000
0000
0001
0000
0000
0100
0000
0000
0010
0000
0000
1000
0000
0000
0010
0000
0000
0000
0100
0000
0000
0000
0001
0000
0000
0000
1000
0000
0000
0000
0000
0000
0000
0000
0000
0000
0000
0000
,
1000
0001
0010
0001
0010
0100
1000
0000
,
1000
0100
1000
0001
0100
0001
1000
0100
0010
0001
0100
0010
,
0100
0001
0100
0010
1000
0010
1000
0001
0010
0100
1000
0001
,
0010
0100
0010
0001
0100
0010
1000
0001
1000
0100
0010
0001
,
0010
0100
1000
0010
1000
0001
1000
0001
0010
0100
1000
0010
,
0100
0010
1000
0001
0010
0001
0100
0001
0100
0001
1000
0001
,
0010
0100
1000
0010
1000
0001
1000
0010
0100
0001
0010
0100
,
0010
0100
1000
0001
1000
0010
1000
0100
1000
0001
0100
0001
,
0010
0000
0000
0000
0100
0000
0000
0000
1000
0000
0000
0000
0010
0000
0000
0000
0100
0000
0000
0000
0001
0000
0000
0000
1000
0000
0000
0100
0000
0000
0010
0000
0000
0001
0000
0000
1000
0000
0000
0010
0000
0000
0100
0000
0000
0001
0000
0000
,
0010
0000
0001
0000
0100
0010
0100
0010
1000
0100
0010
0001
0000
0001
1000
0001
,
1000
0000
0010
0000
0100
0001
0010
0001
1000
0100
1000
0001
0000
0001
0010
0100
,
1000
0000
0010
0000
1000
0001
1000
0001
0100
0010
0100
0010
0000
0100
0001
1000
,
0001
0000
0010
0000
0100
1000
0010
0100
0001
1000
0001
1000
0000
0100
0010
0001
,
1000
0010
1000
0010
0000
0100
0001
0000
0010
0001
0010
0001
0000
1000
0100
0000
,
1000
0001
1000
0001
0000
0010
0100
0000
1000
0100
1000
0100
0000
0010
0001
0000
,
0100
0010
0100
0000
0010
0100
0010
0000
1000
0001
1000
0000
0001
1000
0001
0000
,
1000
0100
0010
0001
0100
0010
1000
0001
0010
0001
0100
0001
1000
0010
1000
0100
,
1000
0000
0010
0100
0000
0100
0001
0000
1000
0001
0000
0010
0000
0001
0100
0010
,
1000
0000
0001
0010
0000
0010
0001
0100
0010
1000
0001
1000
0200
0000
0000
0000
,
0310
0000
0001
0100
0000
0100
0010
0000
1000
0100
0000
1000
0000
0001
1000
0100
,
0010
0000
0100
1000
0000
0001
0100
0000
0010
0001
0000
1000
0000
0010
1000
0100
,
1000
0000
0001
1000
0000
1000
0010
0000
0100
0010
0000
0100
0000
0001
0010
0100
,
1000
0000
0010
1000
0000
1000
0001
0010
0100
0010
0001
0000
0100
0010
1000
0000
,
0001
0000
1000
0010
0000
1000
0100
0000
0010
0100
0000
0010
0000
0001
1000
0001
,
1000
0000
0010
0100
0000
0100
0001
0000
1000
0001
0000
0010
0000
0100
1000
0010
,
0100
0000
0010
1000
0000
1000
0001
0000
0010
0001
0000
0100
0000
0001
1000
0010
,
0100
0000
0010
1000
0000
0001
1000
0000
0010
0000
0010
0000
0100
0000
0100
0000
,
1100
0000
0000
0110
0000
0000
0011
0000
0000
0101
0000
0000
1001
0000
1010
0000
,
1100
0000
0000
0101
0000
0000
1010
0000
0000
0011
0000
0000
1001
0000
0110
0000
,
0101
0000
0000
0011
0000
0000
1010
0000
0000
1001
0000
0000
1100
0000
0110
0000
,
0011
0000
0000
1001
0000
0000
1010
0000
1000
0010
0100
0001
0010
0100
1000
0000
,
0010
1000
0000
1000
0100
0000
0010
0001
0000
0001
0100
0000
0010
1000
0001
0000
,
0010
0100
0000
0100
0010
0000
0001
1000
0000
1000
0001
0000
1000
0001
0010
0000
,
0001
0100
0000
0100
0010
0000
1000
0010
0000
0010
0100
0000
0001
1000
0001
0000
,
1000
0000
0000
0010
0000
0000
1000
0000
0000
0010
0000
0000
0000
0000
0000
0100
0000
0000
0001
0000
0000
0000
0000
0000
0010
0000
0000
0000
0001
0000
0000
0000
1000
0000
0000
0000
0100
0000
0000
0000
0000
0000
0000
0000
0000
0000
0000
0000
;

//---------------dance-single - ----------------
#NOTES:
     dance-single:
     :
     Medium:
     13:
     0.612838,0.582593,0.170911,0.179457,0.491369,502.000000,482.000000,20.000000,21.000000,0.000000,0.000000,0.612838,0.582593,0.170911,0.179457,0.491369,502.000000,482.000000,20.000000,21.000000,0.000000,0.000000:
0000
0000
0000
0000
,
0000
0000
0000
0000
,
0000
0000
0000
0000
,
0000
0000
0000
0000
,
1000
0000
0010
0000
0000
0100
0000
0000
0001
0000
0000
0010
0000
0000
0100
0000
,
1000
0000
0001
0000
0000
0100
0000
0000
0010
0000
0000
1000
0000
0000
0100
0000
,
0010
0000
0001
0000
0000
0100
0000
0000
0001
0000
0000
1000
0000
0000
0010
0000
,
0100
0000
0001
0000
0000
0010
0000
0000
1000
0000
0000
0100
0000
0000
0010
0000
,
0100
0000
1000
0000
0000
0001
0000
0000
1000
0000
0000
0010
0000
0000
0100
0000
,
0010
0000
1000
0000
0000
0100
0000
0000
0001
0000
0000
1000
0000
0000
0001
0000
,
0010
0000
0100
0000
0000
0010
0000
0000
0001
0000
0000
1000
0000
0000
0100
0000
,
1000
0000
0000
0000
0000
0000
0001
0000
0000
0000
0000
0000
0000
0000
0000
0100
0000
0000
0000
0000
0000
0000
0000
0000
0010
0000
0000
0000
1000
0000
0000
0000
0010
0000
0000
0000
1000
0000
0000
0000
0000
0000
0002
0000
0000
0000
0000
0000
,
0200
0000
0000
0303
,
1001
0000
0000
0001
0000
0000
1000
0000
0100
0010
0000
0001
0000
0000
0000
0000
,
0010
0000
0000
1000
0000
0000
0001
0000
1000
0100
0000
0010
0000
0000
0000
0000
,
0100
0000
0000
1000
0000
0000
0001
0000
1000
0001
0000
0010
0000
0000
0000
0000
,
0001
0000
0000
0100
0000
0000
1000
0000
0010
0000
0010
0000
1000
0000
0001
0000
,
0010
0000
0000
0001
0000
0000
1000
0000
0100
1000
0000
0001
0000
0000
0000
0000
,
0010
0000
0000
0100
0000
0000
1000
0000
0010
1000
0000
0001
0000
0000
0000
0000
,
1000
0000
0000
0001
0000
0000
0010
0000
0001
0100
0000
0010
0000
0000
0000
0000
,
1000
0000
0000
0100
0000
0000
1000
0000
0001
0000
0001
0000
0100
0000
0010
0000
,
0110
0000
0001
0100
0101
0000
0010
1000
,
1100
0000
0010
0001
0011
0000
1000
0100
,
0110
0011
0101
1010
,
1001
0000
0000
1100
0000
0000
0001
0010
0100
2000
0000
0000
,
3010
0000
1000
0100
0000
1000
0100
0000
0010
0000
0001
0000
1000
0000
0000
0000
,
0001
0000
0100
0010
0000
0100
0010
0000
1000
0000
0100
0000
0001
0000
0000
0000
,
0010
0000
0001
1000
0000
0001
1000
0000
0010
0000
1000
0000
0100
0000
0000
0000
,
1000
0000
0001
0100
0000
0001
0100
0000
0010
0000
0010
0000
1000
0000
0001
0000
,
1000
0000
0001
0010
0000
0001
0010
0000
0001
0000
0100
0000
1000
0000
0000
0000
,
0100
0000
1000
0010
0000
1000
0010
0000
0100
0000
0001
0000
0010
0000
0000
0000
,
0100
0000
0010
0001
0000
0010
0001
0000
1000
0000
0010
0000
0100
0000
0000
0000
,
0001
0000
0100
1000
0000
0100
1000
0000
0010
0000
0010
0000
0100
0000
0001
0000
,
1000
0000
0001
0000
0000
0010
0000
0000
0001
0000
0000
0100
0000
0000
1000
0000
,
0010
0000
0100
0000
0000
0010
0000
0000
1000
0000
0000
0100
0000
0000
0001
0000
,
1000
0000
0001
0000
0000
0010
0000
0000
1000
0000
0000
0100
0000
0000
0001
0000
,
1000
0000
0100
0000
0000
0010
0000
0000
0100
0000
0000
0010
0000
0000
0001
0000
,
0010
0000
1000
0000
0000
0010
0000
0000
0001
0000
0000
1000
0000
0000
0100
0000
,
0010
0000
0100
0000
0000
0010
0000
0000
0001
0000
0000
1000
0000
0000
0001
0000
,
1000
0000
0100
0000
0000
0001
0000
0000
1000
0000
0000
0010
0000
0000
0001
0000
,
0100
0000
0000
0000
0000
0000
0010
0000
0000
0000
0000
0000
0000
0000
0000
1000
0000
0000
0000
0000
0000
0000
0000
0000
0001
0000
0000
0000
0010
0000
0000
0000
0100
0000
0000
0000
2000
0000
0000
0000
0000
0000
0000
0000
0000
0000
0000
0000
,
3010
0100
0010
1001
,
0001
0000
0000
0011
0000
0000
1000
0100
1000
0100
0000
0000
,
0010
0000
0000
1100
0000
0000
0001
0100
0001
0100
0000
0000
,
1000
0000
0000
1010
0000
0000
0010
0100
0010
0100
0000
0000
,
0100
0000
0000
0101
0000
0000
1000
0001
1000
0001
0000
0100
,
0010
0000
0000
1010
0000
0000
0001
0100
0001
0100
0000
0000
,
1000
0000
0000
0011
0000
0000
0100
0010
0100
0010
0000
0000
,
0100
0000
0000
0101
0000
0000
1000
0001
1000
0001
0000
0000
,
0001
0000
0011
0000
1000
0010
0100
0001
,
0010
0001
0100
0001
0010
0100
1000
0000
,
0001
0100
0010
1000
0001
1000
0100
0000
,
0010
0001
1000
0010
1000
0100
0001
0000
,
1000
0010
1000
0100
0001
0010
0100
0000
,
1000
0010
0100
0000
0001
0010
1000
0000
,
0010
0100
0001
0000
0100
1000
0001
0000
,
1000
0010
0100
0001
0010
0100
1000
0001
,
1000
0010
0100
0001
0010
0100
1000
0001
,
1000
0000
0000
0010
0000
0000
0100
0000
0001
0000
0000
0010
0000
0000
0100
0000
,
1000
0001
1000
0010
0100
0001
0020
0000
,
0031
0000
0100
0010
0000
0100
0001
0000
1000
0000
0100
0000
0010
0000
0000
0000
,
0100
0000
1000
0010
0000
1000
0001
0000
0010
0000
0100
0000
1000
0000
0000
0000
,
0001
0000
1000
0010
0000
1000
0100
0000
1000
0000
0001
0000
0010
0000
0000
0000
,
0100
0000
0010
0001
0000
0010
0100
0000
1000
0000
1000
0000
0001
0000
0100
0000
,
0010
0000
1000
0001
0000
0100
0001
0000
0010
0000
0100
0000
1000
0000
0000
0000
,
0001
0000
0100
1000
0000
0010
1000
0000
0001
0000
0010
0000
0100
0000
0000
0000
,
1000
0000
0001
0010
0000
0100
0010
0000
0100
0000
1000
0000
0001
0000
0000
0000
,
0100
0000
0001
0010
0000
1000
0010
0000
0100
0000
0100
0000
0001
0000
1000
0000
,
0002
0000
0000
0023
0000
0000
0230
0000
0000
2300
0000
0000
3010
0000
0100
0000
,
0020
0000
0000
2030
0000
0000
3002
0000
0000
0203
0000
0000
0301
0000
1000
0000
,
0200
0000
0000
0320
0000
0000
0032
0000
0000
2003
0000
0000
3001
0000
0100
0000
,
2000
0000
0000
3020
0000
0000
0230
0000
0000
0302
0000
0000
1003
0000
0010
0000
,
1000
0001
0010
0100
0010
0001
0100
1000
,
0010
1000
0100
0001
1000
0010
0100
0001
,
0010
0100
1000
0001
0010
0001
0100
0010
,
1000
0000
0000
0100
0000
0000
0010
0000
0000
0001
0000
0000
1000
0000
0010
0000
0100
0000
0001
0000
0000
0000
0000
0000
;

//---------------dance-single - ----------------
#NOTES:
     dance-single:
     :
     Easy:
     8:
     0.410186,0.517860,0.273458,0.119638,0.000000,336.000000,304.000000,32.000000,14.000000,0.000000,0.000000,0.410186,0.517860,0.273458,0.119638,0.000000,336.000000,304.000000,32.000000,14.000000,0.000000,0.000000:
0000
0000
0000
0000
,
0000
0000
0000
0000
,
0000
0000
0000
0000
,
0000
0000
0000
0000
,
1000
0001
0010
0100
,
1000
0000
0010
0000
0100
0000
0001
1000
,
0001
0010
0100
1000
,
0010
0000
1000
0000
0100
0000
0001
0010
,
0001
0100
1000
0010
,
0100
0000
0001
0000
0010
0000
1000
0100
,
1000
0001
0010
0100
,
1000
0000
0001
0000
0100
0010
0100
0010
,
2000
0000
0000
3000
,
1001
0001
0100
1000
,
0010
0100
0010
1000
,
0001
0010
1000
0100
,
0010
0000
0001
0000
1000
0100
1000
0000
,
0010
1000
0100
0010
,
0100
0001
0010
1000
,
0001
1000
0010
0100
,
0001
0000
0010
0000
1000
0100
0010
0000
,
0022
0033
2200
3300
,
0202
0303
2020
3030
,
1001
0110
1001
0110
,
0101
0000
1100
0000
0001
0100
1000
0000
,
0100
0001
0010
1000
,
0010
1000
0100
0010
,
1000
0001
0010
0100
,
1000
0000
0010
0000
0100
0001
1000
0000
,
0010
1000
0100
0010
,
0001
0010
1000
0001
,
1000
0100
0010
0001
,
0100
0000
1000
0000
0010
0100
0010
0000
,
1000
0010
0100
1001
,
0001
0010
1000
1100
,
0010
1000
0100
0011
,
1000
0001
0100
0110
,
0010
0100
0001
0101
,
0010
1000
0001
1010
,
0100
0010
0001
0110
,
1000
0000
0001
0000
0100
0010
1000
0000
,
0020
0000
0000
0030
,
1000
0001
0010
0100
,
0010
0001
0100
1000
,
0010
1000
0001
0010
,
0100
1000
0010
0001
,
1000
0001
0001
0100
,
0010
0001
0100
1000
,
0010
1000
0100
0001
,
1000
0010
0100
0001
,
1001
0010
1000
0001
,
0101
0010
0100
1000
,
0011
1000
0100
0001
,
1010
0100
0010
0001
,
1000
1100
0001
0101
,
0100
0101
0010
1010
,
1000
1001
0100
0110
,
0001
0010
0001
0000
1000
0010
1000
0000
,
2002
3003
0220
0330
,
1000
0000
0100
0000
0001
1000
0100
0000
,
0001
0000
0010
0000
0001
0100
1000
0000
,
0010
0000
1000
0000
0100
0010
0001
0000
,
0100
0000
1000
0000
0010
1000
0001
0000
,
0010
0000
0100
0000
1000
0001
1000
0100
,
0010
0000
0100
0000
0010
0001
1000
0000
,
0001
0000
0100
0000
1000
0010
0100
0000
,
1000
0000
0001
0000
0010
0001
0100
0000
,
0001
0000
1000
0000
0010
0100
0010
1000
,
0001
0000
0010
0000
0001
0000
1000
0100
,
0010
0000
0100
0000
0010
0000
0001
1000
,
0100
0000
1000
0000
0100
0000
0010
0001
,
1000
0001
0100
0110
,
1000
0001
0010
0100
,
1000
0001
0100
1000
,
0010
0100
0010
1000
,
0100
0000
0001
0000
1000
0001
1001
0000
;

//---------------dance-single - ----------------
#NOTES:
     dance-single:
     :
     Beginner:
     5:
     0.194106,0.258930,0.068364,0.000000,0.000000,159.000000,151.000000,8.000000,0.000000,0.000000,0.000000,0.194106,0.258930,0.068364,0.000000,0.000000,159.000000,151.000000,8.000000,0.000000,0.000000,0.000000:
0000
0000
0000
0000
,
0000
0000
0000
0000
,
0000
0000
0000
0000
,
0000
0000
0000
0000
,
1000
1000
1000
0000
,
0001
0000
0100
0000
,
0001
0001
0001
0000
,
1000
0000
0010
0000
,
0100
0100
0100
0000
,
0001
0000
1000
0000
,
0010
0010
0010
0000
,
1000
0000
0100
0000
,
0110
0000
0000
0000
,
1001
0000
0000
0000
,
0001
0000
0000
0000
,
0100
0000
0000
0000
,
1000
0000
0000
0000
,
0010
0000
0000
0000
,
1000
0000
0000
0000
,
0001
0000
0000
0000
,
1000
0000
0100
0100
,
0100
0000
0100
0000
,
0010
0000
0010
0000
,
0001
0001
0001
0001
,
0001
0001
0001
0000
,
1000
0000
0010
0000
,
1000
0000
0001
0000
,
0010
0000
0100
0000
,
1000
0000
0010
0010
,
0010
0000
1000
0000
,
0100
0000
0010
0000
,
0001
0000
0100
0000
,
1000
0000
0100
0100
,
0100
0000
0010
0000
,
0001
0000
0100
0000
,
0001
0000
1000
0000
,
0010
0000
0010
0000
,
1000
0000
0100
0000
,
0010
0000
0001
0000
,
1000
0000
0010
0000
,
0100
0000
0001
0001
,
0001
0000
0000
0000
,
1001
0000
0000
0000
,
0000
1000
0000
0001
,
0000
1000
0000
0001
,
0000
0010
0000
0100
,
0000
1000
0000
0010
,
0000
1000
0000
0010
,
0000
0100
0000
0001
,
0000
0100
0000
0000
,
0110
0000
0000
0000
,
1001
0000
0000
0000
,
0110
0000
0000
0000
,
1001
0000
0000
0000
,
0001
0000
0001
0000
,
1000
0000
1000
0000
,
0010
0010
0010
0000
,
0100
0100
0100
0000
,
0001
0000
1000
0000
,
0100
0100
0100
0000
,
0110
0000
0001
0000
,
0100
0000
1000
0000
,
0010
0000
1000
0000
,
0100
0000
0010
0010
,
0001
0000
0100
0000
,
0001
0000
1000
0000
,
0100
0000
0010
0000
,
0100
0000
1000
1000
,
0001
0001
0001
0000
,
0100
0000
0010
0000
,
1000
1000
1000
0000
,
0001
0000
0010
0000
,
0010
0010
0010
0000
,
0001
0000
0100
0000
,
0100
0100
0100
0000
,
0001
1000
0001
1000
;

//---------------dance-single - ----------------
#NOTES:
     dance-single:
     :
     Challenge:
     19:
     1.186610,1.068087,0.076910,0.059819,2.149205,972.000000,963.000000,9.000000,7.000000,0.000000,0.000000,1.186610,1.068087,0.076910,0.059819,2.149205,972.000000,963.000000,9.000000,7.000000,0.000000,0.000000:
// measure 0
0000
0000
0000
0000
,  // measure 1
0000
0000
0000
0000
,  // measure 2
0000
0000
0000
0000
,  // measure 3
0000
0000
0000
0000
,  // measure 4
1000
0000
0001
0100
0000
0100
0010
0000
1000
0100
0010
0001
0000
0100
0010
1000
,  // measure 5
0001
0000
0010
0000
0001
0100
0010
1000
0100
0000
1000
0001
0000
0010
0001
0100
,  // measure 6
1000
0000
0001
0010
0000
0010
0100
0000
1000
0001
0010
0100
0000
0010
0001
0100
,  // measure 7
1000
0000
0001
0000
0010
0001
0100
0010
1000
0100
0010
0001
0100
0010
1000
0100
,  // measure 8
0001
0000
0010
0001
0000
1000
0010
0000
0100
0010
1000
0001
0010
0100
1000
0001
,  // measure 9
1000
0000
0010
0000
0100
0001
0010
0100
1000
0010
0100
0001
0000
0001
1000
0100
,  // measure 10
0010
0000
0100
1000
0000
1000
0001
0000
0010
0001
0100
0010
0000
1000
0001
1000
,  // measure 11
0100
0000
0000
0000
0000
0000
1000
0000
0000
0000
0000
0000
0001
0000
0000
0100
0000
0000
0010
0000
0000
0000
0000
0000
1000
0000
0000
0000
1000
0000
0000
0000
1000
0000
0000
0000
0001
0000
0000
0010
0000
0000
0100
0000
0000
2000
0000
0000
,  // measure 12
0002
0000
0000
3003
,  // measure 13
1000
0010
1000
0010
0000
0100
0001
0010
0001
1000
0000
0010
0000
0100
0010
1000
,  // measure 14
0100
0010
0100
0010
0000
0001
0100
0010
1000
0001
0000
0100
0000
0010
1000
0100
,  // measure 15
1000
0001
1000
0001
0000
0010
0100
1000
0001
0100
0000
1000
0000
0001
0010
0100
,  // measure 16
0010
0001
0010
0001
0000
0100
0010
1000
0010
0001
0010
0100
0010
1000
0010
0000
,  // measure 17
0001
1000
0001
1000
0000
0100
0010
0001
0100
1000
0000
0010
0000
0100
0010
1000
,  // measure 18
0100
0010
0100
0010
0000
0001
0100
1000
0001
1000
0000
0010
0000
1000
0100
0001
,  // measure 19
1000
0010
1000
0010
0000
1000
0100
0001
0010
0100
0000
0010
0000
0001
0100
0010
,  // measure 20
1000
0100
1000
0100
0000
0010
0001
0010
0001
0000
1000
0000
1001
0000
1001
0000
,  // measure 21
0001
0100
0010
0100
0001
0100
0010
0000
1000
0100
0010
0100
1000
0100
0010
0000
,  // measure 22
0001
0010
0100
0010
0001
0010
0100
0000
1000
0010
0100
0010
1000
0010
0100
0000
,  // measure 23
0001
1000
0010
0100
1000
1000
0010
0100
0010
0001
1000
0001
0100
0100
0010
0001
,  // measure 24
1000
0000
0000
0010
0000
0000
0001
0000
0000
0100
0000
0000
1000
0000
0000
0001
0000
0000
0100
0000
0000
0010
0000
0000
1000
0000
0000
0000
1000
0000
0000
0000
1000
0000
0000
0000
1001
0000
0000
0000
0000
0000
0000
0000
0000
0000
0000
0000
,  // measure 25
0001
0100
0001
1000
0000
0100
0010
0001
0100
0010
1000
0100
0000
1000
0001
0010
,  // measure 26
0001
0010
0100
1000
0000
0010
1000
0001
0010
0100
0010
0001
0000
1000
0001
1000
,  // measure 27
0010
0100
0010
1000
0000
0100
1000
0001
0010
0001
1000
0100
0000
0001
1000
0001
,  // measure 28
0010
0001
1000
0010
0000
0100
0001
1000
0010
0001
0010
0100
0010
1000
0010
0000
,  // measure 29
0100
0001
0010
0100
0000
1000
0100
0001
1000
0010
0100
0001
0000
0010
0001
0100
,  // measure 30
1000
0001
0010
0001
0000
0100
1000
0010
0100
0001
0010
0100
0000
0100
1000
0001
,  // measure 31
1000
0010
1000
0100
0000
0010
0001
1000
0001
0010
0100
0001
0000
1000
0010
0100
,  // measure 32
0001
0010
0100
1000
0010
0100
0001
1000
0100
0010
0100
0000
0110
0000
0110
0000
,  // measure 33
0001
0100
0010
1000
0100
0010
0001
0100
0010
0100
0010
1000
0000
0001
1000
0000
,  // measure 34
0100
0010
0100
1000
0010
0100
0001
1000
0001
0010
0100
1000
0000
0001
0010
0001
,  // measure 35
0100
1000
0010
0100
0010
1000
0100
0010
0001
0010
1000
0001
0000
0001
0100
0000
,  // measure 36
0010
0100
0001
0010
1000
0100
0001
1000
0010
1000
0100
0001
0000
0010
0100
0010
,  // measure 37
0001
0100
1000
0010
1000
0100
0010
1000
0001
0100
0010
1000
0000
0100
1000
0000
,  // measure 38
0001
0010
0001
1000
0100
0001
0100
0010
0001
0100
1000
0010
0000
0100
0001
1000
,  // measure 39
0001
0010
1000
0100
0010
0001
1000
0010
0001
0100
1000
0001
0000
0010
0100
0000
,  // measure 40
1000
0000
0000
0010
0000
0000
0100
0000
0000
0001
0000
0000
1000
0000
0000
0100
0000
0000
0010
0000
0000
0001
0000
0000
0100
0000
0000
0000
0100
0000
0000
0000
0100
0000
0000
0000
0110
0000
0000
0000
0000
0000
0000
0000
0000
0000
0000
0000
,  // measure 41
0002
0000
0000
0023
0000
0000
0230
0000
0000
2300
0000
0000
3010
0000
0000
0100
0001
0100
0001
0000
1000
0000
0010
0000
,  // measure 42
1000
0100
0001
1000
0010
0001
1000
0100
0001
1000
0010
0001
,  // measure 43
0100
0010
0100
0001
0010
1000
0100
0010
0001
1000
0001
1000
,  // measure 44
0001
0010
1000
0001
0100
1000
0001
0010
1000
0001
0100
1000
,  // measure 45
0010
1000
0100
0010
0001
0100
0001
1000
0001
0100
0010
0100
,  // measure 46
0001
0001
0001
0010
0010
0010
0100
0100
0100
1000
1000
1000
,  // measure 47
0010
0010
0010
0100
0100
0100
0001
0001
0001
1000
1000
1000
,  // measure 48
0100
0100
0100
1000
1000
1000
0001
0001
0001
0100
0100
0100
,  // measure 49
0010
0000
0000
0000
0010
0000
0000
0000
0010
0000
0000
0000
1000
0000
0000
0000
1000
0000
0000
0000
1000
0000
0000
0000
0001
0000
0000
0010
0000
0000
0100
0000
0000
1000
0000
0000
0001
0000
0000
0100
0000
0000
0010
0000
0000
1000
0000
0000
,  // measure 50
0100
0010
0100
1000
0001
0100
1000
0010
1000
0100
0010
0001
0000
0100
0010
0100
,  // measure 51
0010
1000
0100
0001
1000
0001
0010
0100
0001
0010
1000
0001
0000
0100
1000
0010
,  // measure 52
1000
0100
0010
0001
0010
1000
0100
0010
1000
0001
0010
0100
0000
0001
1000
0100
,  // measure 53
0010
0001
0100
1000
0010
1000
0100
0010
1000
0001
0010
0100
0000
0001
1000
0010
,  // measure 54
0100
0001
1000
0001
0100
0001
1000
0000
0010
1000
0001
1000
0010
1000
0001
0000
,  // measure 55
0010
0001
1000
0001
0010
0001
1000
0000
0100
1000
0001
1000
0100
1000
0001
0000
,  // measure 56
0010
0100
0001
1000
0100
0001
1000
0001
0100
0010
0001
1000
1000
0010
0100
0010
,  // measure 57
1000
0100
0001
0010
0001
1000
0010
0100
1000
0100
0010
0001
1000
0001
0100
0010
,  // measure 58
1000
0000
0001
0100
0000
0100
0001
0000
0010
0100
1000
0010
0000
0010
1000
0001
,  // measure 59
0010
0100
1000
0001
0000
0001
0100
0000
0001
0010
0100
1000
0020
0000
0000
0000
,  // measure 60
1030
0001
0010
1000
0000
0010
1000
0100
0001
0100
0010
0100
0000
0001
1000
0001
,  // measure 61
0010
1000
0100
0001
0000
1000
0010
0001
1000
0100
1000
0001
0000
0010
0001
0010
,  // measure 62
0001
0100
1000
0001
0000
0010
0001
0100
1000
0010
0100
0001
0000
1000
0100
1000
,  // measure 63
0100
0010
0100
1000
0000
0001
0010
0001
0100
1000
0100
0010
0100
0001
0100
0000
,  // measure 64
1000
0010
0001
0010
0000
0100
0010
1000
0100
0001
1000
0010
0000
0100
0001
0010
,  // measure 65
0001
0100
1000
0010
0000
1000
0001
1000
0100
0010
0001
0100
0000
0100
0010
0100
,  // measure 66
0001
1000
0100
0010
0000
0001
1000
0001
1000
0010
1000
0100
0000
0010
0001
0100
,  // measure 67
0010
1000
0100
0001
0000
0010
0100
1000
0001
0100
0001
0000
1001
0000
1001
0000
,  // measure 68
0010
1000
0100
0001
0100
0001
0010
1000
0100
0010
0001
0100
0010
1000
0001
0000
,  // measure 69
1000
0010
0100
1000
0001
0010
0001
0100
0010
1000
0001
0010
0100
1000
0001
0000
,  // measure 70
0100
0010
0100
0010
0001
0100
1000
0010
1000
1000
0100
0010
0001
0001
0100
0000
,  // measure 71
0001
1000
0010
1000
0100
0010
0001
0100
0010
1000
0001
0010
0001
0100
1000
0000
,  // measure 72
0010
0100
1000
0001
0010
0001
0100
0010
0100
1000
0100
0010
1000
0100
0001
0000
,  // measure 73
0010
0001
1000
0001
0010
0001
0100
0010
1000
0100
1000
0001
0010
0100
1000
0000
,  // measure 74
0001
1000
0010
0100
0001
0010
1000
0100
1000
0010
0001
1000
0010
0100
0001
0000
,  // measure 75
1000
0000
0000
0100
0000
0000
0010
0000
0000
0001
0000
0000
1000
0000
0000
0010
0000
0000
0100
0000
0000
0001
0000
0000
0010
0000
0000
0000
0010
0000
0000
0000
0010
0000
0000
0000
1001
0000
0000
0000
0000
0000
0000
0000
0000
0000
0000
0000
;
