#TITLE:PERFECT FREE;
#SUBTITLE:;
#ARTIST:nite system;
#TITLETRANSLIT:;
#SUBTITLETRANSLIT:;
#ARTISTTRANSLIT:;
#GENRE:;
#CREDIT:;
#BANNER:PERFECT FREE.png;
#BACKGROUND:PERFECT FREE-bg.png;
#LYRICSPATH:;
#CDTITLE:;
#MUSIC:PERFECT FREE.ogg;
#OFFSET:0.000000;
#SAMPLESTART:49.877998;
#SAMPLELENGTH:15.000000;
#SELECTABLE:YES;
#DISPLAYBPM:130.000000;
#BPMS:0.000000=129.889999
;
#STOPS:
;
#BGCHANGES:;
#KEYSOUNDS:;
#ATTACKS:;

//---------------dance-single - ----------------
#NOTES:
     dance-single:
     :
     Easy:
     7:
     0.293449,0.423129,0.221405,0.000000,0.000000,167.000000,149.000000,18.000000,0.000000,0.000000,0.000000,0.293449,0.423129,0.221405,0.000000,0.000000,167.000000,149.000000,18.000000,0.000000,0.000000,0.000000:
0000
0000
0000
0000
,
0000
0000
0000
0000
,
0000
0000
0000
0000
,
0000
0000
0000
0000
,
0000
0000
0000
0000
,
0001
1000
0010
1001
,
1000
0001
0100
0010
,
0001
1000
0010
1001
,
1000
0001
0100
0010
,
0001
1000
0010
1001
,
0001
1000
0010
0100
,
1000
0001
0100
1001
,
0001
1000
0010
0100
,
1000
0001
0100
1001
,
0001
1000
0011
1100
,
1000
0001
0010
0110
,
0001
1000
0100
1001
,
1000
0001
0010
0110
,
1000
1000
1000
1000
,
0001
0000
0001
0001
0000
0000
0100
0000
,
1000
0000
1000
1000
0000
0000
0100
0000
,
0001
0000
0001
0001
0000
0000
0010
0000
,
1000
0000
1000
0100
0000
0000
0000
0000
,
0001
0001
0001
0001
,
0100
0100
0100
0100
,
1001
0110
1001
0110
,
1000
0100
1000
0100
1000
0100
1000
0000
,
1000
0000
1000
0000
0000
1000
1000
0000
,
0001
0000
0001
0000
0000
0001
0001
0000
,
0001
0000
0001
0000
0000
0001
0001
0000
,
1000
0000
1000
0000
0000
1000
1000
0000
,
0001
0000
0001
0000
0000
0001
0100
0000
,
0100
0000
0100
0000
0000
0100
1000
0000
,
1000
0000
1000
0000
0000
1000
0010
0000
,
0010
0000
0010
0000
0000
0010
0001
0000
,
0001
0000
0001
0000
0000
0001
0100
0000
,
0100
0000
0100
0000
0000
0100
1000
0000
,
1000
0000
1010
0000
0000
1000
0010
0000
,
0010
0000
0011
0000
0000
0010
0001
0000
,
0001
0000
0101
0000
0000
0001
0100
0000
,
0000
0000
0000
0010
0000
0000
0000
0000
,
0000
0000
0000
0000
,
0010
0000
0010
0001
0100
0000
0100
0000
,
1001
0000
0000
0000
;

//---------------dance-single - ----------------
#NOTES:
     dance-single:
     :
     Medium:
     10:
     0.381308,0.449575,0.172204,0.000000,0.092252,217.000000,203.000000,14.000000,0.000000,0.000000,0.000000,0.381308,0.449575,0.172204,0.000000,0.092252,217.000000,203.000000,14.000000,0.000000,0.000000,0.000000:
0000
0000
0000
0000
,
0000
0000
0000
0000
,
0000
0000
0000
0000
,
0000
0000
0000
0000
,
0000
0000
0000
0000
,
0001
1000
0010
1001
,
1000
0000
0001
0000
0100
1000
0100
1000
,
1001
1000
0010
0110
,
1000
0001
0100
1001
,
0001
1000
0010
0110
,
0001
1000
0010
1001
,
1000
0001
0100
0110
,
0001
1000
0010
1001
,
1000
0001
0100
0110
,
0001
0000
1000
0000
0010
0001
0010
0001
,
1001
0000
0000
1000
0100
0000
0000
0001
,
0000
0000
0000
0001
0100
0000
0000
1000
,
0000
0000
0000
1000
0100
0000
0000
0000
,
1000
0001
1000
0001
1000
0001
1000
0001
,
0001
0000
0001
0001
0000
0001
0100
1000
,
1000
0000
1000
1000
0000
1000
0100
0001
,
0100
0000
0000
0000
,
0000
0000
0000
0011
0000
0000
0000
0000
,
0001
0001
0001
0001
0001
0001
0001
0001
,
0001
0001
0001
0001
0001
0001
0001
0001
,
0100
0001
0001
0001
0001
0001
0001
0001
,
1000
0001
1000
0001
1000
0001
0001
1000
,
1000
0000
0000
1000
0000
0000
1000
0000
0000
0000
1000
0000
1000
0000
1000
0000
,
1000
0000
0000
1000
0000
0000
1000
0000
0000
0000
1000
0000
0100
0000
0001
0000
,
0001
0000
0000
0001
0000
0000
0001
0000
0000
0000
0001
0000
0010
0000
1000
0000
,
1000
0000
0000
1000
0000
0000
1000
0000
0000
0000
1000
0000
0100
0000
0001
0000
,
0001
0000
0000
0001
0000
0000
0001
0000
0000
0000
0001
0000
0010
0000
1000
0000
,
1000
0000
0000
1000
0000
0000
1000
0000
0000
0000
1000
0000
0100
0000
0001
0000
,
0001
0000
0000
0001
0000
0000
0001
0000
0000
0000
0001
0000
0010
0000
1000
0000
,
1000
0000
0000
1000
0000
0000
1000
0000
0000
0000
1000
0000
0100
0000
0001
0000
,
0001
0000
0000
0001
0000
0000
0001
0000
0000
0000
0001
0000
0010
0000
1000
0000
,
1000
0000
0000
1000
0000
0000
1000
0000
0000
0000
1000
0000
0100
0000
0001
0000
,
0001
0000
0000
0001
0000
0000
0001
0000
0000
0000
0001
0000
0010
0000
1000
0000
,
1000
0000
0000
1000
0000
0000
1000
0000
0000
0000
1000
0000
0100
0000
0001
0000
,
0001
0000
0000
0001
0000
0000
0001
0000
0000
0000
0001
0000
0010
0000
1000
0000
,
1000
0000
0000
1000
0000
0000
1000
0000
0000
0000
1000
0000
0100
0000
0001
0000
,
0001
0000
0000
0001
0000
0000
0001
0000
0000
0000
0001
0000
0001
0000
0001
0000
,
0011
0000
0001
0001
0001
0000
0101
0000
,
1001
0000
0000
0000
;

//---------------dance-single - ----------------
#NOTES:
     dance-single:
     :
     Hard:
     10:
     0.426995,0.581803,0.381308,0.000000,0.092252,243.000000,212.000000,31.000000,0.000000,0.000000,0.000000,0.426995,0.581803,0.381308,0.000000,0.092252,243.000000,212.000000,31.000000,0.000000,0.000000,0.000000:
0000
0000
0000
0000
,
0000
0000
0000
0000
,
0000
0000
0000
0000
,
0000
0000
0000
0000
,
0000
0000
0000
0000
0000
0000
0000
0010
,
0000
0000
0000
1000
0100
0000
0000
1000
,
0000
0000
0000
0100
0001
0000
0000
0100
,
0000
0000
0000
0001
0010
0000
0000
0001
,
0000
0000
0000
0010
1000
0000
0000
0010
,
0000
0000
0000
1000
0100
0000
0110
1000
,
0000
0000
0000
0100
0001
0000
1001
0100
,
0000
0000
0000
0001
0010
0000
0110
0001
,
0000
0000
0000
0010
1000
0000
1001
0010
,
0000
0000
1100
1000
0100
0000
0110
1000
,
0000
0000
0101
0100
0001
0000
0110
0100
,
0000
0000
1001
0001
0010
0000
0110
0001
,
0000
0000
0110
0010
1000
0000
1001
1000
,
0000
0000
0001
1000
1000
0000
0001
0000
,
1000
0001
1000
0001
1000
0001
1000
0001
,
0010
0000
1000
0100
0000
1000
1000
0100
,
1000
0000
0100
0001
0000
0100
0100
0001
,
0100
0000
0001
0010
0000
0001
0001
0010
,
0001
0000
0010
1000
0000
0010
0010
1000
,
0010
1000
1000
0100
0100
0001
0001
0010
,
0010
1000
1000
0100
0100
0001
0001
0010
,
1010
1100
0101
0011
,
1010
1000
1100
0100
0101
0001
0011
1001
,
1000
0000
0000
1000
0000
0000
1000
0000
0000
0000
0100
0000
1000
0000
0100
0000
,
0100
0000
0000
0100
0000
0000
0100
0000
0000
0000
0001
0000
0100
0000
0001
0000
,
0001
0000
0000
0001
0000
0000
0001
0000
0000
0000
0010
0000
0001
0000
0010
0000
,
0010
0000
0000
0010
0000
0000
0010
0000
0000
0000
1000
0000
0010
0000
1000
0000
,
1000
0000
0000
0100
0000
0000
0001
0000
0000
0000
0001
0000
0100
0000
1000
0000
,
0100
0000
0000
0001
0000
0000
0010
0000
0000
0000
0010
0000
0001
0000
0100
0000
,
0001
0000
0000
0010
0000
0000
1000
0000
0000
0000
1000
0000
0010
0000
0001
0000
,
0010
0000
0000
1000
0000
0000
1100
0000
0000
0000
0100
0000
1000
0000
0010
0000
,
1000
0000
0000
0100
0000
0000
0101
0000
0000
0000
0001
0000
0100
0000
1000
0000
,
0100
0000
0000
0001
0000
0000
0011
0000
0000
0000
0010
0000
0001
0000
0100
0000
,
0001
0000
0000
0010
0000
0000
1010
0000
0000
0000
1000
0000
0010
0000
0001
0000
,
0010
0000
0000
1000
0000
0000
0100
0000
0010
0000
0100
0000
1000
0000
0010
0000
,
1000
0000
0000
0100
0000
0000
0001
0000
1000
0000
0001
0000
0100
0000
1000
0000
,
0100
0000
0000
0001
0000
0000
0010
0000
0100
0000
0010
0000
0001
0000
0100
0000
,
0001
0000
0000
0010
0000
0000
0001
0000
0010
0000
0001
0000
0010
0000
0000
0000
,
0011
0000
1001
0101
0011
0000
0101
0000
,
1001
0000
0000
0000
;

//---------------dance-double - ----------------
#NOTES:
     dance-double:
     :
     Medium:
     10:
     0.391852,0.476021,0.184504,0.000000,0.092252,223.000000,208.000000,15.000000,0.000000,0.000000,0.000000,0.391852,0.476021,0.184504,0.000000,0.092252,223.000000,208.000000,15.000000,0.000000,0.000000,0.000000:
00000000
00000000
00000000
00000000
,
00000000
00000000
00000000
00000000
,
00000000
00000000
00000000
00000000
,
00000000
00000000
00000000
00000000
,
00000000
00000000
00000000
00000000
,
00100000
01000000
00010000
00011000
,
00000100
00000000
00000010
00000000
00001000
00010000
00001000
00010000
,
00100000
01000000
00010000
00011000
,
00000100
00000010
00001000
00011000
,
00100000
01000000
00010000
00011000
,
00000100
00000010
00001000
00011000
,
00100000
01000000
00010000
00011000
,
00000100
00000010
00001000
00011000
,
00100000
01000000
00010000
00011000
,
00000100
00000000
00000010
00000000
00001000
00010000
00001000
00010000
,
00000000
00000000
00000000
00000001
00000100
00000000
00000000
00001000
,
00000000
00000000
00000000
00001000
00010000
00000000
00000000
00010000
,
00000000
00000000
00000000
00010000
01000000
00000000
00000000
00000000
,
10000000
01000000
10000000
01000000
10000000
01000000
10000000
01000000
,
10000000
00000000
10000000
10000000
00000000
10000000
01000000
00010000
,
00010000
00000000
00010000
00010000
00000000
00010000
00001000
00000100
,
00001000
00000000
00001000
00001000
00000000
00001000
00000100
00000001
,
00000001
00000000
00000001
00000001
00000000
00000001
00000100
00000001
,
00000001
00000001
00000001
00000001
00000001
00000001
00000001
00000001
,
00000001
00000001
00000001
00000001
00000001
00000001
00000001
00000001
,
00000101
00001100
00011000
01010000
,
00010000
00010000
10000000
00010000
10000000
00010000
00010000
10000000
,
10000000
00000000
00000000
10000000
00000000
00000000
10000000
00000000
00000000
00000000
10000000
00000000
10000000
00000000
10000000
00000000
,
10000000
00000000
00000000
10000000
00000000
00000000
10000000
00000000
00000000
00000000
10000000
00000000
01000000
00000000
00010000
00000000
,
00010000
00000000
00000000
00010000
00000000
00000000
00010000
00000000
00000000
00000000
00001000
00000000
00010000
00000000
00000100
00000000
,
00001000
00000000
00000000
00001000
00000000
00000000
00001000
00000000
00000000
00000000
00001000
00000000
00000010
00000000
00000001
00000000
,
00000001
00000000
00000000
00000001
00000000
00000000
00000001
00000000
00000000
00000000
00000001
00000000
00000100
00000000
00001000
00000000
,
00001000
00000000
00000000
00001000
00000000
00000000
00001000
00000000
00000000
00000000
00010000
00000000
00001000
00000000
01000000
00000000
,
00010000
00000000
00000000
00010000
00000000
00000000
00010000
00000000
00000000
00000000
00010000
00000000
00100000
00000000
10000000
00000000
,
10000000
00000000
00000000
10000000
00000000
00000000
10000000
00000000
00000000
00000000
10000000
00000000
01000000
00000000
00010000
00000000
,
00010000
00000000
00000000
00010000
00000000
00000000
00010000
00000000
00000000
00000000
00001000
00000000
00010000
00000000
00000100
00000000
,
00001000
00000000
00000000
00001000
00000000
00000000
00001000
00000000
00000000
00000000
00001000
00000000
00000010
00000000
00000001
00000000
,
00000001
00000000
00000000
00000001
00000000
00000000
00000001
00000000
00000000
00000000
00000001
00000000
00000100
00000000
00001000
00000000
,
00001000
00000000
00000000
00001000
00000000
00000000
00001000
00000000
00000000
00000000
00010000
00000000
00001000
00000000
01000000
00000000
,
00010000
00000000
00000000
00010000
00000000
00000000
00010000
00000000
00000000
00000000
00010000
00000000
00100000
00000000
10000000
00000000
,
10000000
00000000
00000000
10000000
00000000
00000000
10000000
00000000
00000000
00000000
10000000
00000000
01000000
00000000
00010000
00000000
,
00010000
00000000
00000000
00010000
00000000
00000000
00010000
00000000
00000000
00000000
00010000
00000000
00001000
00000000
00010000
00000000
,
00011000
00000000
00001000
00010000
00001000
00000000
01010000
00000000
,
11000000
00000000
00000000
00000000
;

//---------------dance-double - ----------------
#NOTES:
     dance-double:
     :
     Hard:
     10:
     0.423481,0.555357,0.393609,0.000000,0.092252,241.000000,209.000000,32.000000,0.000000,0.000000,0.000000,0.423481,0.555357,0.393609,0.000000,0.092252,241.000000,209.000000,32.000000,0.000000,0.000000,0.000000:
00000000
00000000
00000000
00000000
,
00000000
00000000
00000000
00000000
,
00000000
00000000
00000000
00000000
,
00000000
00000000
00000000
00000000
,
00000000
00000000
00000000
00000000
00000000
00000000
00000000
00100000
,
00000000
00000000
00000000
10000000
01000000
00000000
00000000
10000000
,
00000000
00000000
00000000
01000000
00010000
00000000
00000000
01000000
,
00000000
00000000
00000000
00010000
00001000
00000000
00000000
00010000
,
00000000
00000000
00000000
00001000
00000010
00000000
00000000
00001000
,
00000000
00000000
00000000
00000010
00000001
00000000
00000110
00000010
,
00000000
00000000
00000000
00000001
00000100
00000000
00001001
00000001
,
00000000
00000000
00000000
00000100
00001000
00000000
00000110
00000100
,
00000000
00000000
00000000
00001000
00010000
00000000
00011000
00001000
,
00000000
00000000
10010000
00010000
00100000
00000000
01100000
00010000
,
00000000
00000000
01100000
00100000
10000000
00000000
10010000
00100000
,
00000000
00000000
10010000
10000000
01000000
00000000
01100000
00010000
,
00000000
00000000
00011000
00001000
00000100
00000000
00000110
00001000
,
00000000
00000000
00011000
01000000
00010000
00000000
01100000
00000000
,
10000000
00010000
10000000
00010000
10000000
00010000
10000000
00010000
,
10000000
00000000
11000000
10000000
00000000
10000000
01000000
00010000
,
00001000
00000000
00001100
00001000
00000000
00001000
00000100
00000001
,
00000001
00000000
00000101
00000001
00000000
00000001
00000100
00001000
,
00010000
00000000
01010000
00010000
00000000
00010000
01000000
10000000
,
10000000
10000000
01000000
01000000
00010000
00010000
00001000
00001000
,
00000100
00000100
00000001
00000001
00000100
00000100
00001000
00001000
,
00011000
00110000
10100000
01010000
,
00011000
00001000
00001100
00000100
00000101
00000001
00001001
00000001
,
00000001
00000000
00000000
00000001
00000000
00000000
00000001
00000000
00000000
00000000
00000001
00000000
00000100
00000000
00001000
00000000
,
00001000
00000000
00000000
00001000
00000000
00000000
00001000
00000000
00000000
00000000
00010000
00000000
00001000
00000000
01000000
00000000
,
00010000
00000000
00000000
00010000
00000000
00000000
00010000
00000000
00000000
00000000
00010000
00000000
00100000
00000000
10000000
00000000
,
10000000
00000000
00000000
10000000
00000000
00000000
10000000
00000000
00000000
00000000
10000000
00000000
01000000
00000000
00010000
00000000
,
00001000
00000000
00000000
00001000
00000000
00000000
00001000
00000000
00000000
00000000
00001000
00000000
00000100
00000000
00000001
00000000
,
00000001
00000000
00000000
00000001
00000000
00000000
00000001
00000000
00000000
00000000
00000001
00000000
00000100
00000000
00001000
00000000
,
00010000
00000000
00000000
00010000
00000000
00000000
00010000
00000000
00000000
00000000
00010000
00000000
01000000
00000000
10000000
00000000
,
10000000
00000000
00000000
10000000
00000000
00000000
10000000
00000000
00000000
00000000
10000000
00000000
01000000
00000000
00010000
00000000
,
00001000
00000000
00000000
00010000
00000000
00000000
00100000
00000000
00000000
00000000
10000000
00000000
01000000
00000000
00010000
00000000
,
00001000
00000000
00000000
00000100
00000000
00000000
00000010
00000000
00000000
00000000
00000001
00000000
00000100
00000000
00001000
00000000
,
00010000
00000000
00000000
00001000
00000000
00000000
00000010
00000000
00000000
00000000
00000001
00000000
00000100
00000000
00001000
00000000
,
00010000
00000000
00000000
01000000
00000000
00000000
00100000
00000000
00000000
00000000
10000000
00000000
01000000
00000000
00010000
00000000
,
00001000
00000000
00000000
00000100
00000000
00000000
00000010
00000000
00000000
00000000
00000001
00000000
00000100
00000000
00001000
00000000
,
00010000
00000000
00000000
00001000
00000000
00000000
00000010
00000000
00000000
00000000
00000001
00000000
00000100
00000000
00001000
00000000
,
00010000
00000000
00000000
01000000
00000000
00000000
00100000
00000000
00000000
00000000
10000000
00000000
01000000
00000000
00010000
00000000
,
00011000
00000000
00001100
00011000
00110000
00000000
01010000
00000000
,
11000000
00000000
00000000
00000000
;

//---------------dance-double - ----------------
#NOTES:
     dance-double:
     :
     Easy:
     6:
     0.281149,0.396684,0.209105,0.024601,0.000000,160.000000,143.000000,17.000000,2.000000,0.000000,0.000000,0.281149,0.396684,0.209105,0.024601,0.000000,160.000000,143.000000,17.000000,2.000000,0.000000,0.000000:
00000000
00000000
00000000
00000000
,
00000000
00000000
00000000
00000000
,
00000000
00000000
00000000
00000000
,
00000000
00000000
00000000
00000000
,
00000000
00000000
00000000
00000000
,
10010000
00100000
10000000
00010000
,
00100000
01000000
00100000
00001000
,
00011000
00010000
00000010
00000100
,
00001001
00000001
00000010
00001000
,
00000100
00010000
01000000
00100000
,
10000000
00010000
10000000
01000000
,
00100000
00010000
01000000
00100000
,
01000000
00001000
00010000
00001000
,
00100000
00001000
00010000
00000010
,
00000100
00000010
00001000
00000001
,
00000110
00000001
00001000
00000100
,
00010000
00001000
00100000
01000000
,
10000000
00100000
01000000
00010000
,
00100000
01000000
10000000
00100000
,
00011000
00000100
00000000
00000100
,
00000000
00001000
00000000
00000001
,
00002020
00000000
00000000
00000000
,
00000000
00000000
00000000
00003030
,
00001001
00000100
00000100
00000100
,
00000100
00000100
00000100
00000100
,
00001001
00000100
00000100
00000100
,
00001001
00011000
10010000
00011000
,
00001001
00000100
00001000
00000001
,
00000100
00000010
00010000
00001000
,
00010000
00100000
00001000
01000000
,
00100000
01000000
00010000
10000000
,
11000000
00010000
00100000
01000000
,
10000000
00100000
01000000
00001000
,
00010000
00001000
00010000
00000100
,
00001000
00000010
00000100
00000001
,
00000101
00001000
00000010
00000100
,
00000001
00000010
00000100
00001000
,
00000100
00010000
00000010
00001000
,
00000100
00010000
01000000
10000000
,
10100000
00100000
10000000
01000000
,
00100000
00010000
01000000
00001000
,
00100000
01000000
10000000
00100000
,
01000000
00001000
00100000
00001000
,
00011000
00000000
00000000
00000000
;

//---------------dance-double - ----------------
#NOTES:
     dance-double:
     :
     Challenge:
     12:
     0.585142,0.714031,0.738016,0.049201,0.461260,333.000000,273.000000,60.000000,4.000000,0.000000,0.000000,0.585142,0.714031,0.738016,0.049201,0.461260,333.000000,273.000000,60.000000,4.000000,0.000000,0.000000:
00000000
00000000
00000000
00000000
,
00000000
00000000
00000000
00000000
,
00000000
00000000
00000000
00000000
,
00000000
00000000
00000000
00000000
,
00000000
00000000
00000000
00000000
,
10000000
00100000
00000000
00100000
01000000
00000000
00010000
00000000
00100000
00000000
00000000
00010000
00000000
00000000
00001000
00000000
,
00000000
00000010
00000100
00000000
00000001
00000000
00001000
00000000
00000010
00000000
00000000
00010000
00000000
00000000
00001000
00000000
,
00010000
00000100
00000000
00000100
00001000
00000000
00000010
00000000
00010000
00000000
00000000
00001000
00000000
00000000
01000000
00000000
,
00000000
00010000
10000000
00000000
00100000
00000000
10000000
00000000
01000000
00000000
00000000
00100000
00000000
00000000
00010000
00000000
,
00000000
00001000
00010000
00000000
00000010
00000000
00000100
00000000
00000010
00000000
00000000
00001000
00000000
00000000
00000001
00000000
,
00000000
00001000
00000010
00000000
00001000
00000000
00000100
00000000
00010000
00000000
00000000
01000000
00000000
00000000
00100000
00000000
,
10000000
01000000
00000000
01000000
00100000
00000000
00010000
00000000
01000000
00000000
00000000
00001000
00000000
00000000
00010000
00000000
,
00000000
00000001
00000100
00000000
00000010
00000000
00010000
00000000
00001000
00000000
00000000
00010000
00000000
00000000
00000100
00000000
,
00000000
00000010
00000100
00000000
00001000
00000000
00100000
00000000
00010000
00000000
00000000
01000000
00000000
00000000
00100000
00000000
,
00000000
00010000
00000100
00000000
00010000
00000000
00001000
00000000
01000000
00000000
00000000
00100000
00000000
00000000
10000000
00000000
,
00100000
10000000
00000000
10000000
00010000
00000000
00100000
00000000
01000000
00000000
00000000
10000000
00000000
00000000
00010000
00000000
,
00000000
01000000
00001000
00000000
00100000
00000000
00010000
00000000
00000100
00000000
00000000
00001000
00000000
00000000
00000010
00000000
,
00000000
00010000
00000100
00000000
00001000
00000000
00000010
00000000
00000100
00000000
00000000
00000001
00000000
00000000
00001000
00000000
,
00000100
00000010
00000000
00000010
00000001
00000000
00000100
00000000
00000010
00000000
00000000
00010000
00000000
00000000
00001000
00000000
,
00210000
00000000
00000000
00010000
00000000
00000000
10000000
00000000
00000000
00010000
00000000
00000000
00301000
00000000
00100000
00000000
,
02000000
00000000
00000000
00001000
00000000
00000000
10000000
00000000
00000000
00010000
00000000
00000000
13000000
00000000
00100000
00000000
,
02010000
00000000
00000000
10000000
00000000
00000000
00010000
00000000
00000000
10000000
00000000
00000000
03001000
00000000
00010000
00000000
,
00000020
00000000
00000000
00000001
00000000
00000000
00001000
00000000
00000000
00000001
00000000
00000000
00010030
00000000
00000100
00000000
,
00011000
00010000
00100000
01000000
10000000
00100000
01000000
00010000
,
00100000
00001000
00010000
00000010
00001000
00000001
00001000
00000100
,
00000110
00000001
00000110
00001000
00000110
00000001
00000110
00001000
,
00011000
00000000
00011000
00000000
00011000
00000000
00011000
00000000
01000000
00100000
00000000
01000000
00100000
00000000
10000000
00000000
,
11000000
00000000
00000000
11000000
00000000
00000000
11000000
00000000
00000000
00010000
10000000
00000000
00100000
00000000
01000000
00000000
,
01010000
00000000
00000000
01010000
00000000
00000000
01010000
00000000
00000000
00001000
00100000
00000000
00010000
00000000
00000100
00000000
,
00000101
00000000
00000000
00000101
00000000
00000000
00000101
00000000
00000000
00000001
00001000
00000000
00000100
00000000
00000010
00000000
,
00001010
00000000
00000000
00001010
00000000
00000000
00001010
00000000
00000000
00000010
00000100
00000000
00000001
00000000
00001000
00000000
,
00010100
00000000
00000000
00010100
00000000
00000000
00010100
00000000
00000000
00010000
00001000
00000000
01000000
00000000
00100000
00000000
,
10100000
00000000
00000000
10100000
00000000
00000000
10100000
00000000
00000000
10000000
00010000
00000000
00100000
00000000
01000000
00000000
,
01100000
00000000
00000000
01100000
00000000
00000000
01100000
00000000
00000000
00100000
00001000
00000000
00010000
00000000
00000100
00000000
,
00001100
00000000
00000000
00001100
00000000
00000000
00001100
00000000
00000000
00000010
00010000
00000000
00001000
00000000
01000000
00000000
,
01010000
00000000
00000000
01100000
00000000
00000000
10100000
00000000
00000000
10000000
00010000
00000000
00100000
00000000
01000000
00000000
,
11000000
00000000
00000000
00110000
00000000
00000000
00011000
00000000
00000000
00000010
00001000
00000000
00000001
00000000
00000100
00000000
,
00000110
00000000
00000000
00001001
00000000
00000000
00010010
00000000
00000000
00010000
00001000
00000000
00000010
00000000
00000100
00000000
,
00000110
00000000
00000000
00001100
00000000
00000000
00010100
00000000
00000000
00010000
00001000
00000000
01000000
00000000
00100000
00000000
,
10100000
00000000
00000000
10010000
00000000
00000000
01100000
00000000
00000000
01000000
00001000
00000000
00100000
00000000
00010000
00000000
,
00110000
00000000
00000000
00011000
00000000
00000000
00001001
00000000
00000000
00000100
00000001
00000000
00001000
00000000
00000010
00000000
,
00010010
00000000
00000000
00011000
00000000
00000000
00101000
00000000
00000000
00010000
00100000
00000000
01000000
00000000
10000000
00000000
,
11000000
00000000
00000000
10010000
00000000
00000000
00101000
00000000
00000000
00001000
01000000
00000000
00010000
00000000
00100000
00000000
,
00011000
00000000
00000000
00000000
;

//---------------dance-single - ----------------
#NOTES:
     dance-single:
     :
     Beginner:
     2:
     0.131789,0.158674,0.061501,0.000000,0.000000,75.000000,70.000000,5.000000,0.000000,0.000000,0.000000,0.131789,0.158674,0.061501,0.000000,0.000000,75.000000,70.000000,5.000000,0.000000,0.000000,0.000000:
0000
0000
0000
0000
,
0000
0000
0000
0000
,
0000
0000
0000
0000
,
0000
0000
0000
0000
,
0000
0000
0000
0000
,
1000
0000
0001
0000
,
1000
0000
0001
0000
,
0100
0000
0010
0000
,
0100
0000
0010
0000
,
1000
0000
0100
0000
,
0010
0000
0001
0000
,
0100
0000
0100
0000
,
0010
0000
0010
0000
,
1000
0000
1000
0000
,
0001
0000
0001
0000
,
0010
0000
0010
0000
,
0100
0000
0100
0000
,
1000
0000
0001
0000
,
1000
0000
0001
0000
,
1001
0000
0000
0000
,
0000
0000
0000
0000
,
0110
0000
0000
0000
,
0000
0000
0000
0000
,
1001
0000
0000
0000
,
0110
0000
0000
0000
,
1000
0000
1000
0000
,
0001
0001
0001
0000
,
0100
0100
0000
0000
,
0100
0100
0000
0000
,
0010
0010
0000
0000
,
0010
0010
0000
0000
,
1000
1000
0000
0000
,
1000
1000
0000
0000
,
0001
0001
0000
0000
,
0001
0001
0000
0000
,
1000
1000
0000
0000
,
0100
0100
0000
0000
,
0010
0010
0000
0000
,
0001
0001
0000
0000
,
1000
1000
0000
0000
,
0010
0010
0000
0000
,
0100
0100
0000
0000
,
0001
0001
0000
0000
,
1001
0000
0000
0000
;

//---------------dance-single - ----------------
#NOTES:
     dance-single:
     :
     Challenge:
     12:
     0.585142,0.714031,0.738016,0.049201,0.461260,333.000000,273.000000,60.000000,4.000000,0.000000,0.000000,0.585142,0.714031,0.738016,0.049201,0.461260,333.000000,273.000000,60.000000,4.000000,0.000000,0.000000:
0000
0000
0000
0000
,
0000
0000
0000
0000
,
0000
0000
0000
0000
,
0000
0000
0000
0000
,
0000
0000
0000
0000
,
1000
0010
0000
0010
0100
0000
0001
0000
0010
0000
0000
0100
0000
0000
1000
0000
,
0000
0010
0100
0000
0010
0000
1000
0000
0100
0000
0000
0010
0000
0000
0001
0000
,
0010
0001
0000
0001
1000
0000
0010
0000
0100
0000
0000
0001
0000
0000
1000
0000
,
0000
0100
0010
0000
0001
0000
0100
0000
0001
0000
0000
1000
0000
0000
0010
0000
,
0000
0100
0001
0000
0010
0000
0100
0000
0010
0000
0000
0001
0000
0000
1000
0000
,
0000
0001
1000
0000
0010
0000
0100
0000
0001
0000
0000
0010
0000
0000
0100
0000
,
1000
0010
0000
0010
0100
0000
0001
0000
1000
0000
0000
0100
0000
0000
0010
0000
,
0000
0010
0001
0000
1000
0000
0001
0000
0100
0000
0000
0010
0000
0000
1000
0000
,
0000
0100
1000
0000
0001
0000
0100
0000
0010
0000
0000
1000
0000
0000
0001
0000
,
0000
1000
0001
0000
0010
0000
0100
0000
1000
0000
0000
0010
0000
0000
0100
0000
,
0001
0010
0000
0010
0100
0000
1000
0000
0001
0000
0000
1000
0000
0000
0010
0000
,
0000
0010
1000
0000
0100
0000
0010
0000
0001
0000
0000
1000
0000
0000
0100
0000
,
0000
1000
0010
0000
1000
0000
0100
0000
0010
0000
0000
0001
0000
0000
1000
0000
,
0010
1000
0000
1000
0100
0000
0010
0000
0001
0000
0000
1000
0000
0000
0100
0000
,
1200
0000
0000
0001
0000
0000
1000
0000
0000
0001
0000
0000
1300
0000
0010
0000
,
0200
0000
0000
1000
0000
0000
0001
0000
0000
1000
0000
0000
0301
0000
0010
0000
,
0021
0000
0000
1000
0000
0000
0001
0000
0000
1000
0000
0000
0031
0000
0100
0000
,
0020
0000
0000
0001
0000
0000
1000
0000
0000
0001
0000
0000
1030
0000
0010
0000
,
1001
0100
0010
1000
0100
0010
0001
0100
,
0001
1000
0010
1000
0100
0010
0001
0100
,
0110
0001
0110
1000
0110
0001
0110
1000
,
0110
0000
0110
0000
1001
0000
1001
0000
1000
0100
0000
1000
0100
0000
0010
0000
,
0011
0000
0000
0011
0000
0000
0011
0000
0000
1000
0001
0000
0100
0000
0010
0000
,
1010
0000
0000
1010
0000
0000
1010
0000
0000
0010
0100
0000
0001
0000
1000
0000
,
1100
0000
0000
1100
0000
0000
1100
0000
0000
1000
0010
0000
0100
0000
0001
0000
,
0101
0000
0000
0101
0000
0000
0101
0000
0000
0100
0010
0000
1000
0000
0001
0000
,
1001
0000
0000
1001
0000
0000
1001
0000
0000
0100
0001
0000
1000
0000
0010
0000
,
0110
0000
0000
0110
0000
0000
0110
0000
0000
0010
1000
0000
0100
0000
0001
0000
,
0011
0000
0000
0011
0000
0000
0011
0000
0000
0001
1000
0000
0100
0000
0010
0000
,
0110
0000
0000
0110
0000
0000
0110
0000
0000
0001
0100
0000
0010
0000
1000
0000
,
1100
0000
0000
0101
0000
0000
1001
0000
0000
0010
0100
0000
0001
0000
1000
0000
,
1100
0000
0000
0110
0000
0000
0011
0000
0000
1000
0010
0000
0100
0000
0001
0000
,
0011
0000
0000
1100
0000
0000
0101
0000
0000
0010
0001
0000
1000
0000
0100
0000
,
1100
0000
0000
0101
0000
0000
1010
0000
0000
0001
0100
0000
0010
0000
1000
0000
,
1001
0000
0000
0101
0000
0000
0011
0000
0000
0001
1000
0000
0010
0000
0100
0000
,
0110
0000
0000
1010
0000
0000
0101
0000
0000
0001
0100
0000
1000
0000
0010
0000
,
1010
0000
0000
0110
0000
0000
1001
0000
0000
1000
0100
0000
0010
0000
0001
0000
,
1001
0000
0000
0101
0000
0000
1010
0000
0000
0001
0010
0000
1000
0000
0100
0000
,
1001
0000
0000
0000
;

//---------------dance-solo - ----------------
#NOTES:
     dance-solo:
     :
     Beginner:
     2:
     0.101917,0.158674,0.024601,0.012300,0.000000,58.000000,56.000000,2.000000,1.000000,0.000000,0.000000,0.101917,0.158674,0.024601,0.012300,0.000000,58.000000,56.000000,2.000000,1.000000,0.000000,0.000000:
000000
000000
000000
000000
,
000000
000000
000000
000000
,
000000
000000
000000
000000
,
000000
000000
000000
000000
,
000000
000000
000000
000000
,
010000
000000
000000
000000
,
010000
000000
000000
000000
,
000010
000000
000000
000000
,
000010
000000
000000
000000
,
001000
000000
000000
000000
,
001000
000000
000000
000000
,
000010
000000
000000
000000
,
010000
000000
000000
000000
,
000010
000000
000000
000000
,
010000
000000
000000
000000
,
001000
000000
000000
000000
,
001000
000000
000000
000000
,
010000
000000
000000
000000
,
000010
000000
000000
000000
,
010010
000000
000000
000000
,
000000
000000
000000
000000
,
002000
000000
000000
000000
,
000000
000000
003000
000000
,
000010
000000
000000
000000
,
010000
000000
000000
000000
,
000010
000000
010000
000000
,
001000
001000
001000
000000
,
010000
010000
000000
000000
,
010000
010000
000000
000000
,
000010
000010
000000
000000
,
000010
000010
000000
000000
,
001000
001000
000000
000000
,
001000
001000
000000
000000
,
000010
000010
000000
000000
,
010000
010000
000000
000000
,
001000
001000
000000
000000
,
001000
001000
000000
000000
,
010000
010000
000000
000000
,
000010
000010
000000
000000
,
010000
010000
000000
000000
,
000010
000010
000000
000000
,
010000
010000
000000
000000
,
000010
000010
000000
000000
,
010010
000000
000000
000000
;

//---------------dance-solo - ----------------
#NOTES:
     dance-solo:
     :
     Easy:
     6:
     0.274120,0.370238,0.196804,0.024601,0.000000,156.000000,140.000000,16.000000,2.000000,0.000000,0.000000,0.274120,0.370238,0.196804,0.024601,0.000000,156.000000,140.000000,16.000000,2.000000,0.000000,0.000000:
000000
000000
000000
000000
,
000000
000000
000000
000000
,
000000
000000
000000
000000
,
000000
000000
000000
000000
,
000000
000000
000000
000000
,
010000
001000
010000
010000
,
000010
001000
000010
000010
,
000100
000010
001000
001000
,
000100
010000
001000
001000
,
100000
000100
001000
001000
,
000001
100000
000100
000100
,
100000
001000
010000
000100
,
001000
000010
001000
000100
,
001000
000001
000100
001000
,
010000
000010
100000
001000
,
010000
000010
000100
001000
,
010000
000100
010000
000001
,
000100
001000
010000
000010
,
100000
000100
001000
000001
,
010010
000000
000000
000000
,
001000
000000
000000
000000
,
200020
000000
000000
000000
,
000000
000000
000000
300030
,
001100
000001
000001
000001
,
001100
100000
100000
100000
,
001100
010010
001100
100001
,
010000
000010
010000
000010
,
100000
001000
001000
010000
,
000100
100000
000010
000100
,
001000
000100
000001
001000
,
000010
000100
001000
100000
,
001000
010000
000100
001000
,
000100
010000
000010
000100
,
000001
010000
001000
100000
,
000100
010000
001000
000010
,
100000
000010
001000
001100
,
000001
010000
001000
101000
,
100000
000001
000100
000110
,
010000
000010
000100
010010
,
001000
100000
000010
000110
,
000100
001000
010000
010010
,
000001
100000
001000
100001
,
000100
001000
010000
000010
,
001100
000000
000000
000000
;

//---------------dance-solo - ----------------
#NOTES:
     dance-solo:
     :
     Medium:
     8:
     0.372523,0.449575,0.258306,0.000000,0.000000,212.000000,191.000000,21.000000,0.000000,0.000000,0.000000,0.372523,0.449575,0.258306,0.000000,0.000000,212.000000,191.000000,21.000000,0.000000,0.000000,0.000000:
000000
000000
000000
000000
,
000000
000000
000000
000000
,
000000
000000
000000
000000
,
000000
000000
000000
000000
,
000000
000000
000000
000000
,
010000
000000
000100
001000
000100
000000
010000
000000
,
000001
000000
000100
000010
000100
000000
000001
000000
,
100000
000000
000010
010000
000010
000000
100000
000000
,
001000
000000
000100
000001
000100
000000
001000
000000
,
010000
000000
000100
100000
000100
000000
010000
000000
,
000010
000000
001000
000100
001000
000000
000010
000000
,
100000
000000
000001
001000
000100
000000
010000
000000
,
001000
000000
000100
000010
001000
000000
000001
000000
,
100000
000000
000100
010000
001000
000000
100000
000000
,
000010
000000
100000
000100
001000
000000
000001
000000
,
010000
000000
001000
100000
000100
000000
001000
000000
,
000100
000000
010000
000010
000100
000000
001000
000000
,
010000
000000
000001
000100
001000
000000
100000
000000
,
000010
000000
000100
000001
001000
000000
100000
000000
,
100001
000100
010000
001000
,
010000
000100
001000
000001
,
010010
001000
100000
000001
,
000100
000010
010000
001000
,
101000
100000
000001
001000
,
001001
000001
100000
001000
,
101000
001100
000101
001100
,
101000
100001
001001
100001
,
100000
000000
000010
000000
000100
000000
000001
100000
,
000100
000000
010000
000000
001000
000000
000100
000010
,
100000
000000
000100
000000
001000
000000
000010
010000
,
001000
000000
000100
000000
001000
000000
100000
000001
,
001000
000000
000010
000000
000100
000000
000001
100000
,
001000
000000
010000
000000
000001
000000
000100
000010
,
001000
000000
000001
000000
100000
000000
001000
100000
,
000010
000000
010000
000000
000100
000000
001000
000010
,
100000
000000
101000
000000
100000
000100
001000
000001
,
000100
000000
000101
000000
000001
001000
000100
010000
,
001000
000000
011000
000000
100000
000010
000100
001000
,
010000
000000
010010
000000
000010
000100
000001
100000
,
000100
000000
001100
000000
001000
000010
010000
000001
,
000010
000000
000011
000000
000001
001000
000100
100000
,
001000
000000
001100
000000
000100
000010
001000
000100
,
010000
000000
010001
000000
000100
000010
100000
001000
,
010010
000000
000000
000000
;

//---------------dance-solo - ----------------
#NOTES:
     dance-solo:
     :
     Hard:
     10:
     0.453353,0.449575,0.086102,0.295207,0.098402,258.000000,251.000000,7.000000,24.000000,0.000000,0.000000,0.453353,0.449575,0.086102,0.295207,0.098402,258.000000,251.000000,7.000000,24.000000,0.000000,0.000000:
000000
000000
000000
000000
,
000000
000000
000000
000000
,
000000
000000
000000
000000
,
000000
000000
000000
000000
,
000000
000000
000000
000000
,
010000
000100
001000
000010
000100
001000
100000
000000
,
000001
100000
000100
010000
001000
000100
000010
000000
,
000100
000001
001000
000010
000100
001000
100000
000000
,
001000
010000
000100
100000
000100
001000
000010
000000
,
000100
000001
000010
000001
010000
001000
100000
000000
,
010000
001000
000100
001000
000100
000010
100000
000000
,
000100
001000
000010
000100
001000
100000
000001
000000
,
000100
000001
010000
000010
000100
001000
100000
000000
,
001000
100000
000100
100000
010000
000010
001000
000000
,
000001
000010
100000
000100
010000
000010
001000
000000
,
000001
100000
000100
010000
001000
100000
000010
000000
,
000100
001000
000100
001000
010000
000010
100000
000000
,
001000
010000
000010
000100
001000
100000
000001
000000
,
000100
000001
010000
001000
010000
000100
100000
000000
,
100001
000000
001001
000000
000100
000010
010000
001000
,
100000
000000
100100
000000
010000
000010
001000
000001
,
000101
000000
001100
000000
100000
001000
010000
000010
,
000100
000000
000110
000000
000001
100000
001000
010000
,
000010
000100
000010
000100
000010
000100
000010
000100
,
001000
010000
001000
010000
001000
010000
001000
010000
,
000001
100000
000100
001000
000010
010000
000100
001000
,
000001
000100
001000
100000
000010
001000
000100
010000
,
000001
000000
000000
000001
000000
000000
000001
000000
000000
000000
001000
000000
000100
000000
010000
000000
,
001000
000000
000000
001000
000000
000000
001000
000000
000000
000000
100000
000000
000001
000000
010000
000000
,
000010
000000
000000
000010
000000
000000
000010
000000
000000
000000
000100
000000
000001
000000
100000
000000
,
000100
000000
000000
000100
000000
000000
000100
000000
000000
000000
010000
000000
000010
000000
100000
000000
,
010000
000000
000000
010000
000000
000000
010000
000000
000000
000000
000001
000000
000100
000000
000010
000000
,
100000
000000
000000
100000
000000
000000
100000
000000
000000
000000
001000
000000
010000
000000
000100
000000
,
001000
000000
000000
000010
000000
000000
010000
000000
000000
000000
000001
000000
100000
000000
000100
000000
,
100000
000000
000000
000001
000000
000000
000100
000000
000000
000000
000010
000000
001000
000000
010000
000000
,
000002
000000
000000
200003
000000
000000
300200
000000
000000
000000
010300
000000
001000
000000
000100
000000
,
000020
000000
000000
002030
000000
000000
003200
000000
000000
000000
100300
000000
000001
000000
001000
000000
,
000020
000000
000000
000230
000000
000000
000302
000000
000000
000000
100003
000000
001000
000000
010000
000000
,
002000
000000
000000
203000
000000
000000
300020
000000
000000
000000
010030
000000
000100
000000
001000
000000
,
000200
000000
000000
002300
000000
000000
003020
000000
000000
000000
010030
000000
000001
000000
100000
000000
,
020000
000000
000000
230000
000000
000000
300002
000000
000000
000000
010003
000000
000001
000000
000100
000000
,
000020
000000
000000
020030
000000
000000
032000
000000
000000
000000
003100
000000
000001
000000
100000
000000
,
000020
000000
000000
000230
000000
000000
002300
000000
000000
000000
103000
000000
000001
000000
001000
000000
,
010010
000000
000000
000000
;

//---------------dance-solo - ----------------
#NOTES:
     dance-solo:
     :
     Challenge:
     12:
     0.585142,0.714031,0.738016,0.049201,0.461260,333.000000,273.000000,60.000000,4.000000,0.000000,0.000000,0.585142,0.714031,0.738016,0.049201,0.461260,333.000000,273.000000,60.000000,4.000000,0.000000,0.000000:
// measure 0
000000
000000
000000
000000
,  // measure 1
000000
000000
000000
000000
,  // measure 2
000000
000000
000000
000000
,  // measure 3
000000
000000
000000
000000
,  // measure 4
000000
000000
000000
000000
,  // measure 5
010000
000010
000000
000010
000100
000000
001000
000000
100000
000000
000000
000001
000000
000000
001000
000000
,  // measure 6
000000
000100
010000
000000
000010
000000
000100
000000
001000
000000
000000
100000
000000
000000
000001
000000
,  // measure 7
000100
000010
000000
000010
001000
000000
000100
000000
010000
000000
000000
000001
000000
000000
100000
000000
,  // measure 8
000000
001000
100000
000000
000100
000000
010000
000000
001000
000000
000000
000100
000000
000000
000001
000000
,  // measure 9
000000
010000
000010
000000
000100
000000
000001
000000
001000
000000
000000
000100
000000
000000
100000
000000
,  // measure 10
000000
000010
100000
000000
001000
000000
000100
000000
000001
000000
000000
010000
000000
000000
000001
000000
,  // measure 11
001000
000100
000000
000100
100000
000000
000010
000000
010000
000000
000000
001000
000000
000000
000001
000000
,  // measure 12
000000
100000
000001
000000
001000
000000
000010
000000
000100
000000
000000
001000
000000
000000
010000
000000
,  // measure 13
000000
001000
010000
000000
000100
000000
100000
000000
001000
000000
000000
000001
000000
000000
010000
000000
,  // measure 14
000000
010000
000100
000000
100000
000000
000001
000000
000100
000000
000000
001000
000000
000000
100000
000000
,  // measure 15
000010
010000
000000
010000
000001
000000
000100
000000
000010
000000
000000
100000
000000
000000
001000
000000
,  // measure 16
000000
100000
000001
000000
000100
000000
001000
000000
000100
000000
000000
000010
000000
000000
010000
000000
,  // measure 17
000000
010000
000001
000000
000100
000000
000010
000000
100000
000000
000000
001000
000000
000000
100000
000000
,  // measure 18
000100
010000
000000
010000
001000
000000
000100
000000
000010
000000
000000
100000
000000
000000
000001
000000
,  // measure 19
002001
000000
000000
010000
000000
000000
000001
000000
000000
100000
000000
000000
003010
000000
001000
000000
,  // measure 20
000200
000000
000000
000010
000000
000000
010000
000000
000000
000001
000000
000000
100300
000000
001000
000000
,  // measure 21
102000
000000
000000
000001
000000
000000
100000
000000
000000
000010
000000
000000
013000
000000
001000
000000
,  // measure 22
000200
000000
000000
010000
000000
000000
000010
000000
000000
100000
000000
000000
000301
000000
001000
000000
,  // measure 23
001100
000100
010000
001000
100000
000100
010000
000010
,  // measure 24
000100
000001
001000
000100
010000
000010
100000
001000
,  // measure 25
001100
000001
001100
100000
001100
000010
001100
010000
,  // measure 26
001100
000000
001100
000000
100001
000000
100001
000000
100000
000100
000000
000100
001000
000000
000010
000000
,  // measure 27
000110
000000
000000
000110
000000
000000
000110
000000
000000
000001
001000
000000
000100
000000
010000
000000
,  // measure 28
011000
000000
000000
011000
000000
000000
011000
000000
000000
010000
000001
000000
100000
000000
000100
000000
,  // measure 29
100100
000000
000000
100100
000000
000000
100100
000000
000000
100000
001000
000000
010000
000000
000010
000000
,  // measure 30
001010
000000
000000
001010
000000
000000
001010
000000
000000
000001
100000
000000
000010
000000
010000
000000
,  // measure 31
010001
000000
000000
010001
000000
000000
010001
000000
000000
000100
000010
000000
100000
000000
001000
000000
,  // measure 32
101000
000000
000000
101000
000000
000000
101000
000000
000000
000010
000100
000000
000001
000000
001000
000000
,  // measure 33
001001
000000
000000
001001
000000
000000
001001
000000
000000
010000
000100
000000
100000
000000
000001
000000
,  // measure 34
100001
000000
000000
100001
000000
000000
100001
000000
000000
010000
001000
000000
000100
000000
000010
000000
,  // measure 35
010010
000000
000000
011000
000000
000000
001100
000000
000000
000100
000001
000000
010000
000000
000010
000000
,  // measure 36
000110
000000
000000
010010
000000
000000
010100
000000
000000
000100
100000
000000
001000
000000
010000
000000
,  // measure 37
010001
000000
000000
000101
000000
000000
100100
000000
000000
000001
010000
000000
000010
000000
001000
000000
,  // measure 38
001100
000000
000000
100100
000000
000000
110000
000000
000000
010000
100000
000000
000001
000000
000010
000000
,  // measure 39
000110
000000
000000
001010
000000
000000
001001
000000
000000
001000
000100
000000
010000
000000
000001
000000
,  // measure 40
100001
000000
000000
110000
000000
000000
010010
000000
000000
000100
100000
000000
001000
000000
000010
000000
,  // measure 41
100010
000000
000000
101000
000000
000000
001100
000000
000000
000100
000001
000000
001000
000000
000010
000000
,  // measure 42
000110
000000
000000
100010
000000
000000
101000
000000
000000
010000
000100
000000
100000
000000
000001
000000
,  // measure 43
010010
000000
000000
000000
;
