#VERSION:0.83;
#TITLE:PARANOiA ~HADES~;
#SUBTITLE:;
#ARTIST:αTYPE-300;
#TITLETRANSLIT:PARANOiA ~HADES~;
#SUBTITLETRANSLIT:;
#ARTISTTRANSLIT:alphaTYPE-300;
#GENRE:;
#ORIGIN:;
#CREDIT:;
#BANNER:PARANOiA ~HADES~-bn.png;
#BACKGROUND:PARANOiA ~HADES~-bg.png;
#PREVIEWVID:;
#JACKET:PARANOiA ~HADES~-jacket.png;
#CDIMAGE:;
#DISCIMAGE:;
#LYRICSPATH:;
#CDTITLE:;
#MUSIC:PARANOiA ~HADES~.ogg;
#OFFSET:0.000000;
#SAMPLESTART:1.610000;
#SAMPLELENGTH:20.000000;
#SELECTABLE:YES;
#DISPLAYBPM:150.000000;
#BPMS:0.000=150.000;
#STOPS:;
#DELAYS:;
#WARPS:;
#TIMESIGNATURES:0.000=4=4;
#TICKCOUNTS:0.000=4;
#COMBOS:0.000=1;
#SPEEDS:0.000=1.000=0.000=0;
#SCROLLS:0.000=1.000;
#FAKES:;
#LABELS:0.000=Song Start;
#BGCHANGES:0.000=PARANOiA ~HADES~.avi=1.000=1=0=0=StretchNoLoop==CrossFade==,
251.000=PARANOiA ~HADES~-bg.png=1.000=1=0=0=StretchNoLoop==CrossFade==,
99999=-nosongbg-=1.000=0=0=0 // don't automatically add -songbackground-
;
#KEYSOUNDS:;
#ATTACKS:
;

//---------------dance-single - ----------------
#NOTEDATA:;
#CHARTNAME:;
#STEPSTYPE:dance-single;
#DESCRIPTION:;
#CHARTSTYLE:;
#DIFFICULTY:Hard;
#METER:13;
#RADARVALUES:0.646978,0.641106,0.307692,0.134615,0.610577,471.000000,439.000000,32.000000,14.000000,0.000000,0.000000,0.000000,0.000000,0.000000,0.646978,0.641106,0.307692,0.134615,0.610577,471.000000,439.000000,32.000000,14.000000,0.000000,0.000000,0.000000,0.000000,0.000000;
#CREDIT:;
#DISPLAYBPM:150.000000;
#NOTES:
// measure 0
0000
0000
0000
0000
,  // measure 1
0000
0000
0000
0000
,  // measure 2
0000
0000
0000
0000
,  // measure 3
0000
1000
0100
0010
0001
0100
0001
1000
,  // measure 4
0000
0000
0000
0000
0000
0000
0000
0000
0010
0100
0010
0100
0010
0000
1000
0000
,  // measure 5
1001
0000
0000
0000
0010
0000
0000
0000
1000
0100
1000
0100
1000
0000
0001
0000
,  // measure 6
0100
0000
0000
0000
0010
0000
0000
0000
1000
0001
1000
0001
1000
0000
0100
0000
,  // measure 7
0000
0010
0001
0100
0001
0010
0100
1000
,  // measure 8
0010
0100
0000
0001
0000
0100
0000
0001
0000
1000
0000
0001
1000
0000
0100
0000
,  // measure 9
0110
0000
0000
0000
1001
0000
0000
0000
0010
0000
0100
0001
0100
0001
0100
0000
,  // measure 10
0010
0000
0000
1000
0000
0000
0100
0000
1000
0000
0000
0001
0100
0000
0010
0000
,  // measure 11
1010
0000
0000
0000
0101
0000
0000
0000
0010
0000
0000
1000
0001
0000
0100
0000
,  // measure 12
0001
0000
0000
0010
0000
0000
0100
0000
1000
0000
0000
0010
1000
0000
0001
0000
,  // measure 13
0101
0000
0000
0000
1100
0000
0000
0000
0010
1000
0000
0010
1000
0000
0001
0000
,  // measure 14
0100
0000
0000
0010
0000
0000
0100
0000
0000
0001
0000
1000
0001
0000
0100
0000
,  // measure 15
1010
0000
0000
0000
0011
0000
0000
0000
0100
1000
0000
0100
1000
0000
0001
0000
,  // measure 16
0100
0000
0000
0001
0000
0000
0010
0000
0000
0100
0000
0100
1000
0000
0001
0000
,  // measure 17
0100
0000
0000
0001
0000
0000
0100
0000
0010
1000
0000
0010
1000
0000
0001
0000
,  // measure 18
1000
0000
0000
0010
0100
0000
0100
0000
0100
0000
0000
0001
1000
0000
0100
0000
,  // measure 19
0010
0000
0000
0000
0000
0000
0000
0000
0000
0001
0000
0000
0000
0000
0000
0000
1000
0000
0000
0000
0100
0000
0000
0000
1000
0000
0000
0000
0000
0000
0000
0000
0000
0010
0000
0000
0100
0000
0000
0000
0000
0000
0001
0000
0000
0000
0000
0000
,  // measure 20
0010
0000
0001
1000
0000
0001
1000
0000
0001
1000
0000
0001
1000
0000
0001
0000
,  // measure 21
0020
0001
0031
0100
0020
1000
1030
0000
,  // measure 22
0200
1000
1300
0001
0200
0010
0310
0000
,  // measure 23
0210
0001
0301
1000
0020
0100
0130
0000
,  // measure 24
0002
0010
0013
0001
2000
0100
3100
0000
,  // measure 25
1001
0000
0000
0010
0000
0000
1000
0000
0000
0100
0000
1000
0001
0000
0100
0000
,  // measure 26
0010
0000
0000
1000
0000
0000
0001
0000
1000
0100
0000
0100
0010
0000
0001
0000
,  // measure 27
0100
0000
0000
0010
0000
0000
1000
0000
0000
0001
0000
0010
0001
0000
1000
0000
,  // measure 28
0010
0000
1000
0100
0000
1000
0100
0000
0010
0001
0000
0010
0001
0000
0100
0000
,  // measure 29
0010
0000
0000
0010
0000
0000
1000
0000
0000
0001
0000
0010
0100
0000
1000
0000
,  // measure 30
0001
0100
0000
0001
0000
0010
0000
0000
0100
0000
0000
1000
0000
0000
0001
0000
,  // measure 31
1000
0000
0000
0010
0000
0000
0100
0000
0000
0001
0000
0010
0001
0000
0100
0000
,  // measure 32
1000
0000
0000
0010
0000
0000
1000
0000
0000
0001
0000
1000
0100
0000
0010
0000
,  // measure 33
0002
0000
0000
0100
0000
0000
0100
0000
1000
0000
1000
0000
1000
0000
1003
0000
,  // measure 34
0101
0000
0000
0000
0000
0000
0000
0000
0010
0000
1000
0000
0020
0000
0000
0100
0000
0000
0100
0000
0000
0130
0000
0000
,  // measure 35
0101
0000
1100
0000
0001
0001
0001
0001
,  // measure 36
0101
0000
0000
0000
0010
0010
0010
0010
,  // measure 37
1000
0100
1000
0100
0000
0000
1010
0000
0000
0101
0000
0000
,  // measure 38
0001
0010
0001
0010
0000
0000
0001
1000
0001
1000
0000
0000
,  // measure 39
1010
0000
0000
0011
0000
0000
0100
0010
0100
0010
0000
0000
,  // measure 40
0011
0000
0000
1100
0000
0000
0001
0100
0000
0001
1000
0000
,  // measure 41
0001
0100
0000
0001
1000
0000
0110
0000
0000
1000
0010
1000
,  // measure 42
0010
0000
0000
0100
0001
0100
0001
0000
0000
0010
0100
1000
,  // measure 43
0002
0000
0000
2003
0000
0000
3010
0100
0010
0100
0000
0000
,  // measure 44
0001
1000
0001
1000
0000
0000
0001
0100
0001
1000
0100
1000
,  // measure 45
0001
0000
0000
0000
0011
0000
0000
0000
1100
0000
0000
1000
0010
0000
0100
0000
,  // measure 46
0010
0000
0000
1000
0001
0000
0010
0000
0100
0000
0000
0010
0001
0000
1000
0000
,  // measure 47
0100
0000
0000
1000
0010
0000
0100
0000
1001
0000
0000
0001
0010
0000
0100
0000
,  // measure 48
1000
0000
0000
0001
0010
0000
0001
0000
0100
0000
0000
0000
1010
0000
0000
0000
,  // measure 49
0001
0000
0011
0000
0000
0000
0100
0000
1100
0000
0000
0001
1000
0000
0010
0000
,  // measure 50
0100
0001
0100
1000
0100
0001
0100
0000
,  // measure 51
0010
0000
0000
0000
1000
0000
0100
0000
1001
0000
0000
0010
0001
0000
0100
0000
,  // measure 52
0001
0000
0000
0010
0100
0000
1000
0000
0010
0100
0010
0100
0010
0000
0000
0000
,  // measure 53
1000
0000
0100
0000
0001
0000
0100
0000
1000
0010
0000
0010
0100
0000
0001
0000
,  // measure 54
1000
0100
0000
1000
0000
0001
0000
0000
0010
0000
0000
0100
0000
0000
1000
0000
,  // measure 55
0001
0100
0010
0100
1000
0100
0001
0100
,  // measure 56
1000
0000
0100
0000
0010
0000
0100
0000
0001
0010
0001
0010
0001
0000
1000
0000
,  // measure 57
0100
0000
0010
0000
0001
0000
0100
0000
0010
0000
0001
0000
0010
0000
1000
0100
,  // measure 58
0000
0100
0000
0100
0000
0100
0000
0010
0000
0001
1000
0000
0001
0000
0100
0000
,  // measure 59
0010
0000
0100
0001
0000
0000
1000
0000
1000
0010
0000
1000
0001
0000
0100
0000
,  // measure 60
0001
0000
0010
0000
0001
0000
0100
0000
1000
0010
1000
0010
1000
0000
0001
0000
,  // measure 61
0010
1100
0000
0010
0101
0000
2002
0000
,  // measure 62
0000
0000
0000
0000
,  // measure 63
0000
0000
3003
0000
;

//---------------dance-single - ----------------
#NOTEDATA:;
#CHARTNAME:;
#STEPSTYPE:dance-single;
#DESCRIPTION:;
#CHARTSTYLE:;
#DIFFICULTY:Medium;
#METER:10;
#RADARVALUES:0.512363,0.549519,0.384615,0.192308,0.216346,373.000000,333.000000,40.000000,20.000000,0.000000,0.000000,0.000000,0.000000,0.000000,0.512363,0.549519,0.384615,0.192308,0.216346,373.000000,333.000000,40.000000,20.000000,0.000000,0.000000,0.000000,0.000000,0.000000;
#CREDIT:;
#DISPLAYBPM:150.000000;
#NOTES:
0000
0000
0000
0000
,
0000
0000
0000
0000
,
0000
0000
0000
0000
,
0000
1000
0100
0010
0001
0100
0001
1000
,
0000
0000
0000
0000
,
2002
0000
3003
0000
0100
0001
0100
0001
,
1000
0100
1000
0000
0010
0000
0100
0000
,
0000
0001
0010
0100
1000
0010
1000
0001
,
0000
0000
0000
0000
0100
0010
0100
0010
,
2000
0000
3002
0000
0013
0000
0001
0100
,
1000
0000
0010
0100
0001
0000
1000
0100
,
0020
0000
0230
0000
0310
0000
0001
1000
,
0010
0000
1000
0100
0010
0000
0001
1000
,
1001
0000
0110
0000
1000
0000
0001
0100
,
0010
0000
0000
1000
0000
0000
0010
0000
0000
0100
0000
0000
0001
0000
1000
0000
,
0100
0000
0000
0010
0000
0000
0100
0000
0000
1000
0000
0000
0001
0000
0010
0000
,
0001
0000
0000
0100
0000
0000
0010
0000
0000
1000
0000
0000
0001
0000
1000
0000
,
0100
0000
0000
0010
0000
0000
0001
0000
0000
0100
0000
0000
0001
0000
1000
0000
,
0010
0000
0000
1000
0000
0000
0001
0000
0000
1000
0000
0000
0100
0000
0010
0000
,
0001
0000
0000
0010
0000
0000
0001
0000
0000
1000
0000
0000
0010
0000
0100
0000
,
0001
0000
0000
0001
0000
0000
1000
0000
0000
1000
0000
0000
0010
0000
0100
0000
,
0001
0010
0100
0000
2200
0000
3300
0000
,
0001
1000
0100
0000
1010
0000
0101
0000
,
0011
0100
1000
0000
2020
0000
3030
0000
,
0001
0100
0001
0010
1000
0100
1000
0000
,
0110
0000
0000
0001
0000
0000
1000
0000
0000
0001
0000
0000
0100
0000
0010
0000
,
1000
0000
0000
0001
0000
0000
0010
0000
0000
0100
0000
0000
1000
0000
0010
0000
,
0100
0000
0000
0001
0000
0000
0010
0000
0000
0001
0000
0000
0010
0000
0100
0000
,
1000
0000
0000
0010
0000
0000
1000
0000
0000
0010
0000
0000
0100
0000
0001
0000
,
0010
0000
0000
0001
0000
0000
0100
0000
0000
1000
0000
0000
0001
0000
1000
0000
,
0010
0000
0000
0100
0000
0000
0010
0000
0000
1000
0000
0000
0100
0000
0010
0000
,
0001
0000
0000
0001
0000
0000
0100
0000
0000
0010
0000
0000
1000
0000
0100
0000
,
1000
0000
0000
0001
0000
0000
1000
0000
0000
0010
0000
0000
0100
0000
0001
0000
,
0020
0000
0000
0000
0031
1000
0001
1000
,
0202
0000
0003
0000
0310
1000
0010
1000
,
0101
0000
1100
0000
0001
1000
0001
1000
,
0202
0000
0003
0000
0310
0100
0010
0100
,
0101
0000
0000
1010
0000
0000
0001
0000
0001
1000
0000
1000
,
0100
0000
0100
0010
0000
0000
0001
0000
0001
1000
0000
0000
,
1100
0000
0000
0011
0000
0000
0100
0000
0100
0010
0000
0010
,
1000
0000
1000
0001
0000
0000
0011
0000
0000
0101
0000
0000
,
1010
0000
0000
1100
0000
0000
1001
0000
0000
0010
0000
0010
,
1000
0000
1000
0001
0000
0000
0010
0000
0010
0100
0000
0000
,
1100
0000
0000
0101
0000
0000
1000
0000
1000
0001
0000
0001
,
0010
0000
0010
0001
0000
0001
0100
0000
0100
0010
0000
0000
,
1010
0000
0011
0000
1000
0100
0001
0000
,
0010
0001
0100
0000
0010
1000
0100
0000
,
0010
0000
0001
1000
0110
0000
1000
0001
,
0100
0010
1000
0101
,
0000
1100
0000
0001
1001
0000
0010
0000
,
1000
0100
0001
0000
0010
0000
0100
0000
,
1000
0000
0010
0100
1001
0000
0010
1000
,
0001
0010
0001
0100
0001
0000
1010
0000
,
0010
2000
0000
0001
3001
0000
0100
0010
,
1000
0100
0010
0001
1000
0001
0100
0010
,
1000
0000
0001
0100
0101
0000
0010
1000
,
1100
0000
0010
0001
0100
0010
0110
0000
,
0001
2000
0000
0100
3100
0000
1000
0001
,
0100
0010
0100
0001
0100
0010
1000
0001
,
0010
0000
0100
1000
1100
0000
0010
0100
,
0001
0100
0001
0010
0100
1000
1002
0000
,
1003
0101
0000
0001
1100
0000
2002
0000
,
0000
0000
0000
0000
,
0000
0000
3003
0000
;

//---------------dance-single - ----------------
#NOTEDATA:;
#CHARTNAME:;
#STEPSTYPE:dance-single;
#DESCRIPTION:;
#CHARTSTYLE:;
#DIFFICULTY:Easy;
#METER:7;
#RADARVALUES:0.307692,0.335817,0.221154,0.182692,0.000000,224.000000,201.000000,23.000000,19.000000,0.000000,0.000000,0.000000,0.000000,0.000000,0.307692,0.335817,0.221154,0.182692,0.000000,224.000000,201.000000,23.000000,19.000000,0.000000,0.000000,0.000000,0.000000,0.000000;
#CREDIT:;
#DISPLAYBPM:150.000000;
#NOTES:
0000
0000
0000
0000
,
0000
0000
0000
0000
,
0000
0000
0000
0000
,
0000
1000
0001
1000
,
0000
0000
0000
0000
,
1001
0000
0100
0001
,
1000
0100
1000
0000
,
0001
0010
0001
0100
,
0010
0010
0010
0010
,
2000
0002
3003
0010
,
0001
0100
1000
0000
,
0020
0200
0330
0001
,
0100
0010
1000
0001
,
2000
3200
1300
0001
,
0010
0001
0100
0010
,
2000
3002
0013
0001
,
1000
0010
1000
0100
,
0010
0010
0010
0001
,
0100
0100
0010
0100
,
0001
0010
0001
1000
,
0010
0010
1000
0001
,
0101
0000
1100
0000
,
0101
0000
0100
0010
,
0110
0000
1001
0000
,
0110
0000
1001
0000
,
0001
0010
0001
0100
,
0010
1000
0001
1000
,
0100
0010
0100
1000
,
0010
0100
0001
0001
,
0010
0001
0010
0100
,
1000
0010
1000
0001
,
0010
0100
0010
0001
,
0100
0010
1000
0100
,
0002
0000
0000
0003
,
0101
0000
0010
0000
,
0101
1100
0000
0000
,
0101
0000
1000
1000
,
0101
0010
1000
0100
,
1000
0001
0100
0010
,
1010
0011
0100
1000
,
0001
0100
0001
0001
,
1000
1000
1001
0010
,
1000
0100
1000
0001
,
0200
0320
0130
0001
,
0010
0001
0100
1000
,
0002
2003
3010
0000
,
1000
0000
0100
0000
,
0010
0000
0011
0000
,
1100
0001
0100
0020
,
0000
1030
0000
0001
1000
0000
0000
0000
,
0010
1000
0100
0001
,
0010
0000
0110
0000
,
1000
0010
0100
0002
,
0000
0103
0000
0010
0100
0000
0000
0000
,
0001
0010
0001
1000
,
0100
0010
0011
0100
,
1010
0001
0100
0020
,
0000
1030
0000
0001
1000
0000
0000
0000
,
0100
0010
0001
0100
,
0010
1000
1100
0001
,
0100
0010
1000
0002
,
0000
1003
0000
0001
0100
0000
2002
0000
,
0000
0000
0000
0000
,
0000
0000
3003
0000
;

//---------------dance-single - ----------------
#NOTEDATA:;
#CHARTNAME:;
#STEPSTYPE:dance-single;
#DESCRIPTION:;
#CHARTSTYLE:;
#DIFFICULTY:Beginner;
#METER:3;
#RADARVALUES:0.166209,0.206971,0.105769,0.000000,0.000000,121.000000,110.000000,11.000000,0.000000,0.000000,0.000000,0.000000,0.000000,0.000000,0.166209,0.206971,0.105769,0.000000,0.000000,121.000000,110.000000,11.000000,0.000000,0.000000,0.000000,0.000000,0.000000,0.000000;
#CREDIT:;
#DISPLAYBPM:150.000000;
#NOTES:
0000
0000
0000
0000
,
0000
0000
0000
0000
,
0000
0000
0000
0000
,
0000
1000
1000
0000
,
0000
0000
0000
0000
,
1001
0000
0000
0000
,
0000
0000
0000
0000
,
0000
0100
0100
0000
,
0000
0000
0000
0000
,
0001
0001
0000
0000
,
0000
0000
0000
0000
,
0010
0010
0000
0000
,
0000
0000
0000
0000
,
0001
0001
0000
0000
,
0100
0100
0000
0000
,
0010
0010
0000
0000
,
1000
1000
0000
0000
,
0100
0000
0010
0000
,
0001
0000
0100
0000
,
0001
0000
1000
0000
,
0100
0000
1000
0000
,
0010
0000
0010
0000
,
0010
0000
1000
1000
,
1000
0000
0001
0000
,
0001
0000
0001
0000
,
1001
0000
0000
0000
,
0100
0100
0000
0000
,
0010
0010
0000
0000
,
1000
1000
0000
0000
,
0001
0000
1000
0000
,
0001
0000
0100
0000
,
0010
0000
0010
0000
,
1000
0000
0100
0000
,
0010
0000
0000
0000
,
1001
0000
0000
0000
,
1001
0000
0000
0000
,
1001
0000
0000
0000
,
1001
0000
1000
0000
,
0010
0010
0010
0000
,
1000
1000
0000
0000
,
0001
0000
0100
0100
,
0100
0000
1001
0000
,
0100
0000
0001
0000
,
0100
0000
0010
0000
,
1000
0000
0100
0000
,
1000
1000
1000
0000
,
0001
0000
0100
0000
,
0001
0000
0010
0000
,
0010
0000
0100
0100
,
0100
0000
1001
0000
,
0010
0000
1000
0000
,
0001
0000
1000
0000
,
0100
0000
0010
0010
,
0010
0000
1001
0000
,
0001
0000
0100
0000
,
0010
0000
1000
0000
,
1000
0000
0001
0001
,
0001
0000
1001
0000
,
0010
0000
1000
0000
,
0001
0000
0010
0000
,
0100
0000
1000
1000
,
1000
0000
1001
0000
;
