#TITLE:On the Night of a Still Wind;
#SUBTITLE:;
#ARTIST:Jena Rose;
#TITLETRANSLIT:;
#SUBTITLETRANSLIT:;
#ARTISTTRANSLIT:;
#GENRE:;
#CREDIT:;
#BANNER:On the Night of a Still Wind-bn.png;
#BACKGROUND:On the Night of a Still Wind-bg.png;
#LYRICSPATH:;
#CDTITLE:;
#MUSIC:On the Night of a Still Wind.ogg;
#OFFSET:1.555556;
#SAMPLESTART:31.000000;
#SAMPLELENGTH:20.000000;
#LASTBEATHINT:1.435185;
#SELECTABLE:YES;
#BPMS:0.000000=155.000000
;
#STOPS:
;
#BGCHANGES:;
#KEYSOUNDS:;
#ATTACKS:;

//---------------dance-single - ----------------
#NOTES:
     dance-single:
     :
     Beginner:
     2:
     0.141106,0.213575,0.018995,0.000000,0.000000,104.000000,102.000000,2.000000,0.000000,0.000000,0.000000,0.141106,0.213575,0.018995,0.000000,0.000000,104.000000,102.000000,2.000000,0.000000,0.000000,0.000000:
0000
0000
0000
0000
,
0000
0000
0000
0000
,
0000
0000
0000
0000
,
0000
0000
0000
0000
,
0000
0000
0000
0000
,
1000
0000
1000
0000
,
1000
0000
0000
0000
,
0001
0000
0001
0000
,
0001
0000
0000
0000
,
0010
0000
0010
0000
,
0010
0000
0000
0000
,
0100
0000
0100
0000
,
0100
0000
0000
0000
,
1000
0000
0000
0000
,
0001
0000
0000
0000
,
1000
0000
0000
0000
,
0001
0000
0000
0000
,
0010
0000
0000
0000
,
0100
0000
0000
0000
,
0010
0000
0000
0000
,
0100
0000
0000
0000
,
1000
0000
1000
0000
,
0001
0000
0001
0000
,
1000
0000
1000
0000
,
0001
0000
0000
0000
,
0010
0000
0010
0000
,
0100
0000
0100
0000
,
0010
0000
0010
0000
,
0100
0000
0000
0000
,
0001
0000
0001
0000
,
0010
0000
0010
0000
,
1000
0000
1000
0000
,
0100
0000
0000
0000
,
0010
0000
0010
0000
,
1000
0000
1000
0000
,
0001
0000
0001
0000
,
0000
0000
0000
0000
,
0010
0000
0010
0000
,
0001
0000
0001
0000
,
1000
0000
1000
0000
,
0100
0000
0000
0000
,
0001
0001
0001
0000
,
0000
0000
0000
0000
,
1000
1000
1000
0000
,
0000
0000
0000
0000
,
0001
0000
0001
0000
,
1000
0000
1000
0000
,
0001
0000
0001
0000
,
1001
0000
0000
0000
,
0010
0000
0010
0000
,
0100
0000
0100
0000
,
0010
0000
0010
0000
,
1001
0000
0000
0000
,
0001
0001
0001
0000
,
1000
1000
1000
0000
,
0001
0001
0001
0000
,
1000
1000
1000
0000
,
0010
0010
0000
0000
,
1000
1000
0000
0000
,
0001
0001
0000
0000
,
0100
0100
0000
0000
,
0010
0010
0000
0000
,
0100
0100
0000
0000
,
0001
0001
0000
0000
,
1000
1000
0000
0000
;

//---------------dance-single - ----------------
#NOTES:
     dance-single:
     :
     Easy:
     5:
     0.217085,0.276733,0.009497,0.000000,0.000000,160.000000,159.000000,1.000000,0.000000,0.000000,0.000000,0.217085,0.276733,0.009497,0.000000,0.000000,160.000000,159.000000,1.000000,0.000000,0.000000,0.000000:
0000
0000
0000
0000
,
0000
0000
0000
0000
,
0000
0000
0000
0000
,
0000
0000
0000
0000
,
0000
0000
0000
0000
,
0001
0000
0001
0000
,
1000
0000
0000
0000
,
0010
0000
0010
0000
,
0001
0000
0000
0000
,
0100
0000
0100
0000
,
0010
0000
0000
0000
,
1000
0000
1000
0000
,
0001
0000
0000
0000
,
1000
1000
1000
0000
,
0010
0010
0010
0000
,
0001
0001
0001
0000
,
0100
0100
0100
0000
,
0010
0010
0010
0000
,
1000
1000
1000
0000
,
0001
0001
0001
0000
,
0100
0100
0100
0000
,
1000
1000
0000
0000
0000
0000
0000
0000
,
0010
0010
0000
0000
0000
0000
0000
0000
,
0100
0100
0000
0000
0000
0000
0000
0000
,
1000
1000
0000
0000
0000
0000
0000
0000
,
0100
0010
0100
0000
,
1000
0001
1000
0000
,
1000
0100
1000
0000
,
0010
0001
0010
0000
,
1000
1000
0000
0000
0000
0000
0000
0000
,
0010
0010
0000
0000
0000
0000
0000
0000
,
0001
0001
0000
0000
0000
0000
0000
0000
,
0100
0100
0000
0000
0000
0000
0000
0000
,
1000
0000
0001
0000
,
0100
0000
0000
0010
0000
0000
0000
0000
,
1000
0000
1000
0000
,
0000
0000
0000
0000
,
1000
1000
1000
1000
,
0010
0010
0010
0010
,
0001
0001
0001
0001
,
1000
1000
1000
1000
,
0001
0001
0001
0000
,
1000
1000
1000
0000
,
0010
0010
0010
0000
,
0100
0100
0100
0000
,
1000
1000
0001
0000
,
0010
0010
0001
0000
,
0001
0001
0100
0000
,
0100
0100
0010
0000
,
0010
0010
1000
0000
,
1000
1000
0010
0000
,
0001
0001
0100
0000
,
0100
0100
0010
0000
,
1000
0001
1000
0000
,
0100
0010
0100
0000
,
1000
0100
1000
0000
,
0001
0010
0001
0000
,
1000
0100
0010
0000
,
0001
0010
1000
0000
,
1000
0100
0001
0000
,
0100
0010
1000
0000
,
0100
0001
1000
0000
,
0100
0010
1000
0000
,
0100
0010
0100
0000
,
1000
0010
0001
1001
;

//---------------dance-single - ----------------
#NOTES:
     dance-single:
     :
     Medium:
     8:
     0.321558,0.339535,0.000000,0.000000,0.066482,237.000000,237.000000,0.000000,0.000000,0.000000,0.000000,0.321558,0.339535,0.000000,0.000000,0.066482,237.000000,237.000000,0.000000,0.000000,0.000000,0.000000:
0000
0000
0000
0000
,
0000
0000
0000
0000
,
0000
0000
0000
0000
,
0000
0000
0000
0000
,
0000
0000
0000
0000
,
1000
0000
0001
0000
,
1000
0000
0000
0001
0000
0000
0000
0000
,
0010
0000
0001
0000
,
1000
0000
0000
0100
0000
0000
0000
0000
,
0010
0000
0001
0000
,
0100
0000
0000
0001
0000
0000
0000
0000
,
1000
0000
0000
0000
0100
0000
0000
0010
,
0000
0100
0000
0010
,
0001
0000
0000
1000
0000
0000
0001
0000
,
0010
0000
0000
0001
0000
0000
0010
0000
,
0001
0000
0000
0100
0000
0000
0010
0000
,
0100
0010
0000
0000
1000
0000
0001
0000
,
1000
0000
0000
0100
0000
0000
1000
0000
,
0001
0000
0000
0100
0000
0000
0001
0000
,
0010
0000
0000
0100
0000
0000
0010
0000
,
0001
1000
0000
0001
1000
0000
0001
0000
,
1000
0010
0000
1000
0010
0000
1000
0000
,
0001
0000
0000
0100
0000
0000
0001
0000
,
1000
0000
0000
0100
0000
0000
1000
0000
,
0001
1000
0000
0001
1000
0000
0001
0000
,
1000
0100
0001
0100
,
1000
0000
0000
0010
0000
0000
1000
0000
,
0001
0000
0000
0100
0000
0000
0001
0000
,
1000
0000
0100
0000
1000
0001
1000
0001
,
1000
0000
0000
0001
0000
0000
0010
0000
,
0001
0010
0001
0010
0000
0000
0001
0000
,
1000
0100
0001
0100
,
0001
1000
0000
0001
0000
0000
1000
0000
,
0010
1000
0000
0001
0000
0000
1000
0000
,
0001
1000
0000
0001
0000
0000
0100
0000
,
0001
0100
0001
0000
1000
0000
0100
0000
,
0001
1000
0000
0001
0000
0000
1000
0000
,
0001
0000
0000
0000
0100
0000
0000
0000
0010
0000
0000
0000
1000
0000
0000
0010
,
1000
0010
0100
0001
,
0010
0000
0000
0000
0001
0000
0000
0000
1000
0000
0000
0000
0100
0000
0000
1000
,
0100
1000
0001
0010
,
0100
0000
0000
0000
1000
0000
0000
0000
0001
0000
0000
0000
0100
0000
0000
0001
,
0100
0001
1000
0100
,
0010
0000
0000
0000
0001
0000
0000
0000
1000
0000
0000
0000
0001
0000
0000
1000
,
0001
0000
0100
0000
0010
0000
1000
0010
,
1000
0000
0000
0000
0001
0000
0000
0000
0100
0000
0000
0000
0010
0000
0000
0100
,
0010
0100
0001
1000
,
0100
0000
0000
0000
1000
0000
0000
0000
0001
0000
0000
0000
0010
0000
0000
0001
,
0010
0001
1000
0100
,
0001
0000
0000
0000
0100
0000
0000
0000
1000
0000
0000
0000
0001
0000
0000
1000
,
0001
1000
0010
0100
,
0001
0000
0000
0000
0010
0000
0000
0000
0100
0000
0000
0000
1000
0000
0000
0100
,
1000
0100
1000
0001
,
0100
0000
0000
0000
0010
0000
0000
0000
1000
0000
0000
0000
0010
0000
0000
1000
,
0010
1000
0001
0100
,
0010
0000
0000
0000
1000
0000
0000
0000
0100
0000
0000
0000
0010
0000
0000
0100
,
0010
0100
1000
0001
,
0100
0000
0000
0000
0010
0000
0000
0000
1000
0000
0000
0000
0100
0000
0000
1000
,
0100
1000
0001
0100
,
0001
0000
0000
0000
1000
0000
0000
0000
0100
0000
0000
0000
0010
0000
0000
0001
,
0010
0001
1000
0100
,
0010
0000
0000
0000
0001
0000
0000
0000
0100
0000
0000
0000
0010
0000
0000
1000
,
0010
1000
0001
1000
,
0100
0000
0000
0000
0010
0000
0000
0000
0001
0000
0000
0000
1000
0000
0000
0001
,
1000
0001
0100
0010
,
1000
0000
0000
0000
;

//---------------dance-single - ----------------
#NOTES:
     dance-single:
     :
     Hard:
     12:
     0.446382,0.463003,0.009497,0.037990,0.199447,329.000000,328.000000,1.000000,4.000000,0.000000,0.000000,0.446382,0.463003,0.009497,0.037990,0.199447,329.000000,328.000000,1.000000,4.000000,0.000000,0.000000:
0000
0000
0000
0000
,
0000
0000
0000
0000
,
0000
0000
0000
0000
,
0000
0000
0000
0000
,
0000
0000
0000
0000
,
1000
0000
0010
0000
,
0100
0000
0001
0010
0000
0000
0000
0000
,
0001
0000
0100
0000
,
0010
0000
1000
0100
0000
0000
0000
0000
,
1000
0000
0000
0000
0000
0000
0000
0000
0010
0000
0000
0000
0001
0000
0000
0010
,
0100
0000
0001
0010
0000
1000
0100
0000
,
1000
0010
0001
0000
0100
0000
1000
0000
,
0100
0000
0010
1000
0000
1000
0100
0000
,
1000
0000
0010
0001
0000
0010
1000
0000
,
0100
0000
1000
0010
0000
1000
0100
0000
,
0010
0000
0001
0100
0000
1000
0100
0000
,
0001
0010
1000
0010
0000
0001
0100
0000
,
0001
0000
0010
1000
0000
0010
0001
0000
,
0100
0000
0001
0010
0000
0001
0100
0000
,
0010
0000
1000
0100
0000
0001
0100
0000
,
1000
0010
0001
0010
0000
1000
0100
0000
,
1000
0000
0010
0001
0000
0010
1000
0000
,
0100
0000
1000
0010
0000
1000
0100
0000
,
0010
0000
0001
0100
0000
1000
0100
0000
,
0001
0010
0000
1000
0010
0000
0001
0000
,
0100
0000
0001
0000
0010
0000
1000
0010
,
0001
0000
0100
0000
1000
0000
0100
0001
,
0010
0000
1000
0000
0010
0000
0001
0100
,
1000
0000
0100
0000
0001
0000
0010
1000
,
0010
0000
0001
0000
0100
0000
0000
0000
1000
0000
0000
0000
0100
0000
0000
0001
,
0010
0000
1000
0000
0100
0000
0000
0000
1000
0000
0000
0000
0010
0000
0000
0001
,
0100
0000
1000
0000
0100
0000
0000
0000
0001
0000
0000
0000
0010
0000
0000
1000
,
0010
0000
0001
0000
0100
0000
0000
0000
0010
0000
0000
0000
1000
0000
0000
0100
,
0010
0000
0001
0000
0100
0000
0000
0000
1000
0000
0000
0000
0100
0000
0000
0001
,
0010
0000
1000
0000
0100
0000
0000
0000
1000
0000
0000
0000
0010
0000
0000
0001
,
0100
0000
1000
0000
0100
0000
0000
0000
0001
0000
0000
0000
0010
0000
0000
1000
,
0010
0000
0001
0000
0100
0000
0000
0000
0010
0000
0000
0000
1000
0000
0000
0100
,
1000
0000
0000
0000
0100
0000
0000
0010
0001
0000
0000
0000
0010
0000
0000
1000
,
0010
0000
0000
0000
0001
0000
0000
0100
0001
0000
0000
0000
0100
0000
0000
1000
,
0100
0000
0000
0000
0001
0000
0000
0010
0001
0000
0000
0000
0010
0000
0000
1000
,
0010
0000
0000
0000
0001
0000
0000
0100
0001
0000
0000
0000
0100
0000
0000
0000
,
0010
0000
0000
0000
1000
0000
0000
0100
1000
0000
0000
0000
0100
0000
0000
0001
,
0100
0000
0000
0000
1000
0000
0000
0010
1000
0000
0000
0000
0010
0000
0000
0001
,
0010
0000
0000
0000
1000
0000
0000
0100
1000
0000
0000
0000
0100
0000
0000
0001
,
0100
0000
0000
0000
1000
0000
0000
0010
1000
0000
0000
0000
0010
0000
0000
0000
,
1000
0000
0000
0000
0010
0000
0001
0000
0000
0000
0001
0000
0010
0000
0000
1000
,
0100
0000
0000
0000
1000
0000
0010
0000
0000
0000
0010
0000
1000
0000
0000
0100
,
0010
0000
0000
0000
0001
0000
0100
0000
0000
0000
0100
0000
0001
0000
0000
0010
,
0001
0000
0010
0000
1000
0000
0010
0000
0000
0000
0001
0000
0100
0000
0000
0010
,
1000
0000
0000
0000
0010
0000
0001
0000
0000
0000
0001
0000
0010
0000
0000
1000
,
0100
0000
0000
0000
1000
0000
0010
0000
0000
0000
0010
0000
1000
0000
0000
0100
,
0010
0000
0000
0000
0001
0000
0100
0000
0000
0000
0100
0000
0001
0000
0000
0010
,
0001
0000
0010
0000
1000
0000
0010
0000
0000
0000
0010
0000
0001
0000
0000
0100
,
0010
0000
1000
0000
0100
0000
0000
0000
0001
0000
0000
0000
0100
0000
0000
1000
,
0010
0000
0001
0000
0100
0000
0000
0000
0001
0000
0000
0000
0010
0000
0000
1000
,
0100
0000
0001
0000
0100
0000
0000
0000
1000
0000
0000
0000
0010
0000
0000
0001
,
0010
0000
1000
0000
0100
0000
0000
0000
0010
0000
0000
0000
0001
0000
0000
0100
,
0010
0000
1000
0000
0100
0000
0000
0000
0001
0000
0000
0000
0100
0000
0000
1000
,
0010
0000
0001
0000
0100
0000
0000
0000
0001
0000
0000
0000
0010
0000
0000
1000
,
0100
0000
0001
0000
0100
0000
0000
0000
1000
0000
0000
0000
0010
0000
0000
0001
,
0010
0000
1000
0000
0100
0000
0000
0000
0010
0000
0000
0000
0001
0000
0000
0100
,
1000
0000
0000
0000
0010
0000
2000
0000
0001
0000
0000
0000
3100
0000
0000
1000
,
0010
0000
0000
0000
1000
0000
0020
0000
0100
0000
0000
0000
0031
0000
0000
0010
,
0100
0000
0000
0000
0001
0000
0200
0000
0010
0000
0000
0000
1300
0000
0000
0100
,
0001
0000
0100
0002
1000
0003
0010
0001
,
0101
0000
0000
0000
;

//---------------dance-single - ----------------
#NOTES:
     dance-single:
     :
     Challenge:
     13:
     0.644472,0.585906,0.018995,0.151960,0.303920,475.000000,473.000000,2.000000,16.000000,0.000000,0.000000,0.644472,0.585906,0.018995,0.151960,0.303920,475.000000,473.000000,2.000000,16.000000,0.000000,0.000000:
// measure 0
0000
0000
0000
0000
,  // measure 1
0000
0000
0000
0000
,  // measure 2
0000
0000
0000
0000
,  // measure 3
0000
0000
0000
0000
,  // measure 4
0000
0000
0000
0000
,  // measure 5
1000
0000
0010
0000
0100
0000
0000
0000
0010
0000
1000
0000
0001
0000
0000
0010
,  // measure 6
0001
0000
0010
0000
0100
0000
1000
0000
0010
0000
0000
0000
0000
0000
0000
0100
,  // measure 7
0001
0000
1000
0000
0100
0000
0000
0000
1000
0000
0010
0000
0100
0000
0000
0001
,  // measure 8
0100
0000
0010
0000
1000
0000
0001
0000
0010
0000
0000
0000
0000
0000
0000
0100
,  // measure 9
1000
0000
0010
0000
0100
0000
0001
0000
1000
0000
0001
0000
0010
0000
0100
1000
,  // measure 10
0100
0000
1000
0000
0010
0000
0100
0000
0001
0000
1000
0000
0010
0000
0000
0100
,  // measure 11
0001
0000
1000
0010
1000
0000
0001
0000
0010
0000
0100
0000
1000
0000
0010
0100
,  // measure 12
0010
1000
0001
1000
0100
0010
0001
0000
,  // measure 13
0011
0000
0001
0000
0100
0000
0010
0000
1000
0000
0001
0000
0100
0000
0000
0010
,  // measure 14
0100
0000
0001
0000
0010
0000
0100
0000
1000
0000
0001
0000
1000
0000
0000
0010
,  // measure 15
1000
0000
0001
0000
0010
0000
0001
0100
0001
0000
1000
0000
0100
0000
0000
1000
,  // measure 16
0010
0000
1000
0000
0100
0000
0010
0000
0001
0000
1000
0000
0100
0000
0000
1000
,  // measure 17
0001
0000
1000
0000
0010
0000
1000
0000
0100
0000
0010
0000
0001
0000
0000
0100
,  // measure 18
0010
0000
0100
0000
0001
0000
0010
0000
0001
0000
1000
0000
0100
0000
0000
1000
,  // measure 19
0010
0000
1000
0000
0100
0000
0010
0000
0001
0000
1000
0000
0010
0000
0000
1000
,  // measure 20
0100
0000
1000
0000
0010
0000
0100
0000
0001
0000
0010
0000
0001
0000
1000
0001
,  // measure 21
1000
0000
0001
0000
1000
0000
0010
0000
0100
0000
0001
0000
0010
0000
0000
0100
,  // measure 22
0010
0100
1000
0010
1000
0001
0100
0000
,  // measure 23
1010
0000
1000
0000
0001
0000
0010
0000
0100
0000
1000
0000
0001
0000
0000
0100
,  // measure 24
0001
0000
1000
0000
0010
0000
0100
0000
0010
0000
1000
0000
0001
0000
0000
0100
,  // measure 25
0001
0000
0000
0000
2000
0000
0001
0000
3002
0000
0000
0000
0013
0000
0000
0100
,  // measure 26
1000
0000
0000
0000
0020
0000
0100
0000
0230
0000
0000
0000
0301
0000
0000
1000
,  // measure 27
0010
0000
0000
0000
0200
0000
0001
0000
0302
0000
0000
0000
0013
0000
0000
0100
,  // measure 28
2000
0000
0000
0000
3020
0000
0000
0000
0130
0010
0100
0010
0100
0000
0001
1000
,  // measure 29
0001
0000
0000
0000
0020
0000
0001
0000
0032
0000
0000
0000
1003
0000
0000
1000
,  // measure 30
0100
0000
0000
0000
2000
0000
0100
0000
3200
0000
0000
0000
0310
0000
0000
0001
,  // measure 31
0100
0000
0010
1000
0020
0000
0100
0000
0230
0000
0000
0000
0301
0000
0000
0001
,  // measure 32
1000
0000
0100
0000
2000
0000
0001
0000
3002
0000
0010
0000
0013
0000
0000
0100
,  // measure 33
1000
0000
0000
0000
0010
0000
1000
0000
0001
0000
0010
0000
0100
0000
0000
1000
,  // measure 34
0010
0000
0000
0000
1000
0000
0001
0000
0010
0000
0001
0000
0100
0000
0000
0010
,  // measure 35
1000
0000
0001
0100
0001
0000
0010
0000
0100
0000
1000
0000
0010
0000
0000
1000
,  // measure 36
0001
0000
0010
0000
0001
0000
1000
0000
0100
0000
0010
0000
0100
0000
0000
1000
,  // measure 37
0001
0000
1000
0000
0100
0000
0000
0000
1000
0000
0001
0000
0100
0000
0000
0100
,  // measure 38
0001
0000
1000
0000
0010
0000
0000
0000
1000
0000
0001
0000
0010
0000
0000
0010
,  // measure 39
0001
0000
0100
0000
0010
0000
0000
0000
0010
0000
0100
0000
0001
0000
0000
0001
,  // measure 40
1000
0000
0100
0000
0010
0000
0000
0000
0010
0000
0100
0000
1000
0000
0000
1000
,  // measure 41
0010
0100
0010
0001
0010
0100
0010
1000
,  // measure 42
0010
0001
0010
1000
0010
0100
0010
1000
,  // measure 43
0100
0001
0100
0010
0100
1000
0100
0001
,  // measure 44
0100
0010
0100
1000
0100
0001
0100
0010
,  // measure 45
0001
0000
1000
0000
0010
0000
1000
0000
0100
0000
0010
0000
0001
0000
0000
1000
,  // measure 46
0010
0000
1000
0000
0100
0000
0010
0000
0001
0000
1000
0000
0001
0000
0000
0100
,  // measure 47
0001
0000
0010
0000
0001
0000
1000
0000
0100
0000
0010
0000
0001
0000
0000
1000
,  // measure 48
0010
0000
1000
0000
0100
0000
0010
0000
0001
0000
1000
0000
0100
0000
0000
1000
,  // measure 49
0010
0000
1000
0000
0001
0000
1000
0000
0100
0000
0010
0000
0001
0100
0000
0100
,  // measure 50
0001
0000
1000
0000
0010
0000
1000
0000
0001
0000
0100
0000
0010
1000
0000
1000
,  // measure 51
0010
0000
0100
0000
0010
0000
1000
0000
0100
0000
0010
0000
0001
1000
0000
1000
,  // measure 52
0001
0000
0010
0000
0100
0000
1000
0000
0010
0000
0100
0000
0001
0010
0000
0010
,  // measure 53
0001
0000
0000
0000
1000
0000
0010
0000
0100
0000
0010
0000
1000
0000
0100
0010
,  // measure 54
0001
0000
0000
0000
0100
0000
0001
0000
0010
0000
0100
0000
1000
0000
0010
1000
,  // measure 55
0001
0000
0000
0000
1000
0000
0001
0000
1000
0000
0010
0000
0100
0000
0010
1000
,  // measure 56
0001
0000
0000
0000
0010
0000
0001
0000
1000
0000
0010
0000
1000
0000
0100
0010
,  // measure 57
0100
0000
1000
0000
0010
0000
0100
0000
0001
0000
0010
0000
0100
0000
1000
0001
,  // measure 58
0100
0000
0010
0000
0100
0000
0001
0000
0010
0000
0100
0000
1000
0000
0001
1000
,  // measure 59
0010
0000
1000
0000
0100
0000
0010
0000
0001
0000
1000
0000
0001
0000
0100
0010
,  // measure 60
1000
0000
0100
0000
0010
0000
0001
0000
0100
0000
0010
0000
1000
0000
0000
0001
,  // measure 61
0010
0000
0001
0000
1000
0000
0001
0000
0010
0000
0100
0000
1000
0000
0010
0100
,  // measure 62
0010
0000
1000
0000
0100
0000
0010
0000
0001
0000
1000
0000
0010
0000
1000
0001
,  // measure 63
0100
0000
0001
0000
0010
0000
0100
0000
1000
0000
0001
0000
0010
0000
0001
1000
,  // measure 64
0010
0000
1000
0000
0100
0000
0010
0000
0001
0000
0000
0000
0100
0000
0001
1000
;
