#VERSION:0.83;
#TITLE:Old Town Road;
#SUBTITLE:;
#ARTIST:Lil Nas X ft. Billy Ray Cyrus;
#TITLETRANSLIT:;
#SUBTITLETRANSLIT:;
#ARTISTTRANSLIT:;
#GENRE:;
#ORIGIN:;
#CREDIT:;
#BANNER:Old Town Road-bn.png;
#BACKGROUND:Old Town Road-bg.png;
#PREVIEWVID:;
#JACKET:Old Town Road-jacket.png;
#CDIMAGE:;
#DISCIMAGE:;
#LYRICSPATH:;
#CDTITLE:;
#MUSIC:Old Town Road.ogg;
#OFFSET:0.000000;
#SAMPLESTART:27.573999;
#SAMPLELENGTH:20.000000;
#SELECTABLE:YES;
#DISPLAYBPM:136.000000;
#BPMS:0.000=136.000;
#STOPS:;
#DELAYS:;
#WARPS:;
#TIMESIGNATURES:0.000=4=4;
#TICKCOUNTS:0.000=4;
#COMBOS:0.000=1;
#SPEEDS:0.000=1.000=0.000=0;
#SCROLLS:0.000=1.000;
#FAKES:;
#LABELS:0.000=Song Start;
#BGCHANGES:;
#KEYSOUNDS:;
#ATTACKS:
;

//---------------dance-single - ----------------
#NOTEDATA:;
#CHARTNAME:;
#STEPSTYPE:dance-single;
#DESCRIPTION:;
#CHARTSTYLE:;
#DIFFICULTY:Hard;
#METER:12;
#RADARVALUES:0.486905,0.480000,0.200000,0.300000,0.145833,409.000000,385.000000,24.000000,36.000000,0.000000,0.000000,0.000000,0.000000,0.000000,0.486905,0.480000,0.200000,0.300000,0.145833,409.000000,385.000000,24.000000,36.000000,0.000000,0.000000,0.000000,0.000000,0.000000;
#CREDIT:;
#DISPLAYBPM:136.000000;
#NOTES:
0000
0000
0000
0000
,
0000
0000
0000
0000
,
0000
0000
0000
0000
,
0000
0000
0000
0000
,
1000
0000
1000
0000
,
0001
0000
0001
0000
,
0100
0000
0100
0000
,
0010
0000
0020
0000
0000
1000
1030
0001
,
2000
0000
3002
0000
0203
0000
0301
1000
,
0010
0010
0000
0101
0000
0001
1000
0100
,
0000
0000
2020
0000
0030
0000
3001
1000
,
0002
0000
0203
0000
0301
1000
0010
0100
,
0020
0000
2030
0000
3200
0000
1300
0010
,
0100
0100
0000
1010
0000
1000
0001
0010
,
0012
0000
1000
0000
0010
0000
0103
0001
,
1000
0000
1001
0000
0110
0100
0001
0010
,
0100
0000
1000
0000
0100
0000
1000
0000
0010
0100
0000
0000
0101
0000
0000
0000
,
0010
0000
0001
0000
0010
0000
0001
0000
0100
0010
0000
0000
1010
0000
0000
0000
,
1000
0100
0010
0001
0100
0010
1000
0001
,
0100
0001
0100
0010
2000
0001
3001
0000
,
0100
0000
0001
0000
0100
0000
0001
0000
1000
0100
0000
0000
1100
0000
0000
0000
,
1000
0000
0010
0000
1000
0000
0010
0000
0100
0001
0000
0000
0011
0000
0000
0000
,
0100
0001
0010
0100
1000
0001
1000
0010
,
0100
0010
1000
0100
0020
0001
0031
0000
,
0010
0001
0100
0001
1000
0010
0200
0000
,
0301
0000
1002
0000
0100
0100
0103
0000
,
0010
1000
0100
0000
1000
0001
0010
0000
,
0002
0000
2003
0000
0100
0100
3100
0000
,
0010
1000
0001
1000
0100
0010
0200
0000
,
1300
0000
0120
0000
0100
0100
0130
0000
,
1000
0001
0010
0000
0100
1000
0001
0000
,
0020
0000
0032
0000
0100
0103
0001
1000
,
0100
1000
0000
0000
0001
0100
0000
0000
1000
0010
0000
0000
0001
0000
0010
0000
,
1000
1000
0001
0011
0000
0100
1000
0010
,
0100
0000
0000
0000
2000
0010
0000
0000
0100
0000
0000
0000
0001
0000
0001
0000
,
3001
1000
0000
0000
0100
1000
0000
0000
0010
0000
0100
0000
0001
0000
0010
0000
,
0001
1000
0000
0000
1000
0010
0000
0000
0010
0100
0000
0000
0100
0000
0001
0000
,
0010
0010
0100
1100
0000
1000
0001
0100
,
0001
0000
0000
0000
0200
0010
0000
0000
1000
0000
0000
0000
0001
0000
0001
0000
,
0301
0100
0000
0000
0010
1000
0000
0000
0100
0000
0010
0000
0110
0000
0000
0000
,
0002
0103
0101
1010
,
1000
0001
1000
0001
0200
0010
0310
0000
,
1000
0100
0010
0001
1000
0010
0100
0001
,
1000
0010
1000
0000
2001
0000
3020
0000
,
1030
0010
1000
0010
0100
0001
0100
0001
,
1000
0100
0010
0001
0200
0000
0320
0000
,
1030
0001
0010
0001
1000
0100
0010
0100
,
1000
0001
0100
0010
2000
0000
3002
0000
,
0013
0000
1001
0000
1010
1000
0100
0010
,
0001
0100
0001
1000
0100
0010
0001
1000
,
0010
1000
0000
0000
0001
1000
0000
0000
0100
0000
0010
0000
0001
0000
0100
0000
,
0001
1000
0100
0010
0001
0100
0010
1000
,
0001
1000
0000
0000
0001
0100
0000
0000
0011
0000
0100
0000
0010
0000
1000
0000
,
0001
1000
0100
0010
0100
1000
0001
0010
,
0001
0000
0000
0000
2000
0100
0000
0000
0001
0000
0000
0000
0010
0000
0010
0000
,
3010
1000
0000
0000
0002
0010
0000
0000
0100
0000
0103
0000
0001
0000
1000
0000
,
0010
1000
0000
0000
0001
0100
0000
0000
0010
0100
0000
0000
0001
0000
1000
0000
,
0010
0010
1000
1100
0000
0001
1000
0100
,
1000
0000
0000
0000
0020
0001
0000
0000
1000
0000
0000
0000
0100
0000
0100
0000
,
0130
0010
0000
0000
1000
0001
0000
0000
1000
0000
0100
0000
0010
0000
0001
0000
,
1000
0010
0000
0000
1000
0100
0000
0000
0010
0001
0000
0000
0001
0000
0100
0000
,
0010
0010
0100
0101
0000
1000
0100
0010
,
0001
0000
0000
0000
0200
0010
0000
0000
1000
0000
0000
0000
0001
0000
0001
0000
,
0301
1000
0000
0000
0100
1000
0000
0000
0010
0000
0100
0000
0010
0000
0000
0000
,
0110
0000
0000
0000
;

//---------------dance-single - ----------------
#NOTEDATA:;
#CHARTNAME:;
#STEPSTYPE:dance-single;
#DESCRIPTION:;
#CHARTSTYLE:;
#DIFFICULTY:Medium;
#METER:9;
#RADARVALUES:0.384524,0.426667,0.300000,0.366667,0.000000,323.000000,287.000000,36.000000,44.000000,0.000000,0.000000,0.000000,0.000000,0.000000,0.384524,0.426667,0.300000,0.366667,0.000000,323.000000,287.000000,36.000000,44.000000,0.000000,0.000000,0.000000,0.000000,0.000000;
#CREDIT:;
#DISPLAYBPM:136.000000;
#NOTES:
0000
0000
0000
0000
,
0000
0000
0000
0000
,
0000
0000
0000
0000
,
0000
0000
0000
0000
,
1000
0000
1000
0000
,
0001
0000
0001
0000
,
0100
0000
0100
0000
,
0020
0000
0000
0030
,
2000
3100
0002
0103
,
1000
0100
0010
0001
,
0000
0000
0200
0000
0000
0000
0301
1000
,
0002
0103
1000
0010
,
0200
0301
0020
0031
,
1000
0100
0010
0001
,
0000
0000
2000
0000
0000
0000
3010
0100
,
0010
1001
0110
0010
,
1000
0001
1000
0001
0100
0000
0000
0000
,
0001
1000
0001
1000
0100
0000
0000
0000
,
0010
1000
0010
1000
0100
0000
0100
0010
,
0001
1000
0001
1000
0001
1000
0001
0000
,
0010
0001
0010
0001
1000
0000
1001
0000
,
1000
0100
1000
0100
0010
0000
0000
0000
,
0001
0010
0001
0010
0001
0010
0100
1000
,
0010
0100
0010
0100
0010
0000
0110
0000
,
1000
0100
0010
0100
2000
0000
3002
0000
,
0203
0320
1000
0031
,
0000
1000
0001
0000
0100
0010
0100
0000
,
0002
0023
0230
2300
,
3001
1000
0100
1000
0002
0000
2003
0000
,
3020
0230
0001
1300
,
0000
0001
0010
0000
0100
1000
0100
0000
,
2000
3020
0230
0302
,
0013
0000
0010
0000
0011
0000
0001
1000
,
0010
0100
0000
0110
0000
0010
1000
0100
,
0000
0000
2002
0000
3000
0000
0103
0010
,
1000
1100
0101
0001
,
1000
0000
1000
0000
1100
0000
0010
0100
,
0001
1000
0000
0101
0000
0010
0100
0001
,
0000
0000
0220
0000
0030
0000
0310
0100
,
0010
1100
1001
0001
,
0020
0130
0200
0301
,
0001
1000
1100
0101
,
2000
3100
0002
0103
,
0010
0100
1010
0011
,
1000
0100
0010
0001
0100
0010
1000
0000
,
0001
1000
0100
0000
2000
0000
3002
0000
,
0013
0001
0100
0001
1000
0100
0010
0000
,
0001
1000
0010
0000
0200
0000
0320
0000
,
1030
0000
1000
0000
0001
0100
0010
0100
,
0000
0110
0000
1001
0000
0010
1000
0001
,
0100
0000
0100
0000
0001
0010
0100
1000
,
0000
1100
0000
0011
0000
0100
0001
1000
,
0001
0000
0001
0000
1000
0010
1000
0100
,
0000
0110
0000
0011
0000
0100
0001
1000
,
0020
0000
0230
0000
0001
0000
0310
0100
,
0002
0000
2003
0000
3001
0010
0100
1000
,
0100
0000
1100
0000
1010
0000
0010
0100
,
0001
1000
0000
1100
0000
1000
0100
0010
,
0001
0000
0012
0000
0023
0000
0130
1000
,
0010
0000
0101
0000
1100
0000
0010
0100
,
0001
0000
1010
0000
1001
0000
0100
0001
,
0100
0010
0000
1001
0000
1000
0100
0010
,
0001
0000
2100
0000
3200
0000
1300
0010
,
0100
0000
1001
0000
0100
0010
0100
0000
,
0110
0000
0000
0000
;

//---------------dance-single - ----------------
#NOTEDATA:;
#CHARTNAME:;
#STEPSTYPE:dance-single;
#DESCRIPTION:;
#CHARTSTYLE:;
#DIFFICULTY:Easy;
#METER:5;
#RADARVALUES:0.234524,0.240000,0.108333,0.066667,0.000000,197.000000,184.000000,13.000000,8.000000,0.000000,0.000000,0.000000,0.000000,0.000000,0.234524,0.240000,0.108333,0.066667,0.000000,197.000000,184.000000,13.000000,8.000000,0.000000,0.000000,0.000000,0.000000,0.000000;
#CREDIT:;
#DISPLAYBPM:136.000000;
#NOTES:
0000
0000
0000
0000
,
0000
0000
0000
0000
,
0000
0000
0000
0000
,
0000
0000
0000
0000
,
2000
0000
3000
0000
,
0002
0000
0003
0000
,
0200
0000
0300
0000
,
0020
0000
0030
0000
,
1000
0100
1000
0000
,
0001
0100
0001
0000
,
0000
0010
0000
0010
,
1000
0001
1000
0000
,
0001
0010
0001
0000
,
1000
0010
1000
0000
,
0000
0100
0000
0100
,
1000
0001
1000
0000
,
0001
0100
1000
0000
,
1000
0100
0001
0000
,
1000
0001
1000
0001
,
0010
0100
1000
0001
,
1000
0010
0001
0000
,
0001
0010
1000
0000
,
0100
0010
0100
0010
,
1000
0100
0010
0001
,
0100
0100
0010
0010
,
2000
0002
0000
3003
,
1000
0010
0100
0001
,
0100
0100
0100
0100
,
0001
0001
1000
1000
,
0020
0200
0000
0330
,
1000
0100
0010
0001
,
0100
0100
0100
0100
,
0001
0001
1000
1000
,
0001
0010
0100
1000
,
0000
0110
0000
1001
,
1000
0100
0010
0000
,
0100
0100
0010
0010
,
1000
0100
0010
0001
,
0000
1001
0000
0110
,
1000
0001
0100
0000
,
0010
0000
0010
0000
,
1000
0100
1000
0000
,
0010
0000
0010
0000
,
0001
0100
0001
0000
,
1000
0100
0010
0001
,
0010
0100
1000
0000
,
0001
0010
0100
1000
,
0100
0010
0001
0000
,
1000
1000
1001
0000
,
0001
0100
0010
0000
,
0100
0100
0110
0000
,
1000
0001
0010
0000
,
0001
0010
0100
1000
,
0010
0100
0010
0100
,
0000
0110
0000
1001
,
1000
1000
1000
0000
,
0010
0100
0010
0100
,
0001
1000
0010
0100
,
0000
0110
0000
1001
,
0100
1000
0010
0000
,
1000
0010
0100
0001
,
1000
0001
1000
0001
,
0000
1001
0000
0110
,
0010
1000
0001
0000
,
0110
0000
0000
0000
;

//---------------dance-single - ----------------
#NOTEDATA:;
#CHARTNAME:;
#STEPSTYPE:dance-single;
#DESCRIPTION:;
#CHARTSTYLE:;
#DIFFICULTY:Beginner;
#METER:2;
#RADARVALUES:0.116667,0.160000,0.008333,0.000000,0.000000,98.000000,97.000000,1.000000,0.000000,0.000000,0.000000,0.000000,0.000000,0.000000,0.116667,0.160000,0.008333,0.000000,0.000000,98.000000,97.000000,1.000000,0.000000,0.000000,0.000000,0.000000,0.000000,0.000000;
#CREDIT:;
#DISPLAYBPM:136.000000;
#NOTES:
// measure 0
0000
0000
0000
0000
,  // measure 1
0000
0000
0000
0000
,  // measure 2
0000
0000
0000
0000
,  // measure 3
0000
0000
0000
0000
,  // measure 4
1000
0000
0000
0000
,  // measure 5
0001
0000
0000
0000
,  // measure 6
0100
0000
0000
0000
,  // measure 7
0010
0000
0000
0000
,  // measure 8
1000
0000
1000
0000
,  // measure 9
1000
0000
0000
0000
,  // measure 10
0001
0000
0001
0000
,  // measure 11
0001
0000
0000
0000
,  // measure 12
0100
0000
0100
0000
,  // measure 13
0100
0000
0000
0000
,  // measure 14
0010
0000
0010
0000
,  // measure 15
0010
0000
0000
0000
,  // measure 16
1000
0000
1000
0000
,  // measure 17
0001
0000
0001
0000
,  // measure 18
0100
0000
0100
0000
,  // measure 19
0100
0000
0000
0000
,  // measure 20
0001
0000
0001
0000
,  // measure 21
1000
0000
1000
0000
,  // measure 22
0010
0000
0010
0000
,  // measure 23
0010
0000
0000
0000
,  // measure 24
1000
0000
0000
0000
,  // measure 25
0100
0100
0000
0000
,  // measure 26
0001
0000
0000
0000
,  // measure 27
0100
0100
0000
0000
,  // measure 28
1000
0000
0000
0000
,  // measure 29
0010
0010
0000
0000
,  // measure 30
0001
0000
0000
0000
,  // measure 31
0010
0010
0000
0000
,  // measure 32
0100
0000
0100
0000
,  // measure 33
0100
0000
0000
0000
,  // measure 34
0010
0000
0010
0000
,  // measure 35
0010
0000
0000
0000
,  // measure 36
1000
0000
1000
0000
,  // measure 37
1000
0000
0000
0000
,  // measure 38
0001
0000
0001
0000
,  // measure 39
0001
0000
0000
0000
,  // measure 40
0010
0000
0100
0000
,  // measure 41
0010
0000
0000
0000
,  // measure 42
1000
0000
0001
0000
,  // measure 43
1000
0000
0000
0000
,  // measure 44
0001
0000
0001
0000
,  // measure 45
1000
0000
1000
0000
,  // measure 46
0010
0000
0010
0000
,  // measure 47
0100
0000
0100
0000
,  // measure 48
0001
0000
0001
0000
,  // measure 49
1000
0000
0000
0000
,  // measure 50
1000
0000
1000
0000
,  // measure 51
0001
0000
0000
0000
,  // measure 52
0100
0000
0100
0000
,  // measure 53
0010
0000
0000
0000
,  // measure 54
0010
0000
0010
0000
,  // measure 55
0100
0000
0000
0000
,  // measure 56
0001
0000
1000
0000
,  // measure 57
0010
0000
0100
0000
,  // measure 58
0001
0000
0010
0000
,  // measure 59
0100
0000
1000
0000
,  // measure 60
0010
0000
1000
0000
,  // measure 61
0001
0000
0100
0000
,  // measure 62
0001
0000
0100
0000
,  // measure 63
0010
0000
1000
0000
,  // measure 64
0110
0000
0000
0000
;
