#TITLE:ORION.78 ~civilization mix~;
#SUBTITLE:;
#ARTIST:2MB;
#TITLETRANSLIT:;
#SUBTITLETRANSLIT:;
#ARTISTTRANSLIT:;
#GENRE:;
#CREDIT:;
#BANNER:ORION.78 ~civilization mix~-bn.png;
#BACKGROUND:ORION.78 ~civilization mix~-bg.png;
#LYRICSPATH:;
#CDTITLE:;
#MUSIC:ORION.78 ~civilization mix~.ogg;
#OFFSET:0.000000;
#SAMPLESTART:61.099998;
#SAMPLELENGTH:20.000000;
#SELECTABLE:YES;
#DISPLAYBPM:200.000000;
#BPMS:0.000000=202.699997
,4.000000=200.199997
;
#STOPS:
;
#BGCHANGES:;
#KEYSOUNDS:;
#ATTACKS:;

//---------------dance-single - ----------------
#NOTES:
     dance-single:
     :
     Beginner:
     4:
     0.099325,0.186234,0.009932,0.000000,0.000000,70.000000,69.000000,1.000000,0.000000,0.000000,0.000000,0.099325,0.186234,0.009932,0.000000,0.000000,70.000000,69.000000,1.000000,0.000000,0.000000,0.000000:
0000
0000
0000
0000
,
0000
0000
0000
0000
,
0000
0000
0000
0000
,
0000
0000
0000
0000
,
0000
0000
0000
0000
,
0000
0000
0000
0000
,
0000
0000
0000
0000
,
0000
0000
0000
0000
,
0000
0000
0000
0000
,
1000
0000
0000
0000
,
0001
0000
0000
0000
,
1000
0000
0000
0000
,
0001
0000
0000
0000
,
0001
0000
0000
0000
,
1000
0000
0000
0000
,
0001
0000
0000
0000
,
1000
0000
0000
0000
,
0001
0000
0000
0000
,
0001
0000
0000
0000
,
1000
0000
0000
0000
,
0010
0000
0000
0000
,
1000
0000
0000
0000
,
1000
0000
0000
0000
,
0100
0000
0000
0000
,
0001
0000
0000
0000
,
1000
0000
0000
0000
,
0001
0000
0000
0000
,
1000
0000
0000
0000
,
0001
0000
0000
0000
,
0100
0000
0000
0000
,
0010
0000
0000
0000
,
1000
0000
0000
0000
,
0010
0000
0000
0000
,
0100
0000
0000
0000
,
1000
0000
0000
0000
,
0001
0000
0000
0000
,
0100
0000
0000
0000
,
0010
0000
0000
0000
,
0100
0000
0000
0000
,
0001
0000
0000
0000
,
1000
0000
0000
0000
,
0010
0000
0000
0000
,
0100
0000
0000
0000
,
0001
0000
0000
0000
,
0010
0000
0000
0000
,
1000
0000
0000
0000
,
0001
0000
0000
0000
,
0100
0000
0000
0000
,
0001
0000
0000
0000
,
1000
0000
0000
0000
,
0001
0000
0000
0000
,
0010
0000
0000
0000
,
0100
0000
0000
0000
,
0001
0000
0000
0000
,
1000
0000
0000
0000
,
0010
0000
0000
0000
,
0010
0000
0000
0000
,
0100
0000
0000
0000
,
0100
0000
0000
0000
,
0010
0000
0000
0000
,
0000
0000
0000
0000
,
0100
0000
0000
0000
,
0000
0000
0000
0000
,
0010
0000
0010
0000
,
0010
0000
0010
0000
,
0100
0000
0100
0000
,
0100
0000
0100
0000
,
0001
0000
0000
0000
,
1000
0000
0000
0000
,
0100
0000
0000
0000
,
0010
0000
0000
0000
,
1000
0000
0000
0000
,
0001
0000
0000
0000
,
0100
0000
0000
0000
,
0010
0000
0000
0000
,
1001
0000
0000
0000
;

//---------------dance-single - ----------------
#NOTES:
     dance-single:
     :
     Easy:
     9:
     0.387366,0.521454,0.407231,0.000000,0.049662,273.000000,232.000000,41.000000,0.000000,0.000000,0.000000,0.387366,0.521454,0.407231,0.000000,0.049662,273.000000,232.000000,41.000000,0.000000,0.000000,0.000000:
0000
0000
0000
0000
,
0000
0000
0000
0000
,
0000
0000
0000
0000
,
0000
0000
0000
0000
,
0000
0000
0000
0000
,
0000
0000
0000
0000
,
0000
0000
0000
0000
,
0000
0000
0000
0000
,
0000
0000
0000
0000
,
1000
0001
0100
0000
,
0001
0010
1000
0000
,
1000
0010
1000
0000
,
0001
1000
0010
0000
,
0001
1000
0100
0000
,
1000
0010
0001
0000
,
0001
0010
0001
0000
,
1000
0001
0010
0000
,
0001
1001
0010
0110
,
0001
1001
0010
0110
,
1000
0001
1000
0001
,
0010
0000
1000
0001
1000
0000
0010
0000
,
1000
0000
0001
0000
0100
0000
1000
0001
,
1000
0100
0001
1000
,
0100
0100
0010
1000
,
0010
1000
0001
0000
0100
0000
0100
0000
,
1000
1000
0001
0001
,
0010
1000
0100
1000
,
1001
0000
0000
0000
,
0000
1001
1100
0101
,
0010
0000
0001
0000
,
0000
0101
1100
0101
,
1000
0001
0100
1000
,
0000
1001
0110
1001
,
0010
0010
0100
0100
,
0000
1000
0001
1000
,
0001
0010
0001
0100
0010
0000
0000
0000
,
0100
0001
1000
0001
,
1000
0010
1000
0100
0010
0000
0000
0000
,
0100
0001
1000
0100
,
0001
1001
0010
0110
,
1000
1001
0100
0110
,
1000
0101
0001
1100
,
0010
0110
1000
1001
,
0010
0000
0000
0000
0000
0000
1000
0000
0000
0000
0100
0000
,
0010
0000
0001
0000
,
0010
0000
0000
0000
0001
0000
0100
0000
0000
0000
0000
0000
,
0010
0000
0000
0000
0000
0000
0010
0000
0000
0000
0100
0000
,
0010
0000
0000
0000
1000
0000
0001
0000
0000
0000
0010
0000
,
0001
0000
0000
0000
1000
0000
0100
0000
0000
0000
0001
0000
,
1000
0000
0000
0000
1000
0000
0001
0000
0000
0000
0001
0000
,
0100
0000
0000
0000
0010
0000
0010
0000
0000
0000
0000
0000
,
1010
0001
1000
0100
,
0001
0100
1000
0100
,
0001
0010
1000
0100
,
0001
0100
1000
0100
,
0001
1001
0010
0110
,
1000
1001
0100
0110
,
1000
0101
0001
1100
,
0010
0110
1000
1001
,
0010
0000
0000
0000
,
0000
0000
0000
0000
,
0100
0000
0000
0000
,
0000
0000
0000
0000
,
0010
0010
0010
0010
,
0001
0010
0001
1000
,
0000
1010
0000
0000
0000
0000
0000
0000
,
1000
0001
1000
0001
,
1000
0001
0100
0001
1000
0010
1000
0000
,
0001
0000
1000
0000
,
0001
1000
0010
1000
0001
0100
0001
0000
,
1000
0000
0001
0000
,
1000
1001
0010
0110
,
0001
1001
0100
0110
,
0001
1100
1000
0101
,
0001
1001
0010
0110
,
1001
0000
0000
0000
;

//---------------dance-single - ----------------
#NOTES:
     dance-single:
     :
     Medium:
     12:
     0.519326,0.670441,0.526420,0.000000,0.173818,366.000000,313.000000,53.000000,0.000000,0.000000,0.000000,0.519326,0.670441,0.526420,0.000000,0.173818,366.000000,313.000000,53.000000,0.000000,0.000000,0.000000:
0000
0000
0000
0000
,
0000
0000
0000
0000
,
0000
0000
0000
0000
,
0000
0000
0000
0000
,
0000
0000
0000
0000
,
0000
0000
0000
0000
,
0000
0000
0000
0000
,
0000
0000
0000
0000
,
0000
0000
0000
0000
,
0001
1000
0000
0100
0000
0000
0101
0000
,
1000
0010
0000
0001
0000
0000
1100
0000
,
0001
1000
0000
0100
0000
0000
0011
0000
,
1000
0010
0000
0100
0000
0000
1100
0000
,
0001
0100
0000
1000
0000
0000
1001
0000
,
0100
0010
0000
0001
0000
0000
1100
0000
,
0001
0100
0000
1000
0000
0000
0101
0000
,
1000
0001
0000
1000
0000
0000
0011
0000
,
0001
1001
0010
0110
,
1000
1001
0100
0110
,
0001
0000
0001
1000
0001
1000
0001
1000
,
0001
0000
0001
1000
0001
0000
0001
1000
,
0001
1000
0001
1000
0001
0000
0001
1000
,
0001
0000
0001
1000
0001
1000
0001
1000
,
0010
0000
0010
0100
0010
0000
0010
0100
,
0010
0100
0010
0100
0010
0000
0010
0100
,
0010
0000
0010
0100
0010
0100
0010
0100
,
0010
0000
0010
0100
0010
0000
0010
0100
,
0001
0100
0001
0010
0100
1000
0001
1000
,
0100
0101
0010
1100
,
1000
0001
0100
0010
1000
0100
1000
0001
,
0100
0101
1000
1001
,
0001
0100
0010
1000
0001
0100
0001
1000
,
0100
0101
1000
1010
,
1000
0100
1000
0001
1000
0100
0010
0100
,
0001
1100
0010
1001
,
1000
0100
0010
0001
1000
0100
1000
0001
,
0100
0101
1001
1100
,
1000
0100
1000
0001
0100
0001
1000
0100
,
1000
1100
0101
1001
,
1000
0110
0010
1001
,
0100
0101
0001
1100
,
0010
0110
0001
1001
,
0100
1001
0010
1001
,
0010
0000
0000
0000
0000
0000
1000
0000
0000
0000
0100
0000
,
0010
0000
0000
0000
0010
0000
0001
0000
0000
0000
0000
0000
,
0010
0000
0000
0000
0001
0000
0100
0000
0000
0000
0000
0000
,
0010
0000
0000
0000
0000
0000
0010
0000
0000
0000
0100
0000
,
0010
0000
0000
0000
1000
0000
0001
0000
0000
0000
0010
0000
,
1000
0000
0000
0000
0100
0000
0001
0000
0000
0000
0001
0000
,
1000
0000
0000
0000
1000
0000
0001
0000
0000
0000
0001
0000
,
0100
0000
0000
0000
0100
0000
0100
0000
0000
0000
0000
0000
,
0010
0000
0001
0000
1000
0000
0100
0000
0000
0000
0001
0000
,
1000
0000
0010
0000
0001
0000
0100
0000
0000
0000
0000
0000
,
0100
0000
0001
0000
0010
0000
1000
0000
0100
0000
1000
0000
,
0100
0000
0001
0000
0010
0000
0001
0000
0000
0000
0001
0000
,
1000
0000
0010
0000
1000
0000
0100
0000
0000
0000
0010
0000
,
0100
0000
0010
0000
1000
0000
0100
0000
0000
0000
0001
0000
,
1000
0000
0100
0000
0010
0000
0001
0000
1000
0000
0100
0000
,
0001
0000
1000
0000
0010
0000
0001
0000
0000
0000
0000
0000
,
1001
0000
0000
0000
,
0000
0000
0000
0000
0000
0000
0000
0010
,
0100
0000
0000
0000
,
0000
0000
0000
0000
,
0100
0001
1000
0010
0100
0001
0010
0100
,
1000
0001
1000
0001
1000
0100
0001
0100
,
0000
1010
0000
0000
1000
0000
0010
0000
,
1000
0101
1010
1001
,
0010
0001
1000
0000
0101
0000
1000
0000
,
0010
1000
0001
0000
1100
0000
0001
0000
,
0010
0001
0100
0000
0010
1000
0100
0000
,
1000
0010
0100
0000
1000
0001
0100
0000
,
0010
1100
0100
0101
,
1000
0101
0010
1100
,
0101
1100
0101
1100
,
1010
1100
0101
0011
,
0100
0000
0000
0000
;

//---------------dance-single - ----------------
#NOTES:
     dance-single:
     :
     Hard:
     13:
     0.621488,0.670441,0.397298,0.000000,0.203615,438.000000,398.000000,40.000000,0.000000,0.000000,0.000000,0.621488,0.670441,0.397298,0.000000,0.203615,438.000000,398.000000,40.000000,0.000000,0.000000,0.000000:
0000
0000
0000
0000
,
0000
0000
0000
0000
,
0000
0000
0000
0000
,
0000
0000
0000
0000
,
0000
0000
0000
0000
,
0000
0000
0000
0000
,
0000
0000
0000
0000
,
0000
0000
0000
0000
,
0000
0000
0000
0000
,
0001
1100
0000
0010
0010
0000
1001
0000
,
0100
0010
0000
0001
0001
0000
1100
0000
,
0001
1000
0001
1000
0100
0000
0011
0000
,
1000
0010
0000
1000
1000
0000
1001
0000
,
0010
0100
0000
1000
1000
0000
1001
0000
,
0001
1000
0001
1000
0100
0000
1100
0000
,
0000
1100
0000
0001
0001
0000
1000
0000
,
0010
0001
0000
1000
0000
0001
1000
0100
,
0000
1001
0000
0011
0000
0110
0000
1010
,
0000
0110
0000
0101
0000
1001
0000
0100
,
0001
0000
0001
1000
0001
1000
0001
1000
,
0100
0000
0100
1000
0010
0000
0010
0100
,
0010
0100
0010
0100
0001
0000
0001
1000
,
0100
0000
0100
0010
0100
0010
0100
0010
,
0001
0000
0001
1000
0010
0000
0010
1000
,
0010
1000
0010
1000
0001
0000
0001
0100
,
0010
0000
0010
1000
0010
1000
0010
1000
,
0001
0000
0001
1000
0100
0000
0100
0010
,
0000
1001
0000
0000
1000
0100
0010
0001
,
0100
0000
1100
0100
0010
0000
0101
0000
,
0001
1000
0100
1000
0001
0100
0010
0100
,
0010
0000
1100
1000
0001
0000
1001
0000
,
1000
0001
0010
0100
1000
0001
0100
0001
,
1000
0000
1001
0001
0001
0000
0011
0000
,
0000
1001
0000
0000
1000
0100
0010
0001
,
1000
0101
0010
1001
,
1000
0100
0010
0100
1000
0010
1000
0001
,
0100
0000
1100
1000
1001
0000
0101
0000
,
0001
0100
0010
1000
0100
0010
0001
0100
,
0001
0000
0101
0001
1001
0000
1001
0000
,
1000
0100
1000
0000
0001
0100
0001
0000
,
1000
0001
1000
0100
0001
1000
0001
0100
,
1000
0001
0010
0100
1000
0001
0100
0001
,
0100
0010
1000
0001
0100
0010
0100
0000
,
0001
0000
0000
0000
0000
0000
0010
0000
0000
0000
0001
0000
,
0100
0000
0000
0000
1000
0000
0010
0000
0000
0000
0000
0000
,
1001
0000
0000
0000
0010
0000
1000
0000
0000
0000
0000
0000
,
0001
0000
0000
0000
0000
0000
0010
0000
0000
0000
1000
0000
,
0100
0000
0000
0000
0010
0000
0100
0000
0000
0000
1000
0000
,
0101
0000
0000
0000
0100
0000
0001
0000
0000
0001
0000
0100
,
0001
0000
0100
0001
0000
1000
0001
0000
0100
0001
0000
0100
,
0001
0000
0100
0001
0000
1000
0001
0000
0000
0000
0000
0000
,
0010
0000
0001
0000
1000
0000
0101
0000
0000
0000
0001
0000
,
1000
0000
0010
0000
0001
0000
1100
0000
0000
0000
0000
0000
,
0100
0000
0001
0000
0010
0000
1000
0000
0100
0000
1000
0000
,
0100
0000
0001
0000
0010
0000
0001
0000
0000
0000
0001
0000
,
1000
0000
0100
1000
0000
0100
1000
0000
0100
1000
0000
0001
,
1000
0000
0100
1000
0000
0100
1000
0000
0100
1000
0000
0001
,
1000
0000
0100
1000
0000
0100
1000
0000
0100
1000
0000
0001
,
1000
0000
0100
1000
0000
0100
1000
0000
0100
0000
0000
0000
,
1001
0010
1000
0010
,
1000
0001
1000
0001
0100
0000
1000
0000
,
0100
0000
0001
0000
1000
0001
1000
0001
,
0000
0000
0000
0000
0100
1000
0100
1000
,
0100
0010
0100
0010
0001
0100
0010
0100
,
0001
1000
0001
0010
0001
0100
0001
1000
,
0000
1010
0000
0000
1000
0100
0010
0001
,
1000
0000
1010
1000
1001
0000
0101
0000
,
0010
0001
1000
0001
0100
0001
1000
0001
,
0010
1000
0001
0010
0100
1000
0001
1000
,
0010
0001
0100
0001
0010
0001
0100
1000
,
0010
1000
0100
1000
0001
0100
0001
1000
,
0010
1000
0100
1000
0010
0001
0100
0001
,
1000
0001
0100
0001
0010
1000
0100
0001
,
1000
0001
0100
0010
1000
0001
0100
0001
,
0010
0100
0001
1000
0010
0100
0001
1000
,
0100
0000
0000
0000
;

//---------------dance-double - ----------------
#NOTES:
     dance-double:
     :
     Easy:
     9:
     0.374596,0.521454,0.317839,0.000000,0.049662,264.000000,232.000000,32.000000,0.000000,0.000000,0.000000,0.374596,0.521454,0.317839,0.000000,0.049662,264.000000,232.000000,32.000000,0.000000,0.000000,0.000000:
00000000
00000000
00000000
00000000
,
00000000
00000000
00000000
00000000
,
00000000
00000000
00000000
00000000
,
00000000
00000000
00000000
00000000
,
00000000
00000000
00000000
00000000
,
00000000
00000000
00000000
00000000
,
00000000
00000000
00000000
00000000
,
00000000
00000000
00000000
00000000
,
00000000
00000000
00000000
00000000
,
10000000
00010000
01000000
00000000
,
00001000
00000100
00000001
00000000
,
00001000
00000010
00000100
00000000
,
00001000
00010000
01000000
00000000
,
10000000
00100000
01000000
00000000
,
10000000
01000000
10000000
00000000
,
00010000
00000010
00000100
00000000
,
00001000
00000001
00000100
00000000
,
00001000
00001001
00000010
00000110
,
00010000
00011000
01000000
01100000
,
00010000
01000000
00001000
00100000
,
00001000
00000000
00010000
00001000
00000100
00000000
00001000
00000000
,
00010000
00000000
01000000
00000000
10000000
00000000
00010000
10000000
,
01000000
10000000
00100000
01000000
,
00001000
00100000
00001000
00010000
,
00000100
00001000
00000010
00000000
00000100
00000000
00000001
00000000
,
00001000
00001000
00010000
00010000
,
10000000
01000000
10010000
00000000
,
10010000
00010000
00000100
00000001
,
00001001
00000000
00000110
00000000
,
00001001
00001000
01000000
10000000
,
10010000
00000000
01100000
00000000
,
01001000
00010000
00000000
00000000
,
00010100
00000000
00001000
00000000
,
00000010
00001000
00000100
00010000
,
01000000
10000000
01000000
00000000
,
00001000
00010000
00001000
00000000
01000000
00000000
00000000
00000000
,
00010000
00001000
00010000
00000000
00000100
00000000
00000000
00000000
,
00000001
00001000
00000001
00000000
00010000
00000100
00010000
00000000
,
00001000
01000000
00001000
00000000
10000000
01000000
10000000
00000000
,
00100000
01100000
00001000
00011000
,
00000010
00000110
00001000
00001001
,
00000100
00010000
01000000
10000000
,
00100000
01100000
00010000
10010000
,
00100000
00000000
00000000
00000000
00000000
00000000
00010000
00000000
00000000
00000000
01000000
00000000
,
00001000
00000000
00010000
00000000
,
00000001
00000000
00000000
00000000
00001000
00000000
00000100
00000000
00000000
00000000
00000000
00000000
,
00000010
00000000
00000000
00000000
00000000
00000000
00001000
00000000
00000000
00000000
00000100
00000000
,
00010000
00000000
00000000
00000000
00001000
00000000
00010000
00000000
00000000
00000000
00001000
00000000
,
01000000
00000000
00000000
00000000
00010000
00000000
10000000
00000000
00000000
00000000
00100000
00000000
,
01000000
00000000
00000000
00000000
00010000
00000000
10000000
00000000
00000000
00000000
10000000
00000000
,
01000000
00000000
00000000
00000000
00100000
00000000
00100000
00000000
00000000
00000000
00000000
00000000
,
10010000
10000000
01000000
00010000
,
00001000
00000100
00000001
00000010
,
00001000
00000100
00010000
00000100
,
00001000
00000001
00000100
00000000
,
00001001
00000001
00000100
00001000
,
00010000
01000000
10000000
01000000
,
00010000
01000000
00001000
01000000
,
00010000
10000000
10000000
00000000
,
00000000
00000000
00000000
00000000
,
00000000
00000000
00000000
00000000
,
01000000
00000000
00000000
00000000
,
00000000
00000000
00000000
00000000
,
00000010
00000010
00000010
00000010
,
00000001
00000010
00001000
00000100
,
00000000
00011000
00000000
00000000
00000000
00000000
00000000
00000000
,
10000000
00010000
00100000
00100000
,
00001000
00010000
00001000
00000000
00001100
00000000
00000000
00000000
,
00010000
00001000
00010000
00000000
01010000
00000000
00000000
00000000
,
10000000
00010000
01000000
00000000
00001000
00010000
00000100
00000000
,
00001000
00000010
00000100
00000000
00000001
00000100
00000001
00000000
,
00001000
00001001
00000010
00000110
,
00010000
00011000
01000000
01100000
,
00010000
11000000
00010000
11000000
,
00010000
00011000
00010000
00011000
,
00000100
00000000
00000000
00000000
;

//---------------dance-double - ----------------
#NOTES:
     dance-double:
     :
     Medium:
     11:
     0.461150,0.633194,0.476758,0.000000,0.173818,325.000000,277.000000,48.000000,0.000000,0.000000,0.000000,0.461150,0.633194,0.476758,0.000000,0.173818,325.000000,277.000000,48.000000,0.000000,0.000000,0.000000:
00000000
00000000
00000000
00000000
,
00000000
00000000
00000000
00000000
,
00000000
00000000
00000000
00000000
,
00000000
00000000
00000000
00000000
,
00000000
00000000
00000000
00000000
,
00000000
00000000
00000000
00000000
,
00000000
00000000
00000000
00000000
,
00000000
00000000
00000000
00000000
,
00000000
00000000
00000000
00000000
,
00010000
10000000
00000000
01000000
00000000
00000000
10010000
00000000
,
10000000
00100000
00000000
01000000
00000000
00000000
00011000
00000000
,
00010000
00000001
00000000
00000100
00000000
00000000
00001001
00000000
,
00000001
00001000
00000000
00000100
00000000
00000000
00011000
00000000
,
00001000
00100000
00000000
01000000
00000000
00000000
10010000
00000000
,
10000000
00010000
00000000
01000000
00000000
00000000
00011000
00000000
,
00001000
00010000
00000000
00000100
00000000
00000000
00001001
00000000
,
00000001
00000100
00000000
00000010
00000000
00000000
00001001
00000000
,
00000000
00010010
00000000
00101000
,
00000000
01100000
00000000
10010000
,
00010000
00100000
01000000
10000000
,
00010000
00000000
00001000
00000100
00001000
00000000
00000001
00000000
,
00000010
00000000
00000001
00000000
00000100
00000000
00001000
00010000
,
00001000
01000000
00010000
00100000
,
01000000
00000000
10000000
00010000
10000000
00000000
00100000
00000000
,
01000000
00000000
00010000
00000000
00000010
00000000
00000001
00000100
,
00000001
00001000
00000010
00000100
,
00001000
00000000
00010000
00001000
00010000
00000000
00000010
00000000
,
00001000
00010000
00100000
01000000
,
10010000
00000000
01100000
00000000
,
00010000
00001000
00000100
00000001
,
00001001
00000000
00000110
00000000
,
00010000
00001100
00010000
00001100
,
00000010
00011000
00000010
00011000
,
01000000
00011000
01000000
00011000
,
10000000
01010000
10000000
01010000
,
00001000
00010000
00001000
00000000
01010000
00000000
00000000
00000000
,
00010000
00001000
00010000
00000000
00001100
00000000
00000000
00000000
,
00000001
00001000
00000100
00000000
00010000
00000010
00010000
00000000
,
00001000
01000000
00001000
00000000
10000000
01000000
10000000
00000000
,
11000000
00110000
01010000
00011000
,
00001010
00001100
00000101
00001001
,
00000001
00001000
00000001
00001000
00000001
00001000
00000001
00001000
,
00000010
00000100
00000010
00000100
00000010
00000100
00000010
00000000
,
00000010
00000000
00000000
00000000
00000000
00000000
00000001
00000000
00000000
00000000
00000100
00000000
,
00000010
00000000
00000000
00000000
00010000
00000000
00001000
00000000
00000000
00000000
00000000
00000000
,
00100000
00000000
00000000
00000000
01000000
00000000
10000000
00000000
00000000
00000000
00000000
00000000
,
00100000
00000000
00000000
00000000
00000000
00000000
00100000
00000000
00000000
00000000
00001000
00000000
,
00010000
00000000
00000000
00000000
00000100
00000000
00010000
00000000
00000000
00000000
01000000
00000000
,
10000000
00000000
00000000
00000000
00010000
00000000
01000000
00000000
00000000
00000000
00001000
00000000
,
00010000
00000000
00000000
00000000
00000001
00000000
00000010
00000000
00000000
00000000
00000100
00000000
,
00010000
00000000
00000000
00000000
01000000
00000000
01000000
00000000
00000000
00000000
00000000
00000000
,
10000000
00000000
00010000
00000000
10000000
00000000
01000000
00000000
00000000
00000000
00010000
00000000
,
10000000
00000000
00100000
00000000
00010000
00000000
01000000
00000000
00000000
00000000
00000000
00000000
,
00001000
00000000
00010000
00000000
00000100
00000000
00001000
00000000
00000001
00000000
00001000
00000000
,
00000100
00000000
00001000
00000000
00000010
00000000
00000001
00000000
00000000
00000000
00000001
00000000
,
00001000
00000000
00000010
00000000
00001000
00000000
00000100
00000000
00000000
00000000
00000010
00000000
,
00000001
00000000
00000100
00000000
00001000
00000000
00010000
00000000
00000000
00000000
00001000
00000000
,
01000000
00000000
00010000
00000000
00100000
00000000
00010000
00000000
10000000
00000000
01000000
00000000
,
00010000
00000000
10000000
00000000
00100000
00000000
00010000
00000000
00000000
00000000
00000000
00000000
,
10010000
00000000
00000000
00000000
,
00000000
00000000
00000000
00000000
00000000
00000000
00000000
00100000
,
01000000
00000000
00000000
00000000
,
00000000
00000000
00000000
00000000
,
01000000
00010000
00000100
00000010
,
00000001
00001000
00000001
00001000
00000001
00000100
00001000
00000100
,
00000000
00011000
00000000
00000000
00100000
00000000
01000000
00000000
,
00100000
00011000
00000010
00000101
,
00000010
00000001
00000100
00000000
00001001
00000000
00000000
00000000
,
00010000
10000000
01000000
00000000
10010000
00000000
00000000
00000000
,
00001000
00000001
00000100
00000000
00001000
00010000
01000000
00000000
,
10000000
00010000
01000000
00000000
00010000
00000100
00000001
00000000
,
00000010
00000001
00000100
00001000
00010000
01000000
10000000
00010000
,
00100000
00010000
10000000
01000000
00100000
01000000
00010000
00000000
,
11000000
01010000
00011000
00000110
,
00001001
00000101
00001100
00011000
,
01000000
00000000
00000000
00000000
;

//---------------dance-double - ----------------
#NOTES:
     dance-double:
     :
     Hard:
     13:
     0.601623,0.633194,0.407231,0.000000,0.203615,424.000000,383.000000,41.000000,0.000000,0.000000,0.000000,0.601623,0.633194,0.407231,0.000000,0.203615,424.000000,383.000000,41.000000,0.000000,0.000000,0.000000:
00000000
00000000
00000000
00000000
,
00000000
00000000
00000000
00000000
,
00000000
00000000
00000000
00000000
,
00000000
00000000
00000000
00000000
,
00000000
00000000
00000000
00000000
,
00000000
00000000
00000000
00000000
,
00000000
00000000
00000000
00000000
,
00000000
00000000
00000000
00000000
,
00000000
00000000
00000000
00000000
,
00001000
01010000
00000000
00100000
00100000
00000000
00011000
00000000
,
01000000
00100000
00000000
00010000
00010000
00000000
00001100
00000000
,
00001000
00000001
00001000
00000001
00000100
00000000
00001100
00000000
,
00010000
00001000
00000000
00010000
00010000
00000000
00011000
00000000
,
00100000
01000000
00000000
10000000
10000000
00000000
10010000
00000000
,
00001000
00010000
00001000
00010000
00000100
00000000
00001100
00000000
,
00000000
00000101
00000000
00010000
00001000
00000000
00010000
00000000
,
00100000
00010000
00000000
10000000
00000000
00010000
10000000
01000000
,
00000000
10010000
00000000
00011000
00000000
00001100
00000000
00000011
,
00000000
00000110
00000000
00001100
00000000
00011000
00000000
01000000
,
00010000
00000000
00010000
10000000
00010000
10000000
00010000
10000000
,
00010000
00000000
00010000
01000000
00000100
00000000
00000100
00001000
,
00000100
00001000
00000100
00001000
00000001
00000000
00000001
00001000
,
00000100
00000000
00000100
00000010
00000100
00000010
00000100
00000010
,
00000001
00000000
00000001
00001000
00000100
00000000
01000000
00010000
,
01000000
00010000
01000000
00010000
00100000
00000000
00100000
01000000
,
10000000
00000000
10000000
01000000
10000000
01000000
10000000
01000000
,
00100000
00000000
00100000
00001000
01000000
00000000
00010000
00100000
,
00000000
10010000
00000000
00000000
10000000
01000000
00010000
00001000
,
00000100
00000101
00000010
00001100
,
00000001
00001000
00000100
00001000
00000001
00001000
00000100
00001000
,
00000100
00000101
00001000
00011000
,
01000000
00001000
00010000
00000100
00001000
00000001
00000100
00000001
,
00000100
00001001
00001000
00011000
,
00000000
01010000
00000000
00000000
10000000
01000000
00100000
00010000
,
10000000
01010000
00010000
00011000
,
00001000
00000100
00000010
00000100
00001000
00000000
00010000
00000000
,
01000000
11000000
10010000
01010000
,
00001000
00000100
00000001
00000010
00000100
00000000
00001000
00000000
,
00000001
00001100
00011000
01010000
,
00010000
01000000
00010000
00000000
10000000
01000000
10000000
00000000
,
00010000
10000000
00010000
01000000
00001000
00010000
00000100
00000010
,
00000001
00001000
00000100
00001000
00000001
00000100
00001000
00010000
,
01000000
00100000
00010000
10000000
01000000
00100000
01000000
00000000
,
00010000
00000000
00000000
00000000
00000000
00000000
00001000
00000000
00000000
00000000
00000100
00000000
,
00000001
00000000
00000000
00000000
00001000
00000000
00000010
00000000
00000000
00000000
00000000
00000000
,
00011000
00000000
00000000
00000000
00100000
00000000
10000000
00000000
00000000
00000000
00000000
00000000
,
00010000
00000000
00000000
00000000
00000000
00000000
10000000
00000000
00000000
00000000
10000000
00000000
,
01000000
00000000
00000000
00000000
00100000
00000000
00010000
00000000
00000000
00000000
00001000
00000000
,
00000100
00000000
00000000
00000000
00000001
00000000
00001000
00000000
00000000
00000100
00000000
00001000
,
00000100
00000000
00001000
00000100
00000000
00010000
00000100
00000000
00001000
00000100
00000000
00001000
,
00000100
00000000
00001000
00000100
00000000
00010000
00000100
00000000
00000000
00000000
00000000
00000000
,
00000010
00000000
00001000
00000000
00000001
00000000
00001100
00000000
00000000
00000000
00010000
00000000
,
00001000
00000000
01000000
00000000
00010000
00000000
11000000
00000000
00000000
00000000
00000000
00000000
,
00100000
00000000
10000000
00000000
00100000
00000000
10000000
00000000
01000000
00000000
01000000
00000000
,
00010000
00000000
00010000
00000000
00001000
00000000
00010000
00000000
00000000
00000000
00000100
00000000
,
00010000
00000000
00000100
00010000
00000000
00000100
00010000
00000000
00000100
00010000
00000000
00001000
,
01000000
00000000
00001000
01000000
00000000
00001000
01000000
00000000
00001000
01000000
00000000
00001000
,
00010000
00000000
00000010
00010000
00000000
00000010
00010000
00000000
00000010
00010000
00000000
00001000
,
01000000
00000000
00010000
01000000
00000000
00010000
01000000
00000000
00010000
01000000
00000000
00000000
,
10010000
00010000
00001000
00000001
,
00001000
00000001
00001000
00000001
00000100
00000000
00001000
00000000
,
00010000
00000000
01000000
00000000
10000000
00010000
10000000
00010000
,
00000000
00000000
00000000
00000000
01000000
10000000
01000000
10000000
,
01000000
00100000
01000000
00100000
00010000
00001000
00000001
00000100
,
00000001
00001000
00000100
00001000
00000001
00000100
00000001
00000100
,
00000000
00011000
00000000
00000000
00001000
00010000
01000000
10000000
,
00010000
00000000
10100000
10000000
10010000
00000000
01010000
00000000
,
00100000
00010000
00001000
00000010
00000100
00000000
00000001
00000000
,
00000001
00000010
00000100
00001000
00000100
00000000
00010000
00000000
,
00001000
00010000
01000000
10000000
01000000
00010000
01000000
10000000
,
01000000
10000000
00010000
00010000
01010000
00000000
11000000
00000000
,
00100000
00010000
01000000
00001000
00010000
00001000
00000100
00000001
,
00000100
00001000
00010000
01000000
10000000
00010000
01000000
00010000
,
10000000
00010000
10000000
01000000
00010000
00001000
00000100
00000000
,
00000001
00000100
00000001
00001000
00000010
00000100
00001000
00010000
,
01000000
00000000
00000000
00000000
;

//---------------dance-solo - ----------------
#NOTES:
     dance-solo:
     :
     Easy:
     8:
     0.376015,0.521454,0.337704,0.000000,0.049662,265.000000,231.000000,34.000000,0.000000,0.000000,0.000000,0.376015,0.521454,0.337704,0.000000,0.049662,265.000000,231.000000,34.000000,0.000000,0.000000,0.000000:
000000
000000
000000
000000
,
000000
000000
000000
000000
,
000000
000000
000000
000000
,
000000
000000
000000
000000
,
000000
000000
000000
000000
,
000000
000000
000000
000000
,
000000
000000
000000
000000
,
000000
000000
000000
000000
,
000000
000000
000000
000000
,
100000
000010
001000
000000
,
000010
010000
001000
000000
,
100000
000001
001000
000000
,
010000
000100
001000
000000
,
000001
010000
100000
000000
,
000001
001000
100000
000000
,
001000
000010
010000
000000
,
100000
000100
001000
000000
,
000001
100001
000100
001100
,
000010
100010
010000
010001
,
000010
001000
000010
001000
,
000100
000000
010000
001000
010000
000000
000010
000000
,
100000
000000
001000
000000
100000
000000
000001
100000
,
000001
001000
000010
100000
,
010000
010000
100000
000001
,
000100
000001
100000
000000
001000
000000
001000
000000
,
010000
010000
000010
000010
,
001000
000001
100000
000100
,
100001
000000
000000
000000
,
000000
010010
100001
001000
,
000100
000000
000001
000000
,
000000
000110
100001
010000
,
100000
000001
000010
000001
,
100000
010000
100000
000001
,
010000
010000
001000
001000
,
000000
010000
000001
001000
,
000010
001000
000010
001000
000001
000000
000000
000000
,
001000
000001
010000
001000
,
010000
001000
010000
001000
100000
000000
000000
000000
,
001000
000001
100000
001000
,
000001
100001
000100
001100
,
000010
000110
010000
010100
,
000001
001001
100000
101000
,
000100
001100
100000
100001
,
000100
000000
000000
000000
000000
000000
000000
000000
000000
000000
000000
000000
000000
000000
000000
000000
000000
000000
000000
000000
000000
000000
000000
000000
000000
000000
000000
000000
000000
000000
000000
000000
100000
000000
000000
000000
000000
000000
000000
000000
000000
000000
000000
000000
000000
000000
000000
000000
000000
000000
000000
000000
000000
000010
000000
000000
000000
000000
000000
000000
000000
000000
000000
000000
,
010000
000000
000001
000000
,
000100
000000
000000
000000
000000
000000
000000
000000
000000
000000
000000
000000
000000
000000
000000
000000
000000
000000
000000
000000
000000
000010
000000
000000
000000
000000
000000
000000
000000
000000
000000
000000
001000
000000
000000
000000
000000
000000
000000
000000
000000
000000
000000
000000
000000
000000
000000
000000
000000
000000
000000
000000
000000
000000
000000
000000
000000
000000
000000
000000
000000
000000
000000
000000
,
000100
000000
000000
000000
000000
000000
000000
000000
000000
000000
000000
000000
000000
000000
000000
000000
000000
000000
000000
000000
000000
000000
000000
000000
000000
000000
000000
000000
000000
000000
000000
000000
000100
000000
000000
000000
000000
000000
000000
000000
000000
000000
000000
000000
000000
000000
000000
000000
000000
000000
000000
000000
000000
001000
000000
000000
000000
000000
000000
000000
000000
000000
000000
000000
,
000010
000000
000000
000000
000000
000000
000000
000000
000000
000000
000000
000000
000000
000000
000000
000000
000000
000000
000000
000000
000000
010000
000000
000000
000000
000000
000000
000000
000000
000000
000000
000000
000001
000000
000000
000000
000000
000000
000000
000000
000000
000000
000000
000000
000000
000000
000000
000000
000000
000000
000000
000000
000000
000100
000000
000000
000000
000000
000000
000000
000000
000000
000000
000000
,
000001
000000
000000
000000
000000
000000
000000
000000
000000
000000
000000
000000
000000
000000
000000
000000
000000
000000
000000
000000
000000
100000
000000
000000
000000
000000
000000
000000
000000
000000
000000
000000
001000
000000
000000
000000
000000
000000
000000
000000
000000
000000
000000
000000
000000
000000
000000
000000
000000
000000
000000
000000
000000
000010
000000
000000
000000
000000
000000
000000
000000
000000
000000
000000
,
010000
000000
000000
000000
000000
000000
000000
000000
000000
000000
000000
000000
000000
000000
000000
000000
000000
000000
000000
000000
000000
010000
000000
000000
000000
000000
000000
000000
000000
000000
000000
000000
000001
000000
000000
000000
000000
000000
000000
000000
000000
000000
000000
000000
000000
000000
000000
000000
000000
000000
000000
000000
000000
000001
000000
000000
000000
000000
000000
000000
000000
000000
000000
000000
,
001000
000000
000000
000000
000000
000000
000000
000000
000000
000000
000000
000000
000000
000000
000000
000000
000000
000000
000000
000000
000000
000100
000000
000000
000000
000000
000000
000000
000000
000000
000000
000000
000100
000000
000000
000000
000000
000000
000000
000000
000000
000000
000000
000000
000000
000000
000000
000000
000000
000000
000000
000000
000000
000000
000000
000000
000000
000000
000000
000000
000000
000000
000000
000000
,
010010
000001
100000
001000
,
100000
010000
100000
001000
,
000001
000100
100000
001000
,
000001
000010
000001
001000
,
000001
000011
100000
110000
,
000100
001100
000001
100001
,
000100
100000
001000
000001
,
000100
001100
000001
100001
,
000100
000000
000000
000000
,
000000
000000
000000
000000
,
000010
000000
000000
000000
,
000000
000000
000000
000000
,
010000
010000
010000
010000
,
000100
000001
100000
001000
,
000000
010010
000000
000000
000000
000000
000000
000000
,
010000
001000
000010
001000
,
100000
000010
100000
000010
100000
000000
001000
000000
,
100000
000000
000001
000000
,
000001
010000
000001
010000
000001
000000
001000
000000
,
000001
000000
100000
000000
,
001000
001100
100000
100001
,
000010
100010
000001
010001
,
100000
101000
000001
001001
,
000010
001010
010000
011000
,
100001
000000
000000
000000
;

//---------------dance-solo - ----------------
#NOTES:
     dance-solo:
     :
     Medium:
     11:
     0.510812,0.670441,0.486690,0.000000,0.173818,360.000000,311.000000,49.000000,0.000000,0.000000,0.000000,0.510812,0.670441,0.486690,0.000000,0.173818,360.000000,311.000000,49.000000,0.000000,0.000000,0.000000:
000000
000000
000000
000000
,
000000
000000
000000
000000
,
000000
000000
000000
000000
,
000000
000000
000000
000000
,
000000
000000
000000
000000
,
000000
000000
000000
000000
,
000000
000000
000000
000000
,
000000
000000
000000
000000
,
000000
000000
000000
000000
,
000001
010000
000000
001000
000000
000000
100001
000000
,
100000
000100
000000
001000
000000
000000
001001
000000
,
000010
100000
000000
001000
000000
000000
001001
000000
,
100000
000100
000000
000001
000000
000000
101000
000000
,
010000
000001
000000
100000
000000
000000
001001
000000
,
001000
000010
000000
010000
000000
000000
100001
000000
,
000001
001000
000000
100000
000000
000000
001001
000000
,
100000
001000
000000
010000
000000
000000
100001
000000
,
000010
001010
010000
011000
,
000001
100001
001000
001100
,
000010
000000
000010
100000
000010
100000
000010
100000
,
000010
000000
000010
100000
000010
000000
000010
100000
,
000010
100000
000010
100000
000010
000000
000010
100000
,
000010
000000
000010
100000
000010
100000
000010
100000
,
001000
000000
001000
000100
001000
000000
001000
000100
,
001000
000100
001000
000100
001000
000000
001000
000100
,
001000
000000
001000
000100
001000
000100
001000
000100
,
001000
000000
001000
000100
001000
000000
001000
000100
,
000001
100000
000001
001000
000001
100000
001000
100000
,
001000
001001
000100
101000
,
000100
100000
010000
100000
001000
100000
010000
100000
,
001000
100001
000100
100001
,
000100
000001
000010
000001
001000
000001
000010
000001
,
001000
100001
000100
100001
,
100000
000001
100000
001000
100000
000001
001000
000001
,
001000
101000
000100
001001
,
010000
001000
100000
000001
001000
000010
100000
000001
,
001000
000001
100000
001000
,
000010
001000
000001
100000
001000
010000
000001
100000
,
001000
100001
001001
101000
,
000010
100001
010000
100001
,
001000
011000
000010
001010
,
000100
001100
100000
100001
,
001000
100001
000100
100001
,
000100
000000
000000
000000
000000
000000
000000
000000
000000
000000
000000
000000
000000
000000
000000
000000
000000
000000
000000
000000
000000
000000
000000
000000
000000
000000
000000
000000
000000
000000
000000
000000
000010
000000
000000
000000
000000
000000
000000
000000
000000
000000
000000
000000
000000
000000
000000
000000
000000
000000
000000
000000
000000
100000
000000
000000
000000
000000
000000
000000
000000
000000
000000
000000
,
001000
000000
000000
000000
000000
000000
000000
000000
000000
000000
000000
000000
000000
000000
000000
000000
000000
000000
000000
000000
000000
001000
000000
000000
000000
000000
000000
000000
000000
000000
000000
000000
100000
000000
000000
000000
000000
000000
000000
000000
000000
000000
000000
000000
000000
000000
000000
000000
000000
000000
000000
000000
000000
000000
000000
000000
000000
000000
000000
000000
000000
000000
000000
000000
,
010000
000000
000000
000000
000000
000000
000000
000000
000000
000000
000000
000000
000000
000000
000000
000000
000000
000000
000000
000000
000000
100000
000000
000000
000000
000000
000000
000000
000000
000000
000000
000000
001000
000000
000000
000000
000000
000000
000000
000000
000000
000000
000000
000000
000000
000000
000000
000000
000000
000000
000000
000000
000000
000000
000000
000000
000000
000000
000000
000000
000000
000000
000000
000000
,
000100
000000
000000
000000
000000
000000
000000
000000
000000
000000
000000
000000
000000
000000
000000
000000
000000
000000
000000
000000
000000
000000
000000
000000
000000
000000
000000
000000
000000
000000
000000
000000
000100
000000
000000
000000
000000
000000
000000
000000
000000
000000
000000
000000
000000
000000
000000
000000
000000
000000
000000
000000
000000
001000
000000
000000
000000
000000
000000
000000
000000
000000
000000
000000
,
000100
000000
000000
000000
000000
000000
000000
000000
000000
000000
000000
000000
000000
000000
000000
000000
000000
000000
000000
000000
000000
100000
000000
000000
000000
000000
000000
000000
000000
000000
000000
000000
000010
000000
000000
000000
000000
000000
000000
000000
000000
000000
000000
000000
000000
000000
000000
000000
000000
000000
000000
000000
000000
010000
000000
000000
000000
000000
000000
000000
000000
000000
000000
000000
,
001000
000000
000000
000000
000000
000000
000000
000000
000000
000000
000000
000000
000000
000000
000000
000000
000000
000000
000000
000000
000000
100000
000000
000000
000000
000000
000000
000000
000000
000000
000000
000000
000001
000000
000000
000000
000000
000000
000000
000000
000000
000000
000000
000000
000000
000000
000000
000000
000000
000000
000000
000000
000000
000001
000000
000000
000000
000000
000000
000000
000000
000000
000000
000000
,
100000
000000
000000
000000
000000
000000
000000
000000
000000
000000
000000
000000
000000
000000
000000
000000
000000
000000
000000
000000
000000
001000
000000
000000
000000
000000
000000
000000
000000
000000
000000
000000
000001
000000
000000
000000
000000
000000
000000
000000
000000
000000
000000
000000
000000
000000
000000
000000
000000
000000
000000
000000
000000
000001
000000
000000
000000
000000
000000
000000
000000
000000
000000
000000
,
100000
000000
000000
000000
000000
000000
000000
000000
000000
000000
000000
000000
000000
000000
000000
000000
000000
000000
000000
000000
000000
000010
000000
000000
000000
000000
000000
000000
000000
000000
000000
000000
000010
000000
000000
000000
000000
000000
000000
000000
000000
000000
000000
000000
000000
000000
000000
000000
000000
000000
000000
000000
000000
000000
000000
000000
000000
000000
000000
000000
000000
000000
000000
000000
,
000100
000000
000000
000000
000000
000000
000000
000000
000000
000000
010000
000000
000000
000000
000000
000000
000000
000000
000000
000000
000000
000001
000000
000000
000000
000000
000000
000000
000000
000000
000000
000000
001000
000000
000000
000000
000000
000000
000000
000000
000000
000000
000000
000000
000000
000000
000000
000000
000000
000000
000000
000000
000000
000001
000000
000000
000000
000000
000000
000000
000000
000000
000000
000000
,
100000
000000
000000
000000
000000
000000
000000
000000
000000
000000
000010
000000
000000
000000
000000
000000
000000
000000
000000
000000
000000
010000
000000
000000
000000
000000
000000
000000
000000
000000
000000
000000
001000
000000
000000
000000
000000
000000
000000
000000
000000
000000
000000
000000
000000
000000
000000
000000
000000
000000
000000
000000
000000
000000
000000
000000
000000
000000
000000
000000
000000
000000
000000
000000
,
001000
000000
000000
000000
000000
000000
000000
000000
000000
000000
000001
000000
000000
000000
000000
000000
000000
000000
000000
000000
000000
000100
000000
000000
000000
000000
000000
000000
000000
000000
000000
000000
100000
000000
000000
000000
000000
000000
000000
000000
000000
000000
001000
000000
000000
000000
000000
000000
000000
000000
000000
000000
000000
100000
000000
000000
000000
000000
000000
000000
000000
000000
000000
000000
,
001000
000000
000000
000000
000000
000000
000000
000000
000000
000000
000001
000000
000000
000000
000000
000000
000000
000000
000000
000000
000000
000100
000000
000000
000000
000000
000000
000000
000000
000000
000000
000000
000001
000000
000000
000000
000000
000000
000000
000000
000000
000000
000000
000000
000000
000000
000000
000000
000000
000000
000000
000000
000000
000010
000000
000000
000000
000000
000000
000000
000000
000000
000000
000000
,
100000
000000
000000
000000
000000
000000
000000
000000
000000
000000
000100
000000
000000
000000
000000
000000
000000
000000
000000
000000
000000
010000
000000
000000
000000
000000
000000
000000
000000
000000
000000
000000
001000
000000
000000
000000
000000
000000
000000
000000
000000
000000
000000
000000
000000
000000
000000
000000
000000
000000
000000
000000
000000
010000
000000
000000
000000
000000
000000
000000
000000
000000
000000
000000
,
000001
000000
000000
000000
000000
000000
000000
000000
000000
000000
000100
000000
000000
000000
000000
000000
000000
000000
000000
000000
000000
000001
000000
000000
000000
000000
000000
000000
000000
000000
000000
000000
001000
000000
000000
000000
000000
000000
000000
000000
000000
000000
000000
000000
000000
000000
000000
000000
000000
000000
000000
000000
000000
000001
000000
000000
000000
000000
000000
000000
000000
000000
000000
000000
,
100000
000000
000000
000000
000000
000000
000000
000000
000000
000000
001000
000000
000000
000000
000000
000000
000000
000000
000000
000000
000000
000100
000000
000000
000000
000000
000000
000000
000000
000000
000000
000000
000010
000000
000000
000000
000000
000000
000000
000000
000000
000000
100000
000000
000000
000000
000000
000000
000000
000000
000000
000000
000000
001000
000000
000000
000000
000000
000000
000000
000000
000000
000000
000000
,
000001
000000
000000
000000
000000
000000
000000
000000
000000
000000
010000
000000
000000
000000
000000
000000
000000
000000
000000
000000
000000
000100
000000
000000
000000
000000
000000
000000
000000
000000
000000
000000
100000
000000
000000
000000
000000
000000
000000
000000
000000
000000
000000
000000
000000
000000
000000
000000
000000
000000
000000
000000
000000
000000
000000
000000
000000
000000
000000
000000
000000
000000
000000
000000
,
100001
000000
000000
000000
,
000000
000000
000000
000000
000000
000000
000000
000010
,
001000
000000
000000
000000
,
000000
000000
000000
000000
,
001000
000010
010000
000001
001000
000001
100000
001000
,
100000
000010
100000
000010
100000
000010
001000
000001
,
000000
010010
000000
000000
100000
000000
000100
000000
,
000100
010010
100001
001000
,
010000
100000
000001
000000
001001
000000
000000
000000
,
000010
000001
100000
000000
101000
000000
000000
000000
,
000100
000010
000001
000000
000100
010000
100000
000000
,
010000
000100
001000
000000
000001
100000
001000
000000
,
000100
101000
001000
001001
,
010000
100001
000010
100001
,
001001
101000
001001
101000
,
010001
100010
001001
101000
,
001000
000000
000000
000000
;

//---------------dance-solo - ----------------
#NOTES:
     dance-solo:
     :
     Hard:
     13:
     0.621488,0.670441,0.397298,0.000000,0.203615,438.000000,398.000000,40.000000,0.000000,0.000000,0.000000,0.621488,0.670441,0.397298,0.000000,0.203615,438.000000,398.000000,40.000000,0.000000,0.000000,0.000000:
000000
000000
000000
000000
,
000000
000000
000000
000000
,
000000
000000
000000
000000
,
000000
000000
000000
000000
,
000000
000000
000000
000000
,
000000
000000
000000
000000
,
000000
000000
000000
000000
,
000000
000000
000000
000000
,
000000
000000
000000
000000
,
000010
101000
000000
000100
000100
000000
010010
000000
,
001000
000010
000000
100000
100000
000000
001001
000000
,
000001
010000
000001
010000
001000
000000
000101
000000
,
100000
000010
000000
100000
100000
000000
100001
000000
,
000010
001000
000000
000001
000001
000000
100001
000000
,
000010
100000
000010
100000
001000
000000
101000
000000
,
000000
101000
000000
000010
000010
000000
010000
000000
,
000010
010000
000000
100000
000000
000001
010000
001000
,
000000
100001
000000
100010
000000
000101
000000
010001
,
000000
001100
000000
011000
000000
100001
000000
001000
,
000001
000000
000001
010000
000001
010000
000001
010000
,
001000
000000
001000
100000
000010
000000
000010
010000
,
000010
010000
000010
010000
000001
000000
000001
100000
,
001000
000000
001000
000100
001000
000100
001000
000100
,
000001
000000
000001
010000
000010
000000
000010
100000
,
000010
100000
000010
100000
000001
000000
000001
001000
,
000100
000000
000100
100000
000100
100000
000100
100000
,
000010
000000
000010
100000
001000
000000
001000
000100
,
000000
010010
000000
000000
100000
010000
100000
001000
,
000100
000000
010010
000010
001000
000000
100001
000000
,
000001
000010
000001
100000
010000
100000
001000
100000
,
000100
000000
100001
000001
001000
000000
100001
000000
,
100000
000010
000100
001000
100000
000001
001000
000001
,
010000
000000
010010
000010
100000
000000
101000
000000
,
000000
100001
000000
000000
000100
000010
000100
000001
,
100000
001001
000100
100001
,
100000
001000
010000
001000
100000
000010
001000
000001
,
001000
000000
101000
100000
100001
000000
001001
000000
,
000001
001000
000010
100000
001000
010000
001000
100000
,
000001
000000
001001
000001
100001
000000
010010
000000
,
010000
000010
010000
000000
000001
001000
000001
000000
,
010000
001000
010000
001000
100000
000010
001000
000100
,
100000
000001
000100
001000
100000
000010
001000
000010
,
001000
000100
100000
001000
010000
001000
100000
000000
,
001000
000000
000000
000000
000000
000000
000000
000000
000000
000000
000000
000000
000000
000000
000000
000000
000000
000000
000000
000000
000000
000000
000000
000000
000000
000000
000000
000000
000000
000000
000000
000000
010000
000000
000000
000000
000000
000000
000000
000000
000000
000000
000000
000000
000000
000000
000000
000000
000000
000000
000000
000000
000000
000001
000000
000000
000000
000000
000000
000000
000000
000000
000000
000000
,
001000
000000
000000
000000
000000
000000
000000
000000
000000
000000
000000
000000
000000
000000
000000
000000
000000
000000
000000
000000
000000
000010
000000
000000
000000
000000
000000
000000
000000
000000
000000
000000
010000
000000
000000
000000
000000
000000
000000
000000
000000
000000
000000
000000
000000
000000
000000
000000
000000
000000
000000
000000
000000
000000
000000
000000
000000
000000
000000
000000
000000
000000
000000
000000
,
100001
000000
000000
000000
000000
000000
000000
000000
000000
000000
000000
000000
000000
000000
000000
000000
000000
000000
000000
000000
000000
100000
000000
000000
000000
000000
000000
000000
000000
000000
000000
000000
001000
000000
000000
000000
000000
000000
000000
000000
000000
000000
000000
000000
000000
000000
000000
000000
000000
000000
000000
000000
000000
000000
000000
000000
000000
000000
000000
000000
000000
000000
000000
000000
,
000010
000000
000000
000000
000000
000000
000000
000000
000000
000000
000000
000000
000000
000000
000000
000000
000000
000000
000000
000000
000000
000000
000000
000000
000000
000000
000000
000000
000000
000000
000000
000000
000100
000000
000000
000000
000000
000000
000000
000000
000000
000000
000000
000000
000000
000000
000000
000000
000000
000000
000000
000000
000000
100000
000000
000000
000000
000000
000000
000000
000000
000000
000000
000000
,
001000
000000
000000
000000
000000
000000
000000
000000
000000
000000
000000
000000
000000
000000
000000
000000
000000
000000
000000
000000
000000
010000
000000
000000
000000
000000
000000
000000
000000
000000
000000
000000
001000
000000
000000
000000
000000
000000
000000
000000
000000
000000
000000
000000
000000
000000
000000
000000
000000
000000
000000
000000
000000
000010
000000
000000
000000
000000
000000
000000
000000
000000
000000
000000
,
001001
000000
000000
000000
000000
000000
000000
000000
000000
000000
000000
000000
000000
000000
000000
000000
000000
000000
000000
000000
000000
001000
000000
000000
000000
000000
000000
000000
000000
000000
000000
000000
000001
000000
000000
000000
000000
000000
000000
000000
000000
000000
000000
000000
000000
000000
000000
000000
001000
000000
000000
000000
000000
000000
000000
000000
000000
000000
100000
000000
000000
000000
000000
000000
,
001000
000000
000000
000000
000000
100000
000000
000000
001000
000000
000000
000000
000000
010000
000000
000000
001000
000000
000000
000000
000000
100000
000000
000000
001000
000000
000000
000000
000000
100000
000000
000000
,
001000
000000
000000
000000
000000
100000
000000
000000
001000
000000
000000
000000
000000
010000
000000
000000
001000
000000
000000
000000
000000
000000
000000
000000
000000
000000
000000
000000
000000
000000
000000
000000
,
000100
000000
000000
000000
000000
000000
000000
000000
000000
000000
000010
000000
000000
000000
000000
000000
000000
000000
000000
000000
000000
100000
000000
000000
000000
000000
000000
000000
000000
000000
000000
000000
001001
000000
000000
000000
000000
000000
000000
000000
000000
000000
000000
000000
000000
000000
000000
000000
000000
000000
000000
000000
000000
000001
000000
000000
000000
000000
000000
000000
000000
000000
000000
000000
,
010000
000000
000000
000000
000000
000000
000000
000000
000000
000000
001000
000000
000000
000000
000000
000000
000000
000000
000000
000000
000000
100000
000000
000000
000000
000000
000000
000000
000000
000000
000000
000000
001001
000000
000000
000000
000000
000000
000000
000000
000000
000000
000000
000000
000000
000000
000000
000000
000000
000000
000000
000000
000000
000000
000000
000000
000000
000000
000000
000000
000000
000000
000000
000000
,
001000
000000
000000
000000
000000
000000
000000
000000
000000
000000
000001
000000
000000
000000
000000
000000
000000
000000
000000
000000
000000
000010
000000
000000
000000
000000
000000
000000
000000
000000
000000
000000
001000
000000
000000
000000
000000
000000
000000
000000
000000
000000
100000
000000
000000
000000
000000
000000
000000
000000
000000
000000
000000
100000
000000
000000
000000
000000
000000
000000
000000
000000
000000
000000
,
001000
000000
000000
000000
000000
000000
000000
000000
000000
000000
010000
000000
000000
000000
000000
000000
000000
000000
000000
000000
000000
000100
000000
000000
000000
000000
000000
000000
000000
000000
000000
000000
001000
000000
000000
000000
000000
000000
000000
000000
000000
000000
000000
000000
000000
000000
000000
000000
000000
000000
000000
000000
000000
100000
000000
000000
000000
000000
000000
000000
000000
000000
000000
000000
,
001000
000000
000000
000000
000000
000001
000000
000000
001000
000000
000000
000000
000000
000001
000000
000000
001000
000000
000000
000000
000000
000001
000000
000000
001000
000000
000000
000000
000000
000010
000000
000000
,
001000
000000
000000
000000
000000
000001
000000
000000
001000
000000
000000
000000
000000
000001
000000
000000
001000
000000
000000
000000
000000
000001
000000
000000
001000
000000
000000
000000
000000
000010
000000
000000
,
001000
000000
000000
000000
000000
000001
000000
000000
001000
000000
000000
000000
000000
000001
000000
000000
001000
000000
000000
000000
000000
000001
000000
000000
001000
000000
000000
000000
000000
000010
000000
000000
,
001000
000000
000000
000000
000000
000001
000000
000000
001000
000000
000000
000000
000000
000001
000000
000000
001000
000000
000000
000000
000000
000001
000000
000000
000000
000000
000000
000000
000000
000000
000000
000000
,
100001
000100
100000
000100
,
001000
000010
001000
000010
100000
000000
000001
000000
,
001000
000000
000001
000000
010000
001000
010000
001000
,
000000
000000
000000
000000
000010
010000
000010
010000
,
001000
000100
001000
000100
000001
001000
000010
001000
,
000001
000010
000001
001000
010000
001000
000001
100000
,
000000
010010
000000
000000
100000
001000
000100
000010
,
100000
000000
100010
100000
100001
000000
001001
000000
,
000100
000001
001000
000100
001000
000001
100000
000010
,
100000
001000
000100
001000
010000
000001
100000
000001
,
000100
000001
001000
000010
001000
010000
001000
000010
,
001000
100000
001000
000001
001000
010000
001000
000010
,
001000
000010
010000
001000
100000
000001
100000
001000
,
100000
000010
100000
001000
001000
010000
000010
001000
,
001000
000001
001000
000010
100000
001000
010000
001000
,
100000
000001
001000
000010
000100
001000
100000
000001
,
001000
000000
000000
000000
;

//---------------dance-single - ----------------
#NOTES:
     dance-single:
     :
     Challenge:
     15:
     0.837164,0.996391,0.198649,0.000000,0.357569,590.000000,570.000000,20.000000,0.000000,0.000000,0.000000,0.837164,0.996391,0.198649,0.000000,0.357569,590.000000,570.000000,20.000000,0.000000,0.000000,0.000000:
0000
0000
0000
0000
,
0000
0000
0000
0000
,
0000
0000
0000
0000
,
0000
0000
0000
0000
,
0000
0000
0000
0000
,
0000
0000
0000
0000
,
0000
0000
0000
0000
,
0000
0000
0000
0000
,
0000
0000
0000
0000
,
0001
1000
0010
0100
0001
0010
0100
1000
,
0010
0100
0010
1000
0100
0010
0001
1000
,
0001
1000
0010
0100
0010
1000
0100
0010
,
0100
0010
0001
0100
0001
1000
0010
0100
,
0001
1000
0010
1000
0100
0010
0001
0100
,
0010
0100
0010
1000
0100
0010
0001
0100
,
0001
0010
0001
1000
0010
0100
0010
1000
,
0100
0010
0001
0100
0001
0010
0001
1000
,
0010
1010
1000
1100
0100
0110
0010
0011
,
0001
1001
1000
1010
0010
0110
0100
0101
,
1001
0000
0010
1000
0100
0010
0001
1000
,
1010
0000
0010
0100
0101
0000
0001
1000
,
0001
0010
0100
1000
1100
0000
1000
0001
,
0011
0000
0010
0001
1000
0010
1000
0100
,
0110
0000
0010
1000
0001
1000
0100
0010
,
0011
0000
0001
0100
0101
0000
0010
1000
,
0001
1000
0100
0010
0011
0000
0100
0001
,
1001
0000
0010
1000
0100
0010
0001
0100
,
0001
0010
0001
1000
0010
0100
0010
1000
,
0100
0000
0010
0000
0001
0000
0100
0001
0100
0000
0010
0000
1000
0000
0001
0000
,
0010
0001
0100
0010
1000
0100
0010
0001
,
1000
0000
0001
0000
0010
0000
0100
1000
0100
0000
0010
0000
0001
0000
0100
0000
,
0010
0100
0001
0010
0100
1000
0010
1000
,
0100
0000
0010
0000
0100
0000
1000
0001
1000
0000
0010
0000
0100
0000
0001
0000
,
0010
0001
1000
0001
1000
0100
0010
0100
,
0010
0000
0001
0000
0100
0000
0010
1000
0010
0000
0100
0000
0001
0000
1000
0000
,
0001
0000
0010
0000
0100
0000
1000
0010
1000
0000
0001
0000
0100
0000
0010
0000
,
1000
0000
0100
0000
0010
0000
0001
0100
0001
0000
0010
0000
0100
0000
1000
0000
,
0010
0000
0100
0000
0010
0000
1000
0001
1000
0000
0100
0000
0010
0000
0001
0000
,
0100
0000
0001
0000
0010
0000
0001
1000
0001
0000
1000
0000
0010
0000
0100
0000
,
0010
0000
1000
0000
0001
0000
0010
0100
1000
0000
0010
0000
0100
0000
0001
1000
,
0001
0000
0010
0000
0100
0000
0010
0001
1000
0000
0001
0000
1000
0000
0010
0100
,
0010
0000
0100
0000
0001
0000
0010
0100
1000
0000
0010
0000
0100
0000
0010
1000
,
0010
0000
1000
0000
0100
0000
0010
0001
1000
0000
0001
0000
0100
0000
0010
0000
,
0110
0000
0010
1000
0100
0010
0001
1000
,
0001
0000
0100
0010
1000
0001
0100
0000
,
1001
0000
0001
0010
0001
0100
0010
1000
,
0100
0010
0001
0100
0010
1000
0001
1000
,
0010
0100
0010
1000
0100
0010
0001
0100
,
0001
0010
0001
1000
0100
0010
0100
1000
,
0001
0100
0001
0100
0010
0100
0010
1000
0010
1000
0100
1000
,
0100
0010
0100
0010
0001
0100
0001
1000
0001
1000
0010
1000
,
0001
0010
0100
1000
0010
0100
0001
0000
,
1000
0001
0010
0100
0010
0001
1000
0000
,
0010
1000
0001
1000
0010
0100
0001
0010
,
0100
0010
0001
0100
0001
1000
0010
0100
,
0001
0010
0100
0010
0100
1000
0010
0100
,
0010
1000
0100
0010
0100
1000
0001
0100
,
0001
0010
0100
1000
0010
0100
0010
1000
0100
0010
0001
1000
,
0001
1000
0100
1000
0010
0100
0001
1000
0100
1000
0001
0100
,
0010
0000
1000
0001
0010
0100
0010
0001
,
0100
0010
1000
0001
0010
0100
1000
0010
,
0100
0000
0001
1000
0001
0010
0100
1000
,
0010
1000
0100
0010
0001
0100
0001
1000
,
0100
0000
0010
0000
0100
0000
1000
0001
1000
0000
0010
0000
0100
0000
0001
0000
,
0010
0000
0100
0000
0010
0000
0001
0100
0001
0000
1000
0000
0010
0000
1000
0000
,
0100
0000
1000
0000
0010
0000
0100
0001
0100
0000
0001
0000
0010
0000
0100
0000
,
1000
0000
0010
0000
1000
0000
0100
0010
0100
0000
1000
0000
0001
0000
0010
0000
,
0001
0000
0100
0000
0010
0000
1000
0001
0010
0000
0100
0000
1000
0000
0010
0000
,
1000
0000
0001
0000
0010
0000
0100
1000
0001
0000
1000
0000
0001
0000
0100
0000
,
0010
0000
0100
0000
0001
0000
0010
0100
1000
0000
0001
0000
1000
0000
0010
0000
,
0100
0000
0001
0000
0010
0000
0001
1000
0100
0000
1000
0000
0010
0000
0100
0000
,
0001
0000
0010
0000
0100
0000
1000
0010
0100
0000
0010
0000
1000
0000
0100
0010
,
0001
0000
1000
0000
0001
0000
0100
0010
1000
0000
0010
0000
0100
0000
0001
0010
,
0100
0000
1000
0001
1000
0000
0010
0100
0010
0000
1000
0001
0100
0000
0001
0010
,
0100
0000
1000
0010
1000
0000
0001
0010
0001
0000
0100
0010
0100
0000
0001
1000
,
0100
0000
0000
0000
1000
0000
0001
0000
0000
0000
0010
0000
,
0100
0000
0000
0000
1000
0000
0010
0000
0000
0000
0000
0100
,
0000
0000
0001
0000
0000
0000
0000
0000
0000
0000
0000
0000
;

//---------------dance-solo - ----------------
#NOTES:
     dance-solo:
     :
     Beginner:
     4:
     0.177365,0.372467,0.248311,0.000000,0.000000,125.000000,100.000000,25.000000,0.000000,0.000000,0.000000,0.177365,0.372467,0.248311,0.000000,0.000000,125.000000,100.000000,25.000000,0.000000,0.000000,0.000000:
000000
000000
000000
000000
,
000000
000000
000000
000000
,
000000
000000
000000
000000
,
000000
000000
000000
000000
,
000000
000000
000000
000000
,
000000
000000
000000
000000
,
000000
000000
000000
000000
,
000000
000000
000000
000000
,
000000
000000
000000
000000
,
000010
000000
000000
000000
,
010000
000000
000000
000000
,
001000
000000
000000
000000
,
010000
000000
000000
000000
,
000000
000010
000010
000000
,
000000
010000
010000
000000
,
000000
001000
001000
000000
,
000000
000000
010010
000000
,
011000
000000
001010
000000
,
011000
000000
001010
000000
,
010010
000000
000010
000000
,
000010
000000
000010
000000
,
010000
000000
001000
000000
,
010000
000000
010000
000000
,
000010
000000
000000
000000
,
001000
000000
000000
000000
,
000010
000000
010000
000000
,
001000
000000
000000
000000
,
010000
000000
010000
000000
,
010000
000000
000000
000000
,
000010
000000
000010
000000
,
000010
000000
000000
000000
,
001000
000000
001000
000000
,
001000
000000
000000
000000
,
001000
000000
001000
000000
,
001000
000000
000000
000000
,
000010
000000
000010
000000
,
000010
000000
000000
000000
,
010000
000000
010000
000000
,
010000
000000
000000
000000
,
011000
000000
001010
000000
,
011000
000000
001010
000000
,
010010
000000
010010
000000
,
011000
000000
001010
000000
,
010010
000000
000000
000000
,
000000
000000
000000
000000
,
000010
000000
000010
000000
,
000010
000000
000010
000000
,
010000
000000
010000
000000
,
001000
000000
001000
000000
,
010000
000000
001000
000000
,
010000
000000
001000
000000
,
010000
000000
000000
000000
,
000010
000000
000000
000000
,
001000
000000
001000
000000
,
001000
000000
000000
000000
,
000010
000000
000010
000000
,
010000
000000
010000
000000
,
000010
000000
010000
000000
,
001000
000000
000000
000000
,
010000
000000
000000
000000
,
000000
000000
000000
000000
,
000010
000000
000000
000000
,
000000
000000
000000
000000
,
001000
000000
000000
000000
,
001000
000000
000000
000000
,
001000
000000
000000
000000
,
000000
000000
000000
000000
,
000000
000010
000010
000000
,
000000
010000
010000
000000
,
000000
001000
001000
000000
,
000000
000000
010010
000000
,
011000
000000
011000
000000
,
001010
000000
001010
000000
,
011000
000000
001010
000000
,
010010
000000
010010
000000
,
001010
000000
000000
000000
;

//---------------dance-solo - ----------------
#NOTES:
     dance-solo:
     :
     Challenge:
     15:
     0.825813,0.996391,0.198649,0.000000,0.337704,582.000000,562.000000,20.000000,0.000000,0.000000,0.000000,0.825813,0.996391,0.198649,0.000000,0.337704,582.000000,562.000000,20.000000,0.000000,0.000000,0.000000:
// measure 0
000000
000000
000000
000000
,  // measure 1
000000
000000
000000
000000
,  // measure 2
000000
000000
000000
000000
,  // measure 3
000000
000000
000000
000000
,  // measure 4
000000
000000
000000
000000
,  // measure 5
000000
000000
000000
000000
,  // measure 6
000000
000000
000000
000000
,  // measure 7
000000
000000
000000
000000
,  // measure 8
000000
000000
000000
000000
,  // measure 9
000001
000100
000010
001000
000100
001000
000001
100000
,  // measure 10
010000
100000
000100
001000
000100
010000
000100
001000
,  // measure 11
000010
000100
001000
000100
000001
010000
000100
100000
,  // measure 12
001000
010000
000100
010000
000100
001000
000010
010000
,  // measure 13
001000
100000
000001
100000
000010
001000
010000
000001
,  // measure 14
010000
100000
000010
001000
000100
010000
000010
000100
,  // measure 15
001000
010000
000001
100000
000010
000100
001000
000100
,  // measure 16
000001
010000
000100
001000
000010
000100
001000
100000
,  // measure 17
000001
001001
001000
001100
000100
010100
010000
010010
,  // measure 18
000010
100010
100000
101000
001000
001100
000100
000110
,  // measure 19
010010
000000
000100
100000
001000
010000
000100
001000
,  // measure 20
001010
000000
000010
000100
000101
000000
000001
100000
,  // measure 21
000010
000100
001000
010000
010100
000000
000100
100000
,  // measure 22
100001
000000
000001
000100
000010
010000
001000
000100
,  // measure 23
001100
000000
000100
000001
100001
000000
010000
000010
,  // measure 24
000100
001000
010000
000010
100010
000000
100000
001000
,  // measure 25
011000
000000
010000
000001
000100
001000
010000
000001
,  // measure 26
000011
000000
100000
000100
100100
000000
010000
001000
,  // measure 27
100000
000100
001000
000010
000100
010000
000001
001000
,  // measure 28
000010
000000
000100
000000
001000
000000
100000
000010
100000
000000
000100
000000
010000
000000
000001
000000
,  // measure 29
000100
000010
001000
000010
000100
001000
010000
000001
,  // measure 30
000100
000000
000010
000000
100000
000000
001000
010000
001000
000000
100000
000000
000100
000000
001000
000000
,  // measure 31
000010
000100
100000
000001
000100
001000
000010
010000
,  // measure 32
000100
000000
001000
000000
000001
000000
010000
000010
010000
000000
001000
000000
100000
000000
000100
000000
,  // measure 33
001000
000001
000100
000010
010000
000001
100000
001000
,  // measure 34
000100
000000
001000
000000
010000
000000
000001
000100
000001
000000
010000
000000
000010
000000
001000
000000
,  // measure 35
000100
000000
100000
000000
001000
000000
010000
000100
001000
000000
000001
000000
000100
000000
001000
000000
,  // measure 36
010000
000000
000010
000000
100000
000000
000100
001000
000001
000000
000100
000000
000010
000000
010000
000000
,  // measure 37
001000
000000
000100
000000
001000
000000
100000
000100
010000
000000
000010
000000
100000
000000
000001
000000
,  // measure 38
000100
000000
000010
000000
001000
000000
000100
000000
010000
000000
001000
100000
000001
000000
000100
000000
,  // measure 39
000010
000000
010000
000000
001000
000000
100000
000100
001000
000000
000010
000000
000100
000000
001000
010000
,  // measure 40
001000
000000
100000
000000
000001
000000
000100
000010
010000
000000
000100
000000
001000
000000
000001
100000
,  // measure 41
000001
000000
000100
000000
000010
000000
010000
000100
100000
000000
001000
000000
000100
000000
000010
001000
,  // measure 42
000010
000000
000100
000000
000001
000000
001000
000100
100000
000000
000010
000000
000100
000000
001000
000000
,  // measure 43
010010
000000
000100
100000
000001
010000
000010
001000
,  // measure 44
000100
000000
100000
000010
010000
001000
000001
000000
,  // measure 45
000100
000010
001000
000010
010000
000001
000100
001000
,  // measure 46
100000
000010
100000
001000
010000
000100
001000
000010
,  // measure 47
000100
000001
100000
000010
000100
001000
000100
000010
,  // measure 48
010000
000001
000100
000010
100000
001000
010000
000001
,  // measure 49
100000
000100
100000
000100
010000
000010
010000
000001
001000
000010
001000
000001
,  // measure 50
000100
000010
000100
000001
010000
000010
100000
001000
100000
001000
010000
000001
,  // measure 51
000100
001000
000100
000001
010000
000010
100000
000000
,  // measure 52
001000
010000
000100
100000
000010
000100
001000
000000
,  // measure 53
010000
000001
000100
001000
100000
000010
100000
000000
,  // measure 54
000100
010000
001000
000100
000001
100000
000010
000000
,  // measure 55
010000
001000
100000
000010
100000
000100
010000
000001
,  // measure 56
000010
010000
000100
001000
000001
000010
100000
000001
,  // measure 57
001000
000100
100000
000100
100000
000001
010000
000010
010000
000001
000100
000010
,  // measure 58
100000
001000
000100
001000
010000
000010
000100
000001
100000
000010
010000
000001
,  // measure 59
001000
000000
000010
010000
000010
000100
001000
100000
,  // measure 60
000001
000100
000010
001000
000100
010000
000001
000000
,  // measure 61
100000
000000
000100
001000
000100
010000
001000
000100
,  // measure 62
000001
100000
000010
000100
000001
001000
000100
000000
,  // measure 63
010000
001000
010000
000100
100000
000010
000100
000001
,  // measure 64
001000
000100
010000
001000
100000
000100
001000
000010
,  // measure 65
000100
001000
100000
000001
100000
000010
000100
010000
,  // measure 66
000010
001000
000100
010000
001000
100000
000001
001000
,  // measure 67
000010
000000
010000
000000
001000
000000
100000
000100
001000
000000
000001
000000
000010
000000
010000
000000
,  // measure 68
100000
000000
000001
000000
100000
000000
000100
001000
000010
000000
010000
000000
001000
000000
000001
000000
,  // measure 69
000100
000000
001000
000000
100000
000000
000010
000100
010000
000000
000001
000000
100000
000000
001000
000000
,  // measure 70
010000
000000
000100
000000
001000
000000
000010
100000
010000
000000
000001
000000
000100
000000
001000
000000
,  // measure 71
100000
000000
000100
000000
001000
000000
000010
000100
001000
000000
010000
000000
000001
000000
000100
000001
,  // measure 72
100000
000000
000010
000000
000100
000000
001000
010000
000001
000000
000010
000000
100000
000000
000100
010000
,  // measure 73
001000
000000
100000
000100
100000
000000
000010
010000
000010
000000
000100
000001
001000
000000
000001
010000
,  // measure 74
000100
000000
001000
000001
000100
000000
000010
010000
000010
000000
010000
001000
100000
000000
000001
100000
,  // measure 75
000100
000000
000000
000000
001000
000000
000001
000000
000000
000000
010000
000000
,  // measure 76
000010
000000
000000
000000
100000
000000
000001
000000
000000
000000
000000
001000
,  // measure 77
000000
000000
000100
000000
000000
000000
000000
000000
000000
000000
000000
000000
;
