#VERSION:0.83;
#TITLE:ON THE JAZZ;
#SUBTITLE:;
#ARTIST:Jonny Dynamite!;
#TITLETRANSLIT:;
#SUBTITLETRANSLIT:;
#ARTISTTRANSLIT:;
#GENRE:;
#ORIGIN:;
#CREDIT:;
#BANNER:ON THE JAZZ.png;
#BACKGROUND:ON THE JAZZ-bg.png;
#PREVIEWVID:;
#JACKET:ON THE JAZZ-jacket.png;
#CDIMAGE:;
#DISCIMAGE:;
#LYRICSPATH:;
#CDTITLE:;
#MUSIC:ON THE JAZZ.ogg;
#OFFSET:0.000000;
#SAMPLESTART:38.674000;
#SAMPLELENGTH:20.000000;
#SELECTABLE:YES;
#DISPLAYBPM:130.000000;
#BPMS:0.000=132.400,
4.000=130.000;
#STOPS:;
#DELAYS:;
#WARPS:;
#TIMESIGNATURES:0.000=4=4;
#TICKCOUNTS:0.000=4;
#COMBOS:0.000=1;
#SPEEDS:0.000=1.000=0.000=0;
#SCROLLS:0.000=1.000;
#FAKES:;
#LABELS:0.000=Song Start;
#BGCHANGES:;
#KEYSOUNDS:;
#ATTACKS:
;

//---------------dance-single - ----------------
#NOTEDATA:;
#CHARTNAME:;
#STEPSTYPE:dance-single;
#DESCRIPTION:;
#CHARTSTYLE:;
#DIFFICULTY:Beginner;
#METER:1;
#RADARVALUES:0.081438,0.132516,0.000000,0.000000,0.000000,57.000000,57.000000,0.000000,0.000000,0.000000,0.000000,0.000000,0.000000,0.000000,0.081438,0.132516,0.000000,0.000000,0.000000,57.000000,57.000000,0.000000,0.000000,0.000000,0.000000,0.000000,0.000000,0.000000;
#CREDIT:;
#DISPLAYBPM:130.000000;
#NOTES:
0000
0000
0000
0000
,
0000
0000
0000
0000
,
0000
0000
0000
0000
,
0000
0000
0000
0000
,
0000
0000
0000
0000
,
0010
0000
0000
0000
,
0010
0000
0000
0000
,
0010
0000
0000
0000
,
0010
0000
0000
0000
,
1000
0000
0000
0000
,
1000
0000
0000
0000
,
1000
0000
0000
0000
,
1000
0000
0000
0000
,
0001
0000
0000
0000
,
0001
0000
0000
0000
,
0001
0000
0000
0000
,
0010
0000
0000
0000
,
0001
0000
1000
0000
,
0001
0000
1000
0000
,
0010
0000
0100
0000
,
0010
0000
0100
0000
,
0001
0000
0000
0000
,
0000
0000
0000
0000
,
0000
0000
0000
0000
,
0000
0000
0000
0000
,
1000
0000
0000
0000
,
0000
0000
0000
0000
,
0000
0000
0000
0000
,
0000
0000
0000
0100
,
0100
0000
0000
0000
,
0010
0000
0000
0000
,
0010
0000
0000
0000
,
0010
0000
0100
0000
,
1000
0000
0001
0000
,
0010
0000
0100
0000
,
0010
0000
0000
0000
,
0010
0000
0000
0000
,
0100
0000
0000
0000
,
0100
0000
0000
0000
,
0001
0000
1000
0000
,
0001
0000
1000
0000
,
0001
0000
0001
0000
,
1000
0000
1000
0000
,
0100
0000
0000
0000
,
0000
0000
0000
0000
,
0000
0000
0000
0000
,
0000
1000
0000
0001
,
0001
0000
0000
0000
,
1000
0000
0000
0000
,
0010
0000
0000
0000
,
0000
1000
0000
0001
,
0000
0100
0100
0000
,
0010
0000
0010
0000
,
0100
0000
0000
0000
,
0000
0000
0000
0000
;

//---------------dance-single - ----------------
#NOTEDATA:;
#CHARTNAME:;
#STEPSTYPE:dance-single;
#DESCRIPTION:;
#CHARTSTYLE:;
#DIFFICULTY:Easy;
#METER:4;
#RADARVALUES:0.154304,0.212025,0.000000,0.000000,0.000000,108.000000,108.000000,0.000000,0.000000,0.000000,0.000000,0.000000,0.000000,0.000000,0.154304,0.212025,0.000000,0.000000,0.000000,108.000000,108.000000,0.000000,0.000000,0.000000,0.000000,0.000000,0.000000,0.000000;
#CREDIT:;
#DISPLAYBPM:130.000000;
#NOTES:
0000
0000
0000
0000
,
0000
0000
0000
0000
,
0000
0000
0000
0000
,
0000
0000
0000
0000
,
0000
0000
0000
0000
,
0010
0000
0000
0000
,
0010
0001
0100
0000
,
0010
0000
0000
0000
,
0010
1000
0100
0000
,
1000
0000
0001
0000
,
1000
0000
0001
0000
,
1000
0001
0100
0000
,
0000
0000
0000
0000
,
0010
0000
0000
0000
,
0010
1000
0100
0000
,
0010
0000
0000
0000
,
0010
0001
0100
0000
,
0001
0000
1000
0000
,
0001
0000
1000
0000
,
0001
1000
0100
0000
,
0010
0001
0100
1000
,
0001
0100
0000
0000
,
1000
0100
0001
0000
,
0010
0000
0001
0000
,
0000
1000
0000
0001
,
0001
0100
0000
0000
,
1000
0100
0001
0000
,
0010
0000
0001
0000
,
0000
1000
0000
0001
,
0010
0000
0000
0000
,
0010
0001
0100
0000
,
0010
0010
0010
0000
0000
0000
0000
0000
,
0010
0000
0100
0000
,
1000
0000
0001
0000
,
0010
0001
0100
0000
,
0010
0000
0000
0000
,
0010
1000
0001
0000
,
0010
0000
0000
0000
,
0010
0001
1000
0000
,
0001
0000
1000
0000
,
0001
0000
1000
0000
,
0001
1000
0100
0000
,
0010
0001
0100
1000
,
0001
0100
0000
0000
,
1000
0100
0001
0000
,
0010
0000
0001
0000
,
0000
1000
0000
0001
,
0001
0100
0000
0000
,
1000
0100
0001
0000
,
0010
0000
0001
0000
,
0000
1000
0000
0001
,
0010
0000
0100
0000
,
0010
0000
0010
0000
,
0100
0000
0000
0000
,
0000
0000
0000
0000
;

//---------------dance-single - ----------------
#NOTEDATA:;
#CHARTNAME:;
#STEPSTYPE:dance-single;
#DESCRIPTION:;
#CHARTSTYLE:;
#DIFFICULTY:Medium;
#METER:8;
#RADARVALUES:0.350042,0.344541,0.250030,0.000000,0.000000,245.000000,220.000000,25.000000,0.000000,0.000000,0.000000,0.000000,0.000000,0.000000,0.350042,0.344541,0.250030,0.000000,0.000000,245.000000,220.000000,25.000000,0.000000,0.000000,0.000000,0.000000,0.000000,0.000000;
#CREDIT:;
#DISPLAYBPM:130.000000;
#NOTES:
0000
0000
0000
0000
,
0000
0000
0000
0000
,
0000
0000
0000
0000
,
1000
1000
1000
0001
,
0001
0001
0001
1000
,
0101
0000
0001
0000
1000
0000
1000
0001
,
1000
0110
0001
0001
,
1000
0000
1000
0000
0001
0000
0001
1000
,
0001
0110
1000
1000
,
0010
0100
0010
0000
0001
0000
0100
0000
,
0001
0100
0001
0000
0100
0000
1000
0000
,
0010
1001
1000
0100
,
1000
0001
0100
0001
,
0001
0010
0100
1000
,
1000
1000
0100
0010
,
1000
1000
0010
0000
0100
0000
0001
0000
,
0101
0001
0100
0010
,
1000
0100
1000
0000
1000
0000
0101
0000
,
0001
0100
0001
0000
0001
0000
0100
0000
,
0010
0100
0010
0100
0010
0000
0010
0000
,
1001
1000
0110
0010
,
1000
0101
0010
0000
,
0001
0100
0001
0000
1000
0100
1000
0000
,
0100
0001
0100
0010
,
1000
0011
1001
0101
,
0010
0101
1000
0100
,
0010
0001
0001
1100
,
1000
1000
0001
0001
,
1000
0000
1000
0001
1000
0100
1000
0001
,
0100
0000
0100
0000
,
0001
0000
0000
0000
,
0001
0001
0001
0000
1000
0000
1000
0000
,
0001
1000
0001
0001
,
0001
1000
0100
0000
0001
0000
0100
0000
,
1000
0000
0100
0000
0001
1000
0100
0000
,
0001
0110
0100
1000
,
1000
1010
0100
0101
,
1000
0010
0100
0001
,
0001
0010
0100
1000
,
1000
0100
1000
0000
1000
0000
0101
0000
,
0001
0100
0001
0000
0001
0000
1100
0000
,
0001
0001
1000
1000
,
0001
1000
0010
0100
0001
0000
0001
0000
,
0100
1100
0010
0000
,
1000
0100
1000
0000
0001
0100
0001
0000
,
0100
1000
0100
0010
,
1000
1010
1001
1100
,
0000
1001
0001
0100
,
0010
1000
0001
0000
0100
0000
0001
0000
,
0010
1001
0001
0100
,
0010
0001
0100
0001
1000
0000
0000
0000
,
0010
0010
0100
0100
,
0100
0000
0010
0000
0010
0100
0010
0100
,
0010
0000
0000
0000
;

//---------------dance-single - ----------------
#NOTEDATA:;
#CHARTNAME:;
#STEPSTYPE:dance-single;
#DESCRIPTION:;
#CHARTSTYLE:;
#DIFFICULTY:Hard;
#METER:11;
#RADARVALUES:0.500060,0.477057,0.190023,0.000000,0.195023,350.000000,331.000000,19.000000,0.000000,0.000000,0.000000,0.000000,0.000000,0.000000,0.500060,0.477057,0.190023,0.000000,0.195023,350.000000,331.000000,19.000000,0.000000,0.000000,0.000000,0.000000,0.000000,0.000000;
#CREDIT:;
#DISPLAYBPM:130.000000;
#NOTES:
0000
0000
0000
0000
,
0000
0000
0000
0000
,
0010
0000
0001
0000
0000
0001
0000
0000
1000
0000
0000
0010
0000
0000
0001
0000
,
0010
0000
1000
0000
0000
1000
0000
0000
0001
0000
0000
0010
0000
0000
1000
0000
,
0010
0000
0001
0000
0000
0001
0000
0000
1000
0000
0000
0010
0000
0000
0001
0000
,
1000
0000
0000
0001
0000
0000
0001
0000
0100
0000
0000
0001
0000
0000
1000
0000
,
1000
0000
0000
0001
0000
0000
0100
0000
0001
0000
0000
0100
0000
0000
0001
0000
,
1000
0000
0000
0001
0000
0000
0100
0000
0001
0000
0000
0100
0000
0000
1000
0000
,
1000
0000
0000
0001
0000
0000
0001
0000
0010
0000
1000
0000
0100
0000
0001
0000
,
1000
0000
0000
0001
0000
0000
0001
0000
0100
0000
0000
0001
0000
0000
1000
0000
,
1000
0000
0000
0001
0000
0000
0100
0000
0001
0000
0000
0100
0000
0000
0001
0000
,
1000
0000
0000
0001
0000
0000
0100
0000
0001
0000
0000
0100
0000
0000
1000
0000
,
1000
0000
0000
0001
0000
0000
0001
0000
0010
0000
1000
0000
0100
0000
0001
0000
,
1000
0001
0110
0000
0100
0001
1000
0000
,
1000
0001
1000
0000
0100
1000
0001
0000
,
1100
1100
0010
0100
0001
1000
0001
0000
,
0011
1000
0001
0000
0100
0001
0010
0000
,
1000
0100
1000
0001
1000
0010
0101
0000
,
0001
0100
0001
1000
0001
0010
1100
0000
,
0001
0000
1000
0010
0000
0100
0001
0000
1000
0000
0010
0000
0001
0000
0000
0000
,
1001
1000
0110
0010
,
1000
0001
0000
1000
0000
0001
0000
0110
,
0000
0100
0000
1000
0000
0001
0000
1100
,
0000
0010
0000
0001
0000
1000
0000
0101
,
0000
0010
0000
0001
0000
0100
0010
1000
,
0010
0100
0001
1000
0100
0010
0100
1000
,
0001
0100
0010
0100
0001
0010
0100
1000
,
0001
1000
0001
0010
0100
1000
0001
0100
,
0001
0000
0000
0000
0000
0000
0010
1000
0001
0000
0010
0100
1000
0000
0001
0000
,
0100
0000
0000
0000
0100
0000
0000
0000
1000
0000
0000
0010
0000
0000
0001
0000
,
0010
0000
1000
0000
0000
1000
0000
0000
0001
0000
0000
0010
0000
0000
1000
0000
,
0010
0000
1000
0000
1001
0000
0000
0000
0001
0000
0000
0010
0000
0000
1000
0000
,
0010
0000
0001
0000
0000
0001
0000
0000
1000
0000
0000
0010
0000
0000
0001
0000
,
0001
0000
0000
0000
1100
0000
0000
0000
1000
0000
0000
0010
0000
0000
1000
0000
,
0010
0000
1000
0000
0000
1000
0000
0000
0001
0000
0000
0010
0000
0000
0001
0000
,
1000
0100
1000
0100
1000
0100
1000
0100
,
0010
0001
0011
0000
0100
1000
1100
0000
,
1000
0001
0010
0100
0010
0001
1000
0000
,
0001
1000
0001
1000
0100
0001
0100
0000
,
1000
0100
1000
0001
1000
0010
0101
0000
,
0001
0100
0001
1000
0001
0010
1100
0000
,
0001
1000
0000
0001
1000
0000
0001
0000
1000
0000
0000
0000
0101
0000
0000
0000
,
1000
0000
0010
0000
1000
0001
0100
0010
,
1000
0001
0010
0100
0010
0001
1000
0001
,
0100
0010
1000
0100
0010
0100
1000
0001
,
1000
0010
0100
0001
1000
0100
0010
0100
,
0010
1000
0001
1000
0010
0001
1000
0001
,
0010
0000
1001
0000
0001
1000
0100
0010
,
0001
1000
0001
1000
0100
1000
0001
0100
,
0010
1000
0001
0100
0001
1000
0100
1000
,
0010
0001
0100
0001
1000
0000
1000
0000
,
0010
0000
0001
0000
0000
0001
0000
0000
1000
0000
0000
0010
0000
0000
0001
0000
,
0010
0000
1000
0000
0000
1000
0000
0000
0001
0000
0000
0010
0000
0000
1000
0000
,
0010
0000
0000
0000
;

//---------------dance-double - ----------------
#NOTEDATA:;
#CHARTNAME:;
#STEPSTYPE:dance-double;
#DESCRIPTION:;
#CHARTSTYLE:;
#DIFFICULTY:Easy;
#METER:4;
#RADARVALUES:0.172878,0.238529,0.000000,0.000000,0.000000,121.000000,121.000000,0.000000,0.000000,0.000000,0.000000,0.000000,0.000000,0.000000,0.172878,0.238529,0.000000,0.000000,0.000000,121.000000,121.000000,0.000000,0.000000,0.000000,0.000000,0.000000,0.000000,0.000000;
#CREDIT:;
#DISPLAYBPM:130.000000;
#NOTES:
00000000
00000000
00000000
00000000
,
00000000
00000000
00000000
00000000
,
00000000
00000000
00000000
00000000
,
00000000
00000000
00000000
00000000
,
00000000
00000000
00000000
00000000
,
00100000
00000000
00000000
00000000
,
00100000
10000000
00010000
00000000
,
00001000
00000000
00000000
00000000
,
00000010
00000100
00000001
00000001
,
00001000
00000000
00010000
00000000
,
00100000
00000000
01000000
00000000
,
00100000
00010000
01000000
00000000
,
00000000
00000000
00000000
00000000
,
00000100
00001000
00000100
00000001
,
00001000
00000001
00000100
00001000
,
00001000
00000000
00000000
00000000
,
00010000
01000000
00100000
10000000
,
10000000
00000000
01000000
00000000
,
00010000
00000000
00001000
00000000
,
00000100
00000010
00000100
00000000
,
00000010
00001000
00100000
01000000
,
00010000
10000000
00000000
00000000
,
00100000
00010000
00001000
00000000
,
00000010
00000000
00000001
00000000
,
00001000
00000000
00010000
00000000
,
10000000
00010000
00000000
00000000
,
00100000
10000000
01000000
00000000
,
00010000
00000000
00000100
00000000
,
00000010
00000010
00000001
00000000
,
00000000
00000000
00000000
00000000
,
00001000
00010000
00100000
00000000
,
10000000
10000000
10000000
00000000
00000000
00000000
00000000
00000000
,
00001000
00000000
00000010
00000000
,
00000001
00000000
00000100
00000000
,
00001000
01000000
00001000
01000000
,
00100000
00000000
00000000
00000000
,
00100000
10000000
00010000
00000000
,
00000010
00000000
00000000
00000000
,
00000001
00001000
00000010
00010000
,
00100000
00000000
10000000
10000000
,
01000000
00000000
00010000
00000000
,
00000010
00001000
00000001
00000100
,
00000010
00010000
00100000
01000000
,
00010000
00010000
00000000
00000000
,
00100000
10000000
01000000
00000000
,
00010000
00000000
00000100
00000000
,
00001000
00000000
00000001
00000010
,
00000100
00010000
00000000
00000000
,
00100000
10000000
00010000
00010000
,
00100000
00000000
01000000
00000000
,
00010000
00010000
00001000
00000000
,
00000010
00000000
00000001
00000000
,
00000100
00000000
00001000
00000000
,
01000000
00000000
00000000
00000000
,
00000000
00000000
00000000
00000000
;

//---------------dance-double - ----------------
#NOTEDATA:;
#CHARTNAME:;
#STEPSTYPE:dance-double;
#DESCRIPTION:;
#CHARTSTYLE:;
#DIFFICULTY:Medium;
#METER:7;
#RADARVALUES:0.350042,0.344541,0.250030,0.000000,0.000000,245.000000,220.000000,25.000000,0.000000,0.000000,0.000000,0.000000,0.000000,0.000000,0.350042,0.344541,0.250030,0.000000,0.000000,245.000000,220.000000,25.000000,0.000000,0.000000,0.000000,0.000000,0.000000,0.000000;
#CREDIT:;
#DISPLAYBPM:130.000000;
#NOTES:
00000000
00000000
00000000
00000000
,
00000000
00000000
00000000
00000000
,
00000000
00000000
00000000
00000000
,
00010000
00010000
00010000
00000100
,
00000010
00000001
00000001
00000001
,
00001010
00000000
00000100
00000000
00001000
00000000
01000000
00100000
,
10000000
01100000
00010000
00010000
,
10000000
00000000
10000000
00000000
01000000
00000000
00100000
00001000
,
00010000
00011000
00000010
00000010
,
00000010
00001000
00000100
00000000
00001000
00000000
00010000
00000000
,
01000000
00100000
10000000
00000000
00010000
00000000
00000010
00000000
,
00000100
00000110
00001000
00010000
,
00100000
01000000
00010000
10000000
,
01000000
00010000
00001000
00000010
,
00000010
00000010
00000100
00000001
,
00001000
00001000
00000010
00000000
00001000
00000000
00100000
00000000
,
01100000
10000000
00010000
01000000
,
00001000
01000000
00001000
00000000
00000010
00000000
00000110
00000000
,
00001000
00000001
00000100
00000000
00010000
00000000
01000000
00000000
,
00010000
10000000
00010000
01000000
00001000
00000000
00010000
00000000
,
00000110
00000001
00001100
00000010
,
00010000
01100000
10000000
00000000
,
00010000
01000000
00010000
00000000
00000100
00001000
00000100
00000000
,
00000010
00000001
00001000
00100000
,
01000000
00110000
10010000
01010000
,
00100000
00011000
00000010
00000100
,
00000001
00001000
00000010
01010000
,
10000000
10000000
00100000
00100000
,
01000000
00000000
01000000
00001000
00010000
00000010
00001000
00000001
,
00000100
00000000
00000010
00000000
,
00001000
00000000
00000000
00000000
,
00010000
00010000
00010000
00000000
10000000
00000000
10000000
00000000
,
00010000
00001000
00000010
00000010
,
00001000
00000100
00000010
00000000
00000001
00000000
00001000
00000000
,
00100000
00000000
10000000
00000000
00010000
10000000
01000000
00000000
,
00010000
00011000
00000100
00000010
,
00001000
00000101
00000010
00001010
,
00100000
01000000
00010000
10000000
,
10000000
00100000
01000000
00001000
,
00000100
00000010
00000100
00000000
00000001
00000000
00001100
00000000
,
00010000
00001000
00010000
00000000
00100000
00000000
11000000
00000000
,
00100000
00100000
01000000
00001000
,
00000100
00000010
00000001
00001000
00000100
00000000
00000001
00000000
,
00001000
00001100
00000010
00000000
,
00010000
00001000
00010000
00000000
00100000
01000000
00100000
00000000
,
01000000
00010000
00000100
00000010
,
00000001
00001100
00010010
01100000
,
00000000
10010000
00010000
01000000
,
00100000
01000000
00001000
00000000
00000100
00000000
00000010
00000000
,
00001000
00011000
00100000
01000000
,
00100000
00010000
01000000
00010000
10000000
00000000
00000000
00000000
,
00010000
00010000
00001000
00001000
,
00001000
00000000
00000010
00000000
00000010
00001000
00000010
00001000
,
00000001
00000000
00000000
00000000
,
00000000
00000000
00000000
00000000
;

//---------------dance-double - ----------------
#NOTEDATA:;
#CHARTNAME:;
#STEPSTYPE:dance-double;
#DESCRIPTION:;
#CHARTSTYLE:;
#DIFFICULTY:Hard;
#METER:11;
#RADARVALUES:0.495774,0.477057,0.180022,0.000000,0.190023,347.000000,329.000000,18.000000,0.000000,0.000000,0.000000,0.000000,0.000000,0.000000,0.495774,0.477057,0.180022,0.000000,0.190023,347.000000,329.000000,18.000000,0.000000,0.000000,0.000000,0.000000,0.000000,0.000000;
#CREDIT:;
#DISPLAYBPM:130.000000;
#NOTES:
00000000
00000000
00000000
00000000
,
00000000
00000000
00000000
00000000
,
00100000
00000000
00010000
00000000
00000000
00010000
00000000
00000000
01000000
00000000
00000000
00001000
00000000
00000000
00000100
00000000
,
00000010
00000000
00000100
00000000
00000000
00000100
00000000
00000000
00000001
00000000
00000000
00000100
00000000
00000000
00000010
00000000
,
00001000
00000000
00100000
00000000
00000000
00100000
00000000
00000000
10000000
00000000
00000000
00010000
00000000
00000000
01000000
00000000
,
00010000
00000000
00000000
10000000
00000000
00000000
10000000
00000000
00010000
00000000
00000000
00000010
00000000
00000000
00000001
00000000
,
00001000
00000000
00000000
00000100
00000000
00000000
00000010
00000000
00010000
00000000
00000000
00010000
00000000
00000000
00100000
00000000
,
01000000
00000000
00000000
00010000
00000000
00000000
00010000
00000000
01000000
00000000
00000000
00100000
00000000
00000000
10000000
00000000
,
00010000
00000000
00000000
00100000
00000000
00000000
00100000
00000000
10000000
00000000
01000000
00000000
00010000
00000000
00001000
00000000
,
00000010
00000000
00000000
00000100
00000000
00000000
00000100
00000000
00000001
00000000
00000000
00001000
00000000
00000000
00001000
00000000
,
00010000
00000000
00000000
00100000
00000000
00000000
01000000
00000000
00010000
00000000
00000000
00100000
00000000
00000000
10000000
00000000
,
00010000
00000000
00000000
00010000
00000000
00000000
01000000
00000000
00001000
00000000
00000000
00000010
00000000
00000000
00000010
00000000
,
00000001
00000000
00000000
00001000
00000000
00000000
00001000
00000000
00000010
00000000
00001000
00000000
00000100
00000000
00010000
00000000
,
00100000
01000000
00010000
00000000
10000000
00010000
10000000
00000000
,
00100000
01000000
00001000
00000000
00010000
00000010
00001000
00000000
,
00001010
00000110
00000001
00001000
00000010
00000100
00000010
00000000
,
00001010
00000001
00000100
00000000
00000010
00000100
00000010
00000000
,
00001000
00100000
01000000
00100000
00010000
10000000
11000000
00000000
,
10000000
00010000
10000000
01000000
00100000
10000000
11000000
00000000
,
00100000
00000000
00010000
01000000
00000000
00000000
00010000
00000000
00000100
00000000
00000010
00000000
00000100
00000000
00000000
00000000
,
00000101
00000010
00001001
00000100
,
00000010
00010000
00000000
00100000
00000000
10000000
00000000
01100000
,
00000000
01000000
00000000
10000000
00000000
00010000
00000000
11000000
,
00000000
00100000
00000000
00001000
00000000
00000010
00000000
00000101
,
00000000
00000010
00000000
00001000
00000000
00000100
00000010
00001000
,
00100000
10000000
00010000
10000000
01000000
00100000
01000000
10000000
,
00010000
01000000
00100000
01000000
00010000
01000000
00001000
00010000
,
00000010
00001000
00000001
00000010
00000100
00001000
00000001
00000100
,
00000001
00000000
00000000
00000000
00000000
00000000
00000010
00001000
00000001
00000000
00000010
00000100
00001000
00000000
00000001
00000000
,
00000100
00000000
00000000
00000000
00000100
00000000
00000000
00000000
00000010
00000000
00000000
00010000
00000000
00000000
00100000
00000000
,
01000000
00000000
00100000
00000000
00000000
00100000
00000000
00000000
10000000
00000000
00000000
01000000
00000000
00000000
00010000
00000000
,
10000000
00000000
00010000
00000000
00110000
00000000
00000000
00000000
00100000
00000000
00000000
00001000
00000000
00000000
00000010
00000000
,
00000001
00000000
00000100
00000000
00000000
00000100
00000000
00000000
00000001
00000000
00000000
00001000
00000000
00000000
00000010
00000000
,
00000010
00000000
00000000
00000000
00001100
00000000
00000000
00000000
00001000
00000000
00000000
00000010
00000000
00000000
00001000
00000000
,
00000010
00000000
00010000
00000000
00000000
00001000
00000000
00000000
01000000
00000000
00000000
01000000
00000000
00000000
00100000
00000000
,
10000000
01000000
10000000
01000000
10000000
01000000
10000000
01000000
,
00100000
00010000
00110000
00000000
00001000
00000100
00001100
00000000
,
00000001
00001000
00000100
00000010
00000100
00000001
00001000
00000000
,
00000010
00001000
00000010
00010000
00001000
01000000
00100000
00000000
,
10000000
01000000
10000000
00010000
10000000
00100000
01010000
00000000
,
00001000
00010000
00000010
00001000
00000010
00000001
00001100
00000000
,
00000001
00001000
00000000
00000001
00001000
00000000
00000001
00000000
00001000
00000000
00000000
00000000
00000101
00000000
00000000
00000000
,
00001000
00000000
00100000
00000000
10000000
00010000
01000000
00100000
,
10000000
00010000
01000000
00000010
00001000
00000001
00000010
00000100
,
00000010
00000100
00001000
00000001
00000100
00000010
00001000
00000100
,
00010000
00000000
00100000
01000000
00010000
00100000
10000000
01000000
,
00010000
10000000
00010000
01000000
00100000
01000000
00010000
01000000
,
00010000
00000000
00001010
00000000
00000001
00001000
00000100
00000001
,
00000100
00000010
00001000
00000001
00001000
00000100
00010000
00100000
,
01000000
00010000
10000000
00100000
10000000
00010000
00100000
00010000
,
01000000
10000000
00100000
10000000
00010000
00000000
00010000
00000000
,
00001000
00000000
00000100
00000000
00000000
00000100
00000000
00000000
00000001
00000000
00000000
00000100
00000000
00000000
00000010
00000000
,
00001000
00000000
00010000
00000000
00000000
00010000
00000000
00000000
10000000
00000000
00000000
00100000
00000000
00000000
10000000
00000000
,
01000000
00000000
00000000
00000000
,
00000000
00000000
00000000
00000000
;

//---------------dance-solo - ----------------
#NOTEDATA:;
#CHARTNAME:;
#STEPSTYPE:dance-solo;
#DESCRIPTION:;
#CHARTSTYLE:;
#DIFFICULTY:Beginner;
#METER:2;
#RADARVALUES:0.131444,0.185522,0.040005,0.040005,0.000000,92.000000,88.000000,4.000000,4.000000,0.000000,0.000000,0.000000,0.000000,0.000000,0.131444,0.185522,0.040005,0.040005,0.000000,92.000000,88.000000,4.000000,4.000000,0.000000,0.000000,0.000000,0.000000,0.000000;
#CREDIT:;
#DISPLAYBPM:130.000000;
#NOTES:
000000
000000
000000
000000
,
000000
000000
000000
000000
,
000000
000000
000000
000000
,
010010
000000
000000
000000
,
000000
000000
000000
000000
,
010010
000000
000010
000010
,
000000
000000
010000
010000
,
000000
000000
000010
000010
,
000000
000000
010000
010000
,
000000
000000
001000
001000
,
000000
000000
001000
001000
,
000000
000000
010000
010000
,
000000
000000
000010
000010
,
000010
000000
010000
000000
,
001000
000000
010000
000000
,
000010
000000
001000
000000
,
000010
000000
010000
000000
,
000010
000000
010000
000000
,
000010
000000
001000
000000
,
000010
000000
010000
000000
,
001000
000000
000000
010000
,
000000
000020
000000
000000
,
000000
000000
000030
000000
,
010000
000000
002000
000000
,
000000
000000
003000
000000
,
010010
000000
010000
000000
,
000020
000000
000030
000000
,
010000
000000
001000
000000
,
000010
000000
001000
001000
,
000000
000000
000000
000000
,
000000
000000
000000
000000
,
010000
010000
000000
000000
,
000010
000010
000000
000000
,
001000
001000
000000
000000
,
001000
001000
000000
000000
,
000010
000000
000010
000000
,
010000
000000
010000
000000
,
001000
000000
001000
000000
,
010000
000000
000010
000000
,
010000
000000
000010
000000
,
001000
000000
000010
000000
,
001000
000000
000010
000000
,
010000
000000
001000
000000
,
010000
000000
010000
000000
,
000010
000000
000010
000000
,
002000
000000
000000
003000
,
000000
000000
000000
000000
,
010000
010000
010000
000000
,
000010
000010
000010
000000
,
001000
001000
001000
000000
,
000000
000010
000010
000000
,
001000
000000
000000
000000
,
001000
000000
000000
000000
,
010010
000000
000000
000000
;

//---------------dance-solo - ----------------
#NOTEDATA:;
#CHARTNAME:;
#STEPSTYPE:dance-solo;
#DESCRIPTION:;
#CHARTSTYLE:;
#DIFFICULTY:Easy;
#METER:5;
#RADARVALUES:0.271461,0.291535,0.140017,0.110013,0.000000,190.000000,176.000000,14.000000,11.000000,0.000000,0.000000,0.000000,0.000000,0.000000,0.271461,0.291535,0.140017,0.110013,0.000000,190.000000,176.000000,14.000000,11.000000,0.000000,0.000000,0.000000,0.000000,0.000000;
#CREDIT:;
#DISPLAYBPM:130.000000;
#NOTES:
000000
000000
000000
000000
,
000000
000000
000000
000000
,
000000
000000
000000
000000
,
010010
000010
000010
000010
,
010000
010000
010000
010000
,
010010
000000
000001
001000
,
100000
000000
000100
001000
,
000010
000000
010000
000100
,
100000
001000
000001
001000
,
100001
000100
010000
000010
,
000000
000001
100000
001000
,
000000
010000
000100
000010
,
001000
000100
001000
000001
,
100000
000100
001000
000010
,
000100
001000
010000
000010
,
000001
100000
000010
001000
,
000100
010000
001000
100000
,
000010
001000
000001
000100
,
001000
010000
000100
001100
,
001000
000001
000100
001000
,
010000
000010
010000
000010
,
020010
000002
000000
030000
,
000000
000000
100000
001003
,
200000
000000
300200
000000
,
000000
001000
001000
001300
,
010010
000001
000100
001000
,
200000
300200
000000
001300
,
000010
000010
010000
010000
,
000200
000000
001000
001300
,
010010
000010
000010
000010
,
010000
010000
010000
010000
,
101000
001001
001000
001000
,
000100
000100
000100
000100
,
100000
000001
000100
001000
,
010000
000010
000100
100000
,
100001
000000
000010
001000
,
000001
000100
000010
001000
,
000100
010000
001000
000100
,
000010
100000
001000
010000
,
000001
000001
010000
000100
,
100000
000010
000100
010000
,
001000
000100
000010
001000
,
000001
100000
000001
100000
,
010010
000100
001000
000001
,
200000
000000
300020
000000
,
020030
002000
000000
033000
,
000000
100001
000000
001100
,
000010
000100
100000
000000
,
010000
000001
001000
000000
,
000010
000100
001000
000000
,
000001
100000
010000
000000
,
000010
000010
000010
000010
,
010000
010000
010000
010000
,
010010
000000
000000
000000
;

//---------------dance-solo - ----------------
#NOTEDATA:;
#CHARTNAME:;
#STEPSTYPE:dance-solo;
#DESCRIPTION:;
#CHARTSTYLE:;
#DIFFICULTY:Medium;
#METER:9;
#RADARVALUES:0.431480,0.450554,0.180022,0.190023,0.000000,302.000000,284.000000,18.000000,19.000000,0.000000,0.000000,0.000000,0.000000,0.000000,0.431480,0.450554,0.180022,0.190023,0.000000,302.000000,284.000000,18.000000,19.000000,0.000000,0.000000,0.000000,0.000000,0.000000;
#CREDIT:;
#DISPLAYBPM:130.000000;
#NOTES:
000000
000000
000000
000000
,
000000
000000
000000
000000
,
000000
000000
000000
000000
,
010010
000010
000010
000010
,
010000
010000
010000
010000
,
010010
000000
000000
000000
000001
100000
001000
000000
,
101000
000000
000000
000000
100000
000100
010000
000010
,
000000
000000
000100
000001
010000
001000
100000
000010
,
000000
000100
001000
000100
000010
100000
001000
000000
,
100001
000000
000100
000000
010000
001000
010000
000010
,
000100
000000
000001
000000
100000
001000
100000
000010
,
000100
000000
001000
000000
010000
000010
100000
000000
,
000001
000100
000001
001000
000010
010000
001000
000000
,
010000
000100
001000
000000
000001
100000
000010
000000
,
000100
000010
001000
000010
010000
001000
100000
000000
,
001100
001100
000001
010000
001000
010000
000001
000000
,
000100
000010
100000
001000
010000
000001
010000
000000
,
001000
100000
000100
000000
010000
000010
000001
000000
,
100000
001000
000100
000010
010000
000001
000101
000000
,
001000
010000
000100
001000
000010
100000
000001
000000
,
000100
001000
020000
000000
000010
000000
031000
000000
,
010010
000000
000200
002000
000000
000000
000000
000000
,
000000
000000
000300
000000
000000
003002
000000
020003
,
000020
000000
030000
100000
200000
000000
000030
000000
,
000000
301000
100000
000010
010000
000001
000100
000000
,
010010
000020
020030
032000
,
103000
000100
002000
000000
000000
000001
003002
000000
,
100003
001000
010000
000010
000200
000000
000000
000301
,
200000
000000
000000
000000
001000
001000
301000
000000
,
010010
000010
000010
000010
,
010000
010000
010000
010000
,
000100
000100
100001
000000
010000
001000
010000
000001
,
000100
000000
001000
000000
100000
000010
100000
001000
,
010000
000000
000100
000000
001000
000001
001000
000100
,
100000
000000
001000
000000
010000
000001
010000
000100
,
100001
000000
000000
010000
001000
010000
000010
000000
,
000100
000010
010000
001000
100000
000001
001000
000000
,
000001
100000
000010
000000
000100
010000
001000
000000
,
010000
000010
000100
001000
100000
000001
100000
000000
,
000100
000100
000100
010000
001000
010000
000001
000000
,
100000
000100
001000
000010
000100
001000
010000
000000
,
000001
000100
000010
010000
000001
000100
001000
000000
,
100000
000010
001000
000100
010000
000001
000100
000000
,
010010
000010
001000
000000
000001
100000
000100
000000
,
002000
000000
000000
003010
020000
000000
000000
030001
,
000100
000000
000102
000000
100000
100003
001000
000000
,
000000
010000
000100
010000
000000
000010
000100
000010
,
100000
001000
010000
000100
001000
000001
010000
000000
,
002010
000000
003010
100000
001000
100000
000010
000000
,
000100
000001
010000
000001
000100
001000
100000
000000
,
000001
100100
001002
100003
,
000010
001000
000010
000100
000010
001000
000010
000000
,
010000
000100
010000
001000
010000
000100
010000
000000
,
010010
000000
000000
000000
;

//---------------dance-solo - ----------------
#NOTEDATA:;
#CHARTNAME:;
#STEPSTYPE:dance-solo;
#DESCRIPTION:;
#CHARTSTYLE:;
#DIFFICULTY:Hard;
#METER:12;
#RADARVALUES:0.618646,0.609573,0.360043,0.140017,0.445053,433.000000,397.000000,36.000000,14.000000,0.000000,0.000000,0.000000,0.000000,0.000000,0.618646,0.609573,0.360043,0.140017,0.445053,433.000000,397.000000,36.000000,14.000000,0.000000,0.000000,0.000000,0.000000,0.000000;
#CREDIT:;
#DISPLAYBPM:130.000000;
#NOTES:
000000
000000
000000
000000
,
000000
000000
000000
000000
,
000000
000000
000000
000000
,
010010
000000
000010
000000
000000
010000
000000
000000
001000
000000
000000
010000
000000
000000
000010
000000
,
000000
000000
100000
000000
000000
000001
000000
000000
000100
000000
000000
000001
000000
000000
100000
000000
,
010010
000000
000000
000000
000000
000000
000001
000100
000001
000000
100000
000000
001000
000000
000000
000000
,
101000
000000
000000
000000
000000
000000
000100
001000
000100
000000
010000
000010
000000
010000
000010
000000
,
001000
000000
000000
000000
000001
000000
000100
000000
000010
000000
100000
001000
000000
100000
001000
000000
,
010000
000000
000010
000000
000100
000000
001000
000000
100000
000000
000001
000100
000000
000001
000100
000000
,
100001
000000
000010
000000
000100
000000
001000
000000
010000
000000
000100
001000
000000
001000
000001
000000
,
000100
000000
000010
000000
100000
000000
001000
000000
010000
000000
000001
000100
000000
000100
000010
000000
,
100000
000000
000100
000000
001000
000000
000010
000000
010000
000000
001000
100000
000000
000001
000100
000000
,
000001
000000
100000
000000
001000
000000
010000
000000
000010
000000
000100
001000
000000
010000
000010
000000
,
000100
000000
000001
000000
100000
000000
001000
010000
000000
010000
000100
000000
001000
000000
000010
000000
,
100000
000000
000001
000000
001000
000100
001000
000000
000010
000000
010000
000000
001000
000000
000100
000000
,
000101
000101
101000
101000
010000
000010
001000
000100
,
100000
000000
001000
000000
100000
000000
000001
000000
000100
000010
000000
000010
010000
000000
001000
000000
,
100000
000000
000100
001000
000000
000100
010000
000000
000001
000000
000010
000000
010010
000000
001000
000000
,
100000
000000
000010
000000
001000
000000
000100
010000
000000
010000
000001
000000
011000
000000
000100
000000
,
001000
000000
001000
000001
000000
000001
010000
000000
010000
000100
000000
000100
100000
000000
000010
100000
,
000010
001000
001100
000100
010000
000010
100001
000000
,
010010
000000
000010
000000
001000
000100
200000
000000
000000
000000
000001
000000
000001
000000
000000
000000
,
001000
001000
001000
000000
300010
100020
000000
001030
,
001200
000000
000000
000000
100300
000000
000100
001000
000002
000000
010000
000000
010000
000000
000000
000000
,
000103
000001
000001
010000
011000
011000
001100
000000
,
010010
000000
000010
000100
001000
000001
100000
010000
,
000100
000000
001000
000200
100000
000000
000000
000000
001300
000000
010000
000010
010000
000000
000001
000000
,
000100
000000
000010
001000
000010
000000
100000
000002
001000
000000
000000
000000
010003
000000
000100
000000
,
001100
000000
000000
000000
000000
000000
000001
100000
001000
000000
100000
000001
001000
000000
000100
000000
,
010010
000000
000010
000000
000000
010000
000000
000000
001000
000000
000000
010000
000000
000000
000010
000000
,
000000
000000
100000
000000
000000
000001
000000
000000
001000
000000
000000
000001
000000
000000
100000
000000
,
101000
000000
001100
000000
000101
000000
000000
000000
010000
000000
000100
001000
000000
001000
000010
000000
,
100000
000000
001000
000000
000100
000000
000001
000000
010000
000000
000010
100000
000000
000010
001000
000000
,
000001
000000
000100
000000
000010
000000
010000
000000
000100
000000
100000
001000
000000
010000
000001
000000
,
001000
000000
000010
000000
100000
000000
000001
000000
000100
000000
000010
010000
000000
010000
001000
000000
,
100000
000001
100000
000000
000000
000000
000100
001000
000020
000000
010000
000000
010030
000000
000001
000100
,
001000
000000
001000
000000
100000
000100
100000
000000
000010
000000
010000
000000
000001
000000
000000
000000
,
100000
000010
100000
000010
100000
000000
000100
000000
001000
000000
000001
000000
010000
000000
000001
000000
,
000100
000010
001000
000000
000001
000000
000001
000000
100000
000000
001000
000000
010000
000000
000000
000000
,
000100
001000
000100
000000
100000
000000
001000
000000
010000
000001
001000
000000
000010
000000
100000
000000
,
001000
000000
010000
000100
010000
000100
010000
000000
000001
000000
000010
000000
100000
000000
001000
000000
,
010000
000010
000000
000100
000000
000001
100000
000000
001000
000000
010000
000010
000000
001000
000100
000000
,
100000
000000
001000
000000
010000
000000
000010
000000
000100
000000
000001
100000
000001
000000
000000
000000
,
010010
000000
001100
000000
100000
000000
000001
000000
000100
000000
001000
000000
010000
000010
000000
000010
,
002000
000000
000000
000000
000000
000000
003100
010000
000002
000000
000000
000000
000000
000000
100003
000000
,
101000
000000
000000
001002
000000
000000
010000
000000
000000
000000
000100
000000
000000
000000
001003
000000
,
000000
000000
000010
010000
000010
010000
000010
000000
000000
000000
100000
000001
100000
000001
100000
000000
,
001100
000000
010010
000000
100001
000000
100000
001000
000000
100000
000001
000000
000100
000000
000000
000000
,
000120
000000
000000
000000
100030
000100
000000
000100
002000
000000
000001
000000
003001
000000
000000
000000
,
010000
000000
010000
000000
010000
001000
000000
100000
000020
000000
000100
000000
000130
000000
000000
000000
,
000001
000101
102000
013000
,
010010
000000
000010
000000
000000
010000
000000
000000
001000
000000
000000
010000
000000
000000
000010
000000
,
000000
000000
100000
000000
000000
000001
000000
000000
000100
000000
000000
000001
000000
000000
100000
000000
,
010010
000000
000000
000000
;

//---------------dance-solo - ----------------
#NOTEDATA:;
#CHARTNAME:;
#STEPSTYPE:dance-solo;
#DESCRIPTION:;
#CHARTSTYLE:;
#DIFFICULTY:Challenge;
#METER:15;
#RADARVALUES:0.784380,0.768592,0.650078,0.100012,0.900108,549.000000,484.000000,65.000000,10.000000,0.000000,0.000000,0.000000,0.000000,0.000000,0.784380,0.768592,0.650078,0.100012,0.900108,549.000000,484.000000,65.000000,10.000000,0.000000,0.000000,0.000000,0.000000,0.000000;
#CREDIT:;
#DISPLAYBPM:130.000000;
#NOTES:
000000
000000
000000
000000
,
000000
000000
000000
000000
,
000000
000000
000000
000000
,
010010
000000
001010
000000
000000
011000
000000
000000
001010
000000
000000
011000
000000
000000
001010
000000
,
000000
000000
101000
000000
000000
001001
000000
000000
101000
000000
000000
001001
000000
000000
101000
000000
,
010010
000000
000000
000000
000000
000000
000100
001000
000010
010000
000010
010000
000010
000000
000000
101000
,
000000
000000
000000
000000
000000
100000
000100
001000
000001
000000
010000
000010
000000
010000
000010
000000
,
000000
000000
000000
000000
010000
000100
010000
000100
001000
000000
000001
100000
000000
000010
001000
000000
,
000000
000001
100000
000000
000100
001000
000100
001000
000010
010000
000010
001000
000010
010000
000010
000000
,
000000
000000
100000
000100
001000
000000
000010
010000
000001
000000
000100
000010
000000
100000
001000
000000
,
000000
010000
000100
001000
000010
100000
000001
000000
000100
000010
010000
000100
001000
000010
100000
000000
,
001000
100000
000000
000001
000000
000100
000010
000000
010000
000001
010000
000001
000000
000000
100000
000010
,
100000
000100
001000
000001
000000
000001
000100
000000
000010
010000
000010
010000
000000
001000
100000
000000
,
100001
000000
000010
000100
001000
000000
010000
000100
000000
100000
000001
100000
000010
000000
010000
001000
,
100000
000010
000100
001000
010000
000010
010000
000000
000101
000000
101000
000000
100001
000000
000010
000100
,
000000
001010
000000
001010
000000
000010
010000
000000
000100
001000
000100
001000
000000
000000
000001
100000
,
000100
001000
000010
000000
010000
000001
100000
000000
000100
001000
000000
000010
000000
000000
010000
001000
,
000100
000000
000001
100000
000000
000100
000000
001000
000010
000000
010000
000000
100100
000000
000100
000000
,
001100
000000
001100
000000
010010
000000
000001
000100
000000
001000
100000
000000
010010
000000
001100
000000
,
100000
000000
100000
001000
000000
001000
000100
000000
000100
000001
000000
000001
010000
000000
000010
010000
,
001000
100000
000001
000000
101000
000000
000001
000000
000100
000000
001000
000000
011000
000000
000000
000000
,
010010
000000
000100
000000
000001
100000
000001
000000
000100
000000
001000
000000
010000
000000
000010
000000
,
000100
001000
100000
000100
001000
000020
000000
010030
,
010200
000000
000000
000000
000000
000000
001300
000000
000000
100000
000001
100000
000002
000000
000000
000100
000000
000000
000100
000000
000000
000000
000000
000000
,
100003
101000
001100
000101
001001
100001
100100
000000
,
010010
000000
000100
000000
100000
001000
100000
001000
010000
000010
010000
000010
000100
000001
000100
000001
,
001000
000000
000100
020000
000010
000000
000000
000000
030001
000000
100000
000010
100000
001000
000000
010000
,
000000
000100
000000
001000
000001
000000
000100
001000
010000
000000
000001
000000
000100
000000
002000
000000
,
200000
000000
000000
000000
003000
000000
300010
010000
001000
000000
010000
000010
001000
000000
000100
000000
,
010010
000000
001010
000000
000000
011000
000000
000000
001010
000000
000000
011000
000000
000000
001010
000000
,
000000
000000
101000
000000
000000
001001
000000
000000
101000
000000
000000
001001
000000
000000
101000
000000
,
000011
000000
001100
000000
110000
000000
000100
001000
000010
000000
010000
001000
000000
010000
000001
000000
,
000100
000000
000010
000000
010000
001000
000000
001000
100000
000000
100000
000001
000000
000001
000100
000000
,
001000
000000
010000
000000
000100
100000
000000
100000
000010
000000
000010
010000
000000
010000
000001
000000
,
010000
000000
000010
000000
001000
000100
000000
000100
100000
000000
100000
000001
000000
000001
010000
000000
,
000100
001000
000010
000000
100000
000000
000001
010000
000001
000000
000100
001000
000000
100000
000100
010000
,
000010
000000
000010
000000
000010
000100
001000
100000
000001
010000
000000
010000
000000
000010
000100
000000
,
000010
001000
000100
001000
000010
000000
010000
000001
100000
000000
000001
100000
000000
000100
001000
000010
,
010000
001000
100000
000000
100001
000000
000001
000000
101000
000000
100001
000000
001001
000000
000010
000100
,
001000
010000
000001
000000
000001
000000
100000
000100
010000
001000
010000
000010
000000
000010
100000
000001
,
000100
000000
000010
010000
001000
010000
000010
000100
000001
100000
000001
000000
001000
000000
000010
010000
,
000100
001000
000000
001000
000001
100000
000010
000000
010000
000000
000001
100000
000000
100000
000010
000100
,
000001
000000
010000
001000
000000
100100
000000
001001
000000
010000
000100
001000
000010
100000
000001
010000
,
000010
000000
000010
000000
000010
000000
100000
001000
000000
001000
000000
010000
000100
100000
000000
000001
,
000200
000000
000010
000000
000310
000000
000001
100000
002000
000000
010000
000000
013000
000000
000100
000000
,
001100
000000
000000
010001
000000
000000
000100
000000
000001
000000
010000
000000
000010
000000
100000
000000
,
001000
000000
100000
000010
010000
000100
100000
000000
000000
000000
000001
000100
000010
010000
000001
000000
,
001000
000000
001000
000000
001000
000000
000010
010000
000000
010000
001000
000000
100000
000000
000001
000000
,
000120
000000
000000
000000
100030
000100
000000
020000
000001
000000
001000
000000
030010
000000
000000
000000
,
100000
000000
100000
000000
100000
000100
000000
010000
001000
000100
000001
000000
001000
000000
000000
000000
,
000011
010010
110000
100001
,
010010
000000
010000
000000
010000
001000
000000
001000
100000
000000
100000
000001
000000
000001
000100
000000
,
000010
000000
010000
000000
010000
001000
000000
001000
000100
000000
000100
000001
000000
000001
100000
000000
,
010010
000000
000000
000000
;

//---------------dance-single - ----------------
#NOTEDATA:;
#CHARTNAME:;
#STEPSTYPE:dance-single;
#DESCRIPTION:;
#CHARTSTYLE:;
#DIFFICULTY:Challenge;
#METER:13;
#RADARVALUES:0.607216,0.636076,0.320038,0.130016,0.460055,425.000000,393.000000,32.000000,13.000000,0.000000,0.000000,0.000000,0.000000,0.000000,0.607216,0.636076,0.320038,0.130016,0.460055,425.000000,393.000000,32.000000,13.000000,0.000000,0.000000,0.000000,0.000000,0.000000;
#CREDIT:;
#DISPLAYBPM:130.000000;
#NOTES:
// measure 0
0000
0000
0000
0000
,  // measure 1
0000
0000
0000
0000
,  // measure 2
0000
0000
0000
0000
,  // measure 3
1001
0000
0010
0000
0000
0100
0000
0000
0010
0000
0000
0100
0000
0000
0010
0000
,  // measure 4
0000
0000
1000
0000
0000
0001
0000
0000
1000
0000
0000
0001
0000
0000
1000
0000
,  // measure 5
1001
0000
0000
0000
0000
0000
0001
0100
0001
0000
1000
0010
1000
0000
0000
0000
,  // measure 6
1100
0000
0000
0000
0000
0000
1000
0100
1000
0000
0001
0010
0000
0010
0100
0000
,  // measure 7
0000
0000
0000
0000
1000
0000
0010
0100
0010
0000
0100
0001
0000
0001
1000
0000
,  // measure 8
0000
0000
0010
0000
0010
0000
1000
0001
1000
0000
0001
0100
0000
0100
0010
0000
,  // measure 9
1001
0000
0100
0000
0001
0000
0010
0000
0100
0000
1000
0010
0000
1000
0001
0000
,  // measure 10
0000
0000
0010
0000
0100
0000
1000
0000
0010
0000
0100
0001
0000
0001
1000
0000
,  // measure 11
0010
0000
0100
0000
0001
0000
1000
0000
0100
0000
0010
0001
0000
0001
1000
0000
,  // measure 12
0001
0000
1000
0010
0000
0010
0100
0000
0001
1000
0001
0000
0100
0000
0010
0000
,  // measure 13
1000
0000
0100
0010
0100
0000
1000
0000
0010
0000
0100
0000
0001
0000
1000
0000
,  // measure 14
0001
0000
0010
0000
0100
1000
0100
0000
1000
0000
0010
0000
0100
0000
0001
0000
,  // measure 15
0011
0011
0110
0100
1000
0001
1000
0010
,  // measure 16
0100
0000
0010
0000
0100
0000
0001
0000
1000
0010
0000
1000
0100
0000
0001
0000
,  // measure 17
1000
0000
0010
0100
0000
0010
1000
0000
0001
0000
0001
0000
0101
0000
0101
0000
,  // measure 18
1000
0000
0010
0000
0100
0000
0001
1000
0000
0010
0100
0000
1010
0000
1010
0000
,  // measure 19
0001
0000
0001
0010
0000
0010
0100
0000
0100
1000
0000
0000
0010
0000
1000
0001
,  // measure 20
1000
0100
1100
0100
0010
0001
0101
0000
,  // measure 21
1001
0000
0000
0000
1000
0010
0200
0000
0000
0000
0001
0000
0000
0000
1000
0000
,  // measure 22
0000
0001
0000
1000
0000
0320
0000
1030
,  // measure 23
2100
0000
0000
0000
0000
0000
3001
0100
0002
0000
0000
0000
0000
0000
0000
0000
,  // measure 24
1003
0100
0100
0010
0001
0001
0101
0000
,  // measure 25
1001
0000
0010
1000
0100
0010
0001
1000
,  // measure 26
0001
0000
0100
0020
0000
0000
0001
0000
0000
0000
1030
0010
1000
0000
0100
0000
,  // measure 27
0010
0000
0001
0000
0100
0000
0001
2000
0000
0000
0010
0000
0000
0000
3100
0000
,  // measure 28
0002
0000
0000
0000
0003
0000
1000
0001
0100
0000
0001
1000
0100
0000
0010
0000
,  // measure 29
1001
0000
0010
0000
0000
0100
0000
0000
0010
0000
0000
0100
0000
0000
0010
0000
,  // measure 30
0000
0000
1000
0000
0000
0001
0000
0000
1000
0000
0000
0001
0000
0000
1000
0000
,  // measure 31
1100
0000
0110
0000
0011
0000
0000
0000
0100
0000
0001
1000
0000
0001
1000
0000
,  // measure 32
0010
0000
1000
0000
0010
0000
0100
0000
0001
0000
1000
0100
0000
1000
0100
0000
,  // measure 33
0010
0000
0001
0000
1000
0000
0010
0000
0100
0000
0001
1000
0000
0001
1000
0000
,  // measure 34
0100
0000
0010
0000
0001
0000
0100
0000
0010
0000
1000
0001
0000
1000
0001
0000
,  // measure 35
1000
0010
0100
0000
0000
0000
0001
1000
0002
0000
0100
0000
0103
0000
0010
1000
,  // measure 36
0010
0000
0100
0000
1000
0001
0010
0000
0001
0000
1000
0000
0100
0000
0000
0000
,  // measure 37
1000
0010
1000
0010
1000
0000
0100
0000
0010
0000
0001
0000
1000
0000
0001
0000
,  // measure 38
0100
0010
1000
0000
0001
0000
0001
0000
0011
0000
1001
0000
1010
0000
1000
0100
,  // measure 39
1000
0010
0100
0000
0001
0000
0010
0000
0100
1000
0001
0000
0100
0000
0010
0000
,  // measure 40
1000
0000
0010
0000
0100
0001
0100
0000
0001
1000
0001
0000
0010
0000
0100
0000
,  // measure 41
1000
0000
0001
0010
0000
0010
0100
0000
1000
0000
0001
0000
0100
0000
0010
0100
,  // measure 42
0001
0000
1000
0000
0010
0000
0100
0000
0001
0000
0010
0000
0100
1000
0100
1000
,  // measure 43
0001
0000
0001
0000
0001
0000
0010
0100
0000
0100
1000
0000
0010
1000
0000
1000
,  // measure 44
0002
0000
0000
0000
0000
0000
0103
0001
2000
0000
0000
0000
0000
0000
3010
0000
,  // measure 45
1010
0000
0000
0201
0000
0000
0010
0000
0000
0000
1000
0000
0000
0000
0301
0000
,  // measure 46
0000
0000
0100
0010
0100
0010
0100
0000
0000
0000
0001
1000
0001
1000
0001
0000
,  // measure 47
0010
0000
0010
0000
0010
0000
0001
1000
0000
1000
0001
0000
0100
0000
0000
0000
,  // measure 48
0102
0000
0000
0000
1003
0100
0000
0100
0010
0000
0001
0000
1000
0000
0000
0000
,  // measure 49
0100
0000
0100
0000
0100
0000
1000
0001
0000
0001
1000
0000
0010
0000
0000
0000
,  // measure 50
0101
1100
0012
1003
,  // measure 51
1001
0000
0010
0000
0000
0100
0000
0000
0010
0000
0000
0100
0000
0000
0010
0000
,  // measure 52
0000
0000
1000
0000
0000
0001
0000
0000
1000
0000
0000
0001
0000
0000
1000
0000
,  // measure 53
1001
0000
0000
0000
;
