#TITLE:OCO LIMBO;
#SUBTITLE:;
#ARTIST:MYUKKE.;
#TITLETRANSLIT:;
#SUBTITLETRANSLIT:;
#ARTISTTRANSLIT:;
#GENRE:;
#CREDIT:;
#BANNER:OCO LIMBO-bn.png;
#BACKGROUND:OCO LIMBO-bg.png;
#LYRICSPATH:;
#CDTITLE:;
#MUSIC:OCO LIMBO.ogg;
#OFFSET:1.700000;
#SAMPLESTART:46.299999;
#SAMPLELENGTH:20.000000;
#LASTBEATHINT:1.225000;
#SELECTABLE:YES;
#DISPLAYBPM:105.000000;
#BPMS:0.000000=105.000000
;
#STOPS:
;
#BGCHANGES:;
#KEYSOUNDS:;
#ATTACKS:;

//---------------dance-single - ----------------
#NOTES:
     dance-single:
     :
     Hard:
     14:
     0.655361,0.711270,0.341020,0.211107,0.876908,565.000000,523.000000,42.000000,26.000000,0.000000,0.000000,0.655361,0.711270,0.341020,0.211107,0.876908,565.000000,523.000000,42.000000,26.000000,0.000000,0.000000:
0000
0000
0000
0000
,
0000
0000
0000
0000
,
0000
0000
0000
0000
0000
0000
0010
0100
,
1001
0000
0000
0000
0000
0001
1000
0000
0001
0000
0000
0010
0000
0000
0001
0100
0000
0001
0100
0000
0000
0010
0000
0000
,
1000
0000
0000
0000
0000
0000
0001
0000
1000
0010
0000
0100
0000
0000
0100
0001
0000
0000
0010
0000
0000
0100
0000
0000
,
1000
0000
0000
1000
0000
0000
1000
0000
0000
0001
0000
0100
0000
0000
0001
0100
0000
0000
0010
0000
0010
0100
0000
0000
,
0010
0000
0000
0001
0000
0000
0001
0000
0000
1000
0000
0010
0000
0000
1000
0100
0000
0000
0100
0000
0000
0000
0000
0000
,
1000
0000
0000
0001
0000
0001
0100
0000
0000
0010
0000
0100
0000
0000
0100
0001
1000
0001
1000
0001
1000
0001
0000
0000
,
0100
0000
0000
0010
0000
0000
1000
0000
0000
0001
0000
0200
0000
0000
0000
0000
0000
0000
0301
0000
0000
1000
0000
0000
,
1001
0000
0000
0000
0000
0010
1000
0000
0001
0000
0000
0100
0000
0000
0001
0100
0000
0010
1000
0000
0000
0100
0000
0000
,
2100
0000
0000
3002
0000
0000
0103
0000
0000
0000
0000
0010
1000
0000
0010
0100
0000
0000
0001
0000
0000
1000
0000
0000
,
0110
0000
0000
0000
0000
0010
0100
0000
0001
0000
0000
1000
0000
0000
1000
0100
0000
0010
0001
0000
0000
0100
0000
0000
,
0101
0000
0000
0000
0000
0000
1000
0000
0001
0010
0000
0100
0000
0000
0100
1000
0000
0000
0010
0000
0000
0100
0000
0000
,
1001
0000
0000
0000
0000
0010
1000
0000
0100
0000
0000
0010
0000
0000
0001
1000
0000
0001
0100
0000
0000
0010
0000
0000
,
2000
0000
0000
3002
0000
0000
0013
0000
0000
0000
0000
0001
0100
0000
0001
0100
0000
0000
0010
0000
0000
1000
0000
0000
,
1100
0000
0000
0000
0000
0001
0010
0000
0100
0000
0000
0010
0000
0000
0001
1000
0000
1000
0100
0000
0000
0010
0000
0000
,
0012
0000
0000
1003
0000
0000
0001
0000
0010
0001
0000
1000
0000
0000
0100
1000
0000
0000
0010
0000
0000
0100
0000
0000
,
0110
0000
0000
0000
0000
1000
0001
0000
0000
0000
0000
0010
0000
0000
0010
0001
0000
1000
0001
0000
0000
0100
0000
0000
,
1010
0000
0000
0001
0000
0000
1100
0000
0000
0001
0000
0100
0000
0000
0010
1000
0000
0010
0100
0000
0001
1000
0000
0000
,
0010
0000
0010
1000
0000
1000
0001
0000
0001
0100
0000
0100
0001
0010
0001
0010
0001
0010
0001
0010
0001
0010
0000
0000
,
0100
0000
0000
1000
0000
0000
0010
0000
0100
0001
0000
2000
0000
0000
0000
0000
3000
0000
1100
0000
0000
0101
0000
0000
,
0010
0000
0000
1001
0000
0000
0001
0000
0100
0001
0000
1000
0000
0000
1000
0010
0000
0010
0100
0000
0100
0001
0000
0000
,
0010
0000
0000
0100
0000
0000
0010
0000
0001
1000
0000
0002
0000
0000
0103
0010
0000
0100
0010
0000
1000
0001
0000
0000
,
0100
0000
0000
0011
0000
0000
1000
0000
0000
0010
0000
2000
0000
0000
3001
0100
0000
0000
0110
0000
0000
1001
0000
0000
,
0010
0000
0000
1000
0000
0000
0100
0000
1000
0001
0000
0100
0000
0000
0001
1000
0000
1000
0001
0000
0001
0010
0000
0000
,
0002
0000
0000
0203
0000
0000
0310
0000
0000
1000
0000
0100
0000
0000
1000
0001
0000
0000
0010
0000
0000
0100
0000
0000
,
1000
0000
0000
0001
0000
0000
0010
0000
0001
0100
0000
0010
0000
0000
1000
0100
0000
1000
0001
0000
0001
0100
0000
0000
,
1010
0000
0000
0010
0000
1000
0001
0000
0100
0000
0000
0001
0000
0000
0010
0001
0000
1000
0010
0000
0000
0100
0000
0100
,
0002
0000
0000
0000
0000
0000
1003
0000
0010
1000
0000
0010
0000
0000
0100
0010
0000
0000
1000
0000
0001
0100
0000
0000
,
2001
0000
0000
0000
0000
0000
0010
0000
0000
0000
0000
0000
0100
0000
0000
0000
0000
0000
3001
0000
0000
1000
0000
0001
,
0200
0000
0000
0000
0000
0000
0000
0000
0000
0310
0000
0000
2020
0000
0000
0000
0000
0030
0000
0000
0000
3001
0000
0000
,
0012
0010
1000
0103
,
0210
0000
0000
0000
0000
0000
1000
0000
0000
0000
0000
0000
0301
0000
0000
0000
0000
1000
0001
0000
0000
0100
0000
0000
,
1001
0000
0000
0000
0000
0100
0010
0000
1000
0000
0000
0001
0000
0000
0001
0100
0000
0100
0010
0000
0000
1000
0000
0000
,
1100
0000
0000
0000
0000
0010
1000
0000
0001
0010
0000
0100
0000
0000
0100
1000
0000
0000
0001
0000
0000
0010
0000
0000
,
0101
0000
0000
1100
0000
0000
0101
0000
0000
1000
0000
0001
0000
0000
0010
0001
0100
0001
0100
0001
0100
0001
0100
0001
,
1000
0000
0000
0000
0000
0000
0010
0000
0100
0010
0000
2000
0000
0000
0000
0000
0000
0000
3001
0000
0000
0011
0000
0000
,
1100
0000
0000
0000
0000
0001
0010
0000
0001
0000
0000
0100
0000
0000
0010
1000
0000
1000
0100
0000
0000
0010
0000
0000
,
0110
0000
0000
0001
0000
0001
1000
0100
1000
0001
0000
0200
0000
0000
0310
1000
0000
0010
0100
0000
0000
0001
0000
0000
,
0011
0000
0000
0000
0000
1000
0100
0000
0010
0000
0000
0001
0000
0000
1000
0001
0000
0010
0001
0000
0000
0100
0000
0000
,
1010
0000
0000
0000
0000
0000
1000
0000
0010
1000
0000
0001
0000
0000
0100
0010
0000
0000
0110
0000
0000
0101
0000
0000
,
1001
0000
0000
0000
0000
0010
0001
0000
0010
0000
0000
0100
0000
0000
1000
0010
0000
1000
0001
0000
0000
0100
0000
0000
,
0110
0000
0000
0010
0000
1000
0001
0010
0001
0100
0000
0010
0000
0000
1000
0001
0000
1000
0001
0000
0000
0100
0000
0000
,
1001
0000
0000
0000
0000
1000
0010
0000
0100
0000
0000
0001
0000
0000
0001
0010
0000
0001
0100
0000
0000
0010
0000
0000
,
2100
0000
0000
3002
0000
0000
0013
0000
0010
0001
0000
1000
0000
0000
0001
0100
0000
0000
0010
0000
0000
0100
0000
0000
,
0001
0000
0010
0001
0000
1000
0000
0000
0010
0100
0000
0001
0000
0000
1000
0100
0000
0010
0000
0000
0010
0001
1000
0010
,
0100
0000
0000
0100
0000
0001
1000
0000
1000
0010
0000
0100
0000
0000
0001
1000
0000
1000
0001
0000
0001
0100
0010
1000
,
0001
0000
0000
0101
0000
0000
1000
0000
1000
0000
0000
0010
0000
0000
0100
0010
0000
0100
0001
0000
0001
1000
0000
1000
,
0010
0000
0000
1100
0000
0000
0010
0000
0100
0001
0000
1000
0000
0000
1000
0100
0000
0100
0010
0000
0010
0001
0000
1000
,
0002
0000
0000
0203
0000
0000
0310
0000
1000
0010
0000
1000
0000
0000
0100
0010
0000
0001
0000
0000
1000
0001
0000
0100
,
0010
0000
0000
0010
0000
1000
0100
0000
1000
0001
0000
0100
0000
0000
0001
1000
0000
1000
0001
0000
0001
0100
0010
0100
,
0010
0000
0000
1001
0000
0000
1000
0000
0001
0010
0000
0100
0000
0000
1000
0001
0000
0001
1000
0000
0010
0100
0000
0100
,
0001
0000
0000
1000
0000
0000
0010
0000
0100
0010
0000
1000
0000
0000
0001
0100
0000
0000
0010
0000
0000
1000
0000
0000
,
0202
0000
0000
0000
,
0000
0000
0000
0303
;

//---------------dance-single - ----------------
#NOTES:
     dance-single:
     :
     Medium:
     11:
     0.504570,0.555680,0.292303,0.162390,0.385677,435.000000,399.000000,36.000000,20.000000,0.000000,0.000000,0.504570,0.555680,0.292303,0.162390,0.385677,435.000000,399.000000,36.000000,20.000000,0.000000,0.000000:
0000
0000
0000
0000
,
0000
0000
0000
0000
,
0000
0000
0000
0000
0000
0000
0010
0100
,
1001
0000
0000
0000
0000
0001
1000
0000
0000
0000
0000
0010
0000
0000
0010
0100
0000
0000
0001
0000
0000
1000
0000
0000
,
0100
0000
0000
0000
0000
0000
1000
0000
0000
0001
0000
1000
0000
0000
0001
0100
0000
0000
0010
0000
0000
1000
0000
0000
,
0001
0100
0001
0010
0100
1000
0010
0100
,
0001
0010
0001
1000
0010
0100
0110
0000
,
1000
1000
0010
0010
0100
0100
0001
0001
,
0010
0000
0000
0001
0000
0000
1000
0000
0000
0020
0000
0200
0000
0000
0030
0000
0000
0000
0301
0000
0000
1000
0000
0000
,
1001
0000
0000
0000
0000
0010
1000
0000
0000
0000
0000
0100
0000
0000
0010
0001
0000
0000
1000
0000
0000
0010
0000
0000
,
0100
0000
0000
0000
0000
0000
0020
0000
0000
0000
0000
1000
0000
0000
1030
0001
0000
0000
0100
0000
0000
0010
0000
0000
,
0101
0000
0000
0000
0000
0001
0010
0000
0000
0000
0000
0001
0000
0000
1000
0001
0000
0000
1000
0000
0000
0100
0000
0000
,
0010
0000
0000
0000
0000
0000
0001
0000
0000
0100
0000
0010
0000
0000
1000
0100
0000
0000
1000
0000
0000
0001
0000
0000
,
1100
0000
0000
0000
0000
1000
0001
0000
0000
0000
0000
0010
0000
0000
0001
0100
0000
0000
0010
0000
0000
1000
0000
0000
,
0001
0000
0000
0000
0000
0000
0200
0000
0000
0000
0000
0010
0000
0000
0310
1000
0000
0000
0100
0000
0000
1000
0000
0000
,
0110
0000
0000
0000
0000
0010
0001
0000
0000
0000
0000
0100
0000
0000
0010
0100
0000
0000
0001
0000
0000
1000
0000
0000
,
0010
0000
0000
0000
0000
0000
1000
0000
0000
0001
0000
0010
0000
0000
0001
0100
0000
0000
0010
0000
0000
1000
0000
0000
,
0101
0000
0000
0000
0000
0000
2000
0000
0000
0000
0000
0001
0000
0000
3001
0100
0000
0000
0010
0000
0000
1000
0000
0000
,
0100
0000
0000
0010
0000
0000
0100
0000
0000
0010
0000
0000
0001
0000
0000
0100
0000
0000
0001
0000
1000
0001
0000
0000
,
0010
0000
0000
0010
0000
0000
0001
0000
0000
0001
0000
0000
1000
0000
1000
0100
0000
0100
1000
0000
1000
0001
0000
0000
,
1010
0000
0000
0000
0000
0000
0001
0000
0000
0100
0000
0020
0000
0000
0000
0000
0000
0000
1000
0000
0000
1030
0000
0000
,
1001
0000
0000
0010
0000
0000
0100
0000
0000
0001
0000
1000
0000
0000
0001
1000
0000
0000
0010
0000
0000
0100
0000
0000
,
0001
0000
0000
0010
0000
0000
0100
0000
0000
1000
0000
0010
0000
0000
1000
0010
0000
0000
0100
0000
0000
0001
0000
0000
,
1000
0000
0000
0011
0000
0000
0001
0000
0000
0100
0000
0010
0000
0000
0100
0001
0000
0000
1000
0000
0000
0010
0000
0000
,
1000
0000
0000
0100
0000
0000
1000
0000
0000
0001
0000
0010
0000
0000
0001
0010
0000
0000
0100
0000
0000
1000
0000
0000
,
0010
0000
0000
0100
0000
0000
0010
0000
0000
0100
0000
0001
0000
0000
1000
0001
0000
0000
1000
0000
0000
0100
0000
0000
,
0010
0000
0000
0100
0000
0000
1000
0000
0000
0010
0000
0100
0000
0000
0010
0100
0000
0000
0001
0000
0000
1000
0000
0000
,
0010
0000
0000
0110
0000
0000
1001
0000
0000
0000
0000
0001
0000
0000
1000
0010
0000
0000
0100
0000
0000
0001
0000
0000
,
2000
0000
0000
0000
0000
0000
3010
0000
0000
1000
0000
0002
0000
0000
0000
0100
0000
0000
0103
0000
0000
0000
0000
0000
,
2002
0000
0000
0000
0000
0000
0003
0000
0000
0000
0000
0000
0010
0000
0000
0000
0000
0000
0000
0000
0000
3001
0000
1000
,
0002
0000
0000
0000
0000
0000
0000
0000
0000
0103
0000
0000
0202
0000
0000
0000
0003
0000
0000
0000
0000
0310
0000
0000
,
0220
0030
0001
0300
,
0012
0010
1000
0103
,
1001
0000
0000
0000
0000
1000
0010
0000
0000
0000
0000
0100
0000
0000
0100
0001
0000
0000
1000
0000
0000
0001
0000
0000
,
0010
0000
0000
0000
0000
0000
0001
0000
0000
0000
0000
0100
0000
0000
0010
1000
0000
0000
0001
0000
0000
1000
0000
0000
,
0010
0000
0000
0010
0000
0000
1000
0000
0000
1000
0000
0000
0001
0000
0001
0100
0000
0100
0001
0000
0000
1000
0000
0000
,
1100
0000
0000
0000
0000
0000
0001
0000
0000
1000
0000
0010
0000
0000
0100
0010
0000
0000
1000
0000
0000
0100
0000
0000
,
1001
0000
0000
0000
0000
0010
0001
0000
0000
0000
0000
1000
0000
0000
1000
0001
0000
0000
0100
0000
0000
0010
0000
0000
,
1000
0000
0000
0001
0000
0000
0010
0000
0001
0100
0000
0001
0000
0000
1000
0100
0000
0000
1000
0000
0000
0010
0000
0000
,
0110
0000
0000
0000
0000
0001
0100
0000
0000
0000
0000
0001
0000
0000
0010
0100
0000
0000
1000
0000
0000
0001
0000
0000
,
0010
0000
0000
0000
0000
0000
0001
0000
0000
1000
0000
0100
0000
0000
1000
0010
0000
0000
0100
0000
0000
0001
0000
0000
,
1010
0000
0000
0000
0000
1000
0001
0000
0000
0000
0000
1000
0000
0000
0010
0100
0000
0000
0001
0000
0000
0010
0000
0000
,
0100
0000
0000
1000
0000
0000
0010
0000
0100
0001
0000
0100
0000
0000
0001
0010
0000
0000
0001
0000
0000
1000
0000
0000
,
0011
0000
0000
0000
0000
1000
0100
0000
0000
0000
0000
0010
0000
0000
0010
0100
0000
0000
1000
0000
0000
0001
0000
0000
,
0010
0000
0000
0001
0000
0000
1000
0000
0000
0010
0000
0100
0000
0000
0100
0001
0000
0000
1000
0000
0000
0100
0000
0000
,
1000
0000
0000
0110
0000
0000
0001
0000
0000
0110
0000
0000
1000
0000
0000
0110
0000
0000
0010
0000
0010
0100
0000
0000
,
1000
0000
0000
0001
0000
0000
0100
0000
0010
0100
0000
0001
0000
0000
0001
1000
0000
0000
0010
0000
0000
0100
0000
0000
,
0001
0000
0000
0011
0000
0000
1010
0000
0000
0000
0000
0200
0000
0000
0000
0301
0000
0000
1000
0000
0000
0100
0000
0000
,
0010
0000
0000
1100
0000
0000
0001
0000
0000
1000
0000
0010
0000
0000
0100
0001
0000
0000
1000
0000
0000
0001
0000
0000
,
0100
0000
0000
1001
0000
0000
0010
0000
0000
1001
0000
0000
0100
0000
0000
1001
0000
0000
0010
0000
1000
0001
0000
0000
,
0110
0000
0000
0010
0000
0000
1000
0000
0100
1000
0000
0001
0000
0000
0001
1000
0000
0000
0010
0000
0000
0100
0000
0000
,
0001
0000
0000
1010
0000
0000
1100
0000
0000
0001
0000
0100
0000
0000
0100
0010
0000
0000
1000
0000
0000
0001
0000
0000
,
0010
0000
0000
0011
0000
0000
0001
0000
1000
0001
0000
2000
0000
0000
0000
0010
0000
0000
3010
0000
0000
0000
0000
0000
,
0220
0000
0000
0000
,
0000
0000
0000
0330
;

//---------------dance-single - ----------------
#NOTES:
     dance-single:
     :
     Easy:
     8:
     0.328261,0.400089,0.154271,0.064956,0.000000,283.000000,264.000000,19.000000,8.000000,0.000000,0.000000,0.328261,0.400089,0.154271,0.064956,0.000000,283.000000,264.000000,19.000000,8.000000,0.000000,0.000000:
0000
0000
0000
0000
,
0000
0000
0000
0000
,
0000
0000
0000
0000
,
0010
0100
0001
1000
,
0100
0010
0001
1000
,
0010
0100
0010
1000
,
0100
0010
0001
1000
,
0001
0100
0001
0010
,
0001
0100
1000
0010
,
1001
0000
1000
0010
1000
0000
0100
0000
,
0010
0000
0001
0000
1000
0000
0010
0100
,
0010
1000
0100
0010
,
0001
0000
1000
0100
1000
0000
0001
0000
,
0110
0000
0001
1000
0001
0000
0010
0000
,
0100
0000
1000
0000
0010
0000
0100
0001
,
0100
0010
1000
0001
,
0010
0000
0001
0100
0001
0000
1000
0000
,
1001
0000
0010
0000
1000
0100
0001
0000
,
0110
0000
0010
0000
0100
0001
1000
0000
,
0010
0010
0010
0000
0100
0100
0100
0000
,
0001
0000
1000
0000
0100
0000
1000
1000
,
1000
0010
0100
0001
,
0010
0000
0001
0100
0010
0100
0001
1000
,
0100
0000
1000
0000
0001
0000
0100
0100
,
0010
0000
1000
0000
0001
0000
0100
0010
,
1000
0000
0001
0000
1000
0010
0100
0000
,
0010
0000
1000
0000
0001
0010
0001
0100
,
1000
0001
1000
0000
0010
0100
0010
0000
,
0100
0000
0001
1000
0001
0000
0000
0000
,
2001
0000
3100
0000
,
0202
0303
2200
3300
,
1002
0000
0103
0000
,
0010
1000
0001
0100
,
0001
0000
0010
0001
0100
0000
0010
1000
,
0100
0000
1000
0000
0001
0000
0100
0010
,
0100
0000
0001
1000
0001
0010
0100
1000
,
0001
0000
1000
0010
1000
0000
0100
0100
,
0100
0000
1000
0000
0001
1000
0001
0010
,
0010
0001
0100
0001
1000
0010
1000
0100
,
0010
0000
0100
0000
0010
0001
1000
0001
,
0100
0000
0010
0100
0010
1000
1000
0001
,
0001
0000
0010
0001
0100
0100
0010
0100
,
0100
0001
1000
0100
1000
0010
0100
0001
,
0010
0000
0100
0000
0010
0001
1000
0010
,
0100
0000
0001
1000
0001
1000
0100
0000
,
1000
1100
0000
0101
0000
1100
0000
0001
,
0100
0010
0100
0000
0001
1000
0001
0100
,
0000
0110
1001
0000
0001
0100
0010
1000
,
0000
1100
0101
0000
0010
0100
0001
1000
,
0000
0110
0000
1001
0000
0110
0000
1000
,
0010
0100
0010
1000
0100
0010
0001
1000
,
0001
0100
0100
0000
0010
1000
0100
0010
,
0001
1000
0001
0100
0010
0100
0100
0000
,
0220
0000
0000
0000
,
0000
0000
0000
0330
;

//---------------dance-single - ----------------
#NOTES:
     dance-single:
     :
     Beginner:
     5:
     0.179789,0.215167,0.121793,0.000000,0.000000,155.000000,140.000000,15.000000,0.000000,0.000000,0.000000,0.179789,0.215167,0.121793,0.000000,0.000000,155.000000,140.000000,15.000000,0.000000,0.000000,0.000000:
// measure 0
0000
0000
0000
0000
,  // measure 1
0000
0000
0000
0000
,  // measure 2
0000
0000
0000
0000
,  // measure 3
0010
0000
1000
0000
,  // measure 4
0001
0000
0100
0000
,  // measure 5
0001
0001
0001
0000
,  // measure 6
1000
1000
1000
0000
,  // measure 7
0010
0010
0010
0000
,  // measure 8
0100
0100
0100
0000
,  // measure 9
1001
0000
0001
0000
,  // measure 10
0100
0000
0000
0000
,  // measure 11
0110
0000
1000
0000
,  // measure 12
0001
0000
0010
0000
,  // measure 13
1001
0000
0100
0000
,  // measure 14
1000
0000
0000
0000
,  // measure 15
0110
0000
0010
0000
,  // measure 16
0100
0000
0010
0000
,  // measure 17
0001
0001
0001
0000
,  // measure 18
0010
0010
0010
0000
,  // measure 19
0100
0100
0100
0000
,  // measure 20
1000
1000
1000
0000
,  // measure 21
1001
0010
0000
1000
,  // measure 22
0000
0001
0100
0001
,  // measure 23
0000
0010
0000
1000
,  // measure 24
0000
0100
0000
1000
,  // measure 25
0001
0010
0001
0000
,  // measure 26
1000
0000
0010
0100
,  // measure 27
0010
0010
1000
0001
,  // measure 28
0100
0000
0110
0000
,  // measure 29
1001
0000
0000
0000
,  // measure 30
0001
0000
1000
0000
,  // measure 31
0110
0000
0000
0000
,  // measure 32
0010
0010
0010
0010
,  // measure 33
1000
0010
0001
0100
,  // measure 34
1000
0000
0000
0001
,  // measure 35
0100
0010
0100
0001
,  // measure 36
1000
0001
0010
0100
,  // measure 37
1001
0000
0010
0000
,  // measure 38
1000
0001
0010
0100
,  // measure 39
0110
0000
0001
1000
,  // measure 40
0001
0100
0100
0010
,  // measure 41
1001
0000
1000
0100
,  // measure 42
1000
0010
0100
0001
,  // measure 43
0110
0000
0001
1000
,  // measure 44
0001
0010
0100
0000
,  // measure 45
1000
1000
1000
1000
,  // measure 46
0001
0100
0001
0010
,  // measure 47
0000
0100
1000
0010
,  // measure 48
0000
1000
0001
0100
,  // measure 49
0000
0001
0001
0001
,  // measure 50
1001
0010
1000
0100
,  // measure 51
0000
0110
0100
0010
,  // measure 52
0001
0100
1000
0000
,  // measure 53
1001
0000
0000
0000
;
