#TITLE:Now's The Time;
#SUBTITLE:;
#ARTIST:Brenda;
#TITLETRANSLIT:;
#SUBTITLETRANSLIT:;
#ARTISTTRANSLIT:;
#GENRE:;
#CREDIT:;
#BANNER:Now's The Time-bn.png;
#BACKGROUND:Now's The Time-bg.png;
#LYRICSPATH:;
#CDTITLE:;
#MUSIC:Now's The Time.ogg;
#OFFSET:0.000000;
#SAMPLESTART:36.460999;
#SAMPLELENGTH:15.000000;
#SELECTABLE:YES;
#DISPLAYBPM:125.000000;
#BPMS:0.000000=124.999992
;
#STOPS:
;
#BGCHANGES:;
#KEYSOUNDS:;
#ATTACKS:;

//---------------dance-single - ----------------
#NOTES:
     dance-single:
     :
     Beginner:
     1:
     0.117899,0.147948,0.070452,0.000000,0.000000,82.000000,75.000000,7.000000,0.000000,0.000000,0.000000,0.117899,0.147948,0.070452,0.000000,0.000000,82.000000,75.000000,7.000000,0.000000,0.000000,0.000000:
0000
0000
0000
0000
,
0000
0000
0000
0000
,
0000
0000
0000
0000
,
0000
0000
0000
0000
,
0000
0000
0000
0000
,
0000
0000
0000
0000
,
0001
0000
0000
0000
,
0010
0000
0000
0000
,
1000
0000
0000
0000
,
0010
0000
1001
0000
,
0001
0001
0000
0000
,
1000
0000
0001
0000
,
0001
0001
0000
0000
,
1001
0000
0000
0000
,
1000
1000
0000
0000
,
0001
0000
1000
0000
,
1000
1000
0000
0000
,
0010
0000
0000
0000
,
1001
0000
0000
0000
,
0001
0001
0001
0000
,
0001
0000
0010
0000
,
0001
0001
0001
0000
,
0010
0000
0001
0000
,
1000
1000
1000
0000
,
1000
0000
0010
0000
,
1000
1000
1000
0000
,
0010
0000
0010
0000
,
1000
0000
0000
0000
,
0001
0000
0000
0000
,
1001
0000
0000
0000
,
0001
0000
0000
0000
,
1001
0000
0000
0000
,
1000
0000
0000
0000
,
1001
0000
0000
0000
,
0001
0000
0000
0000
,
1001
0000
0000
0000
,
1000
0000
0000
0000
,
0001
0001
0001
0000
,
0001
0000
0010
0000
,
0001
0001
0001
0000
,
0010
0000
0001
0000
,
1000
1000
1000
0000
,
1000
0000
0010
0000
,
1000
1000
1000
0000
,
0010
0000
0010
0000
,
1000
0000
0000
0000
,
0001
0000
0000
0000
,
0001
0000
0000
0000
,
0010
0000
0000
0000
,
1000
0000
0000
0000
;

//---------------dance-single - ----------------
#NOTES:
     dance-single:
     :
     Easy:
     3:
     0.171097,0.225319,0.100645,0.040258,0.000000,119.000000,109.000000,10.000000,4.000000,0.000000,0.000000,0.171097,0.225319,0.100645,0.040258,0.000000,119.000000,109.000000,10.000000,4.000000,0.000000,0.000000:
0000
0000
0000
0000
,
0000
0000
0000
0000
,
0000
0000
0000
0000
,
0000
0000
0000
0000
,
0000
0000
0000
0000
,
0000
0000
0000
0000
,
0001
0000
0001
0000
,
1000
1000
0001
0001
,
1000
0000
1000
0000
,
1000
0001
1001
0000
,
0001
0001
1000
0000
,
1000
0000
0010
0000
,
0001
0001
0100
0000
,
1001
0000
0010
0000
,
1000
1000
0100
0000
,
0001
0000
0010
0000
,
1000
1000
0100
0000
,
1001
0000
0110
0000
,
2002
0000
3003
0000
,
0001
1000
0001
1000
,
0100
0000
0001
0000
,
0001
1000
0001
1000
,
0100
0000
0010
0000
,
1000
0001
1000
0001
,
0100
0000
1000
0000
,
1000
0001
1000
0001
,
0100
0000
0010
0000
,
1000
0000
0000
0000
,
0010
0000
0000
0000
,
1001
0000
0000
0000
,
0001
0010
0001
0000
,
1001
0000
0000
0000
,
1000
0000
0001
0000
,
1001
0000
0000
0000
,
0001
0010
0001
0000
,
1001
0000
0000
0000
,
1000
0000
0001
0000
,
0001
1000
0001
1000
,
0100
0000
0001
0000
,
0001
1000
0001
1000
,
0100
0000
0010
0000
,
1000
0001
1000
0001
,
0100
0000
1000
0000
,
1000
0001
1000
0001
,
0100
0000
0010
0000
,
1000
1000
1000
0000
,
0010
0010
0010
0000
,
0001
0001
0001
0000
,
0010
0010
0010
0000
,
2002
0000
0000
3003
;

//---------------dance-single - ----------------
#NOTES:
     dance-single:
     :
     Medium:
     7:
     0.263115,0.300426,0.251613,0.040258,0.000000,183.000000,158.000000,25.000000,4.000000,0.000000,0.000000,0.263115,0.300426,0.251613,0.040258,0.000000,183.000000,158.000000,25.000000,4.000000,0.000000,0.000000:
0000
0000
0000
0000
,
0000
0000
0000
0000
,
0000
0000
0000
0000
,
0000
0000
0000
0000
,
0000
0000
0000
0000
,
0000
0000
0000
0000
,
0001
0001
0101
1000
,
1000
1000
0001
1000
,
1000
1000
1100
0001
,
0001
1000
0001
0000
1001
0000
0000
0000
,
0001
1000
0100
0100
,
1000
0010
0100
0000
0010
0000
0001
0000
,
0001
1000
0100
0100
,
0101
0101
1000
1000
,
1000
0001
0100
0100
,
0001
0010
0100
0000
0010
0000
1000
0000
,
1000
0001
0100
0100
,
1100
0010
0011
0100
,
2002
3000
1000
1003
,
0101
0000
0011
0000
,
0001
1000
0100
0001
,
0101
0000
0000
0000
0100
1000
0001
0000
,
0100
0001
0010
1000
,
1100
0000
1010
0000
,
1000
0001
0100
1000
,
1100
0000
0000
0000
0100
0001
1000
0000
,
0100
1000
0010
0001
,
1000
0000
1000
0000
,
0010
0000
0010
0000
,
1001
0100
0100
0000
,
0001
0010
1000
0000
,
1001
0100
0100
0000
,
1000
0000
0010
0000
0001
0001
0001
0000
,
1001
0100
0100
0000
,
0001
0010
1000
0000
,
1001
0100
0100
0000
,
1000
0000
0010
0000
0001
0001
0001
0000
,
0101
0000
0011
0000
,
0001
1000
0100
0001
,
0101
0000
0000
0000
0100
1000
0001
0000
,
0100
0001
0010
1000
,
1100
0000
1010
0000
,
1000
0001
0100
1000
,
1100
0000
0100
1001
,
0100
1000
0010
0001
,
1000
1000
1000
0100
,
0010
0010
0010
0001
,
0001
0001
0001
0100
,
0010
0010
0010
1000
,
0002
0000
0000
2000
0000
0000
3003
0000
;

//---------------dance-single - ----------------
#NOTES:
     dance-single:
     :
     Hard:
     9:
     0.353696,0.400568,0.100645,0.040258,0.130839,246.000000,236.000000,10.000000,4.000000,0.000000,0.000000,0.353696,0.400568,0.100645,0.040258,0.130839,246.000000,236.000000,10.000000,4.000000,0.000000,0.000000:
0000
0000
0000
0000
,
0000
0000
0000
0000
,
0000
0000
0000
0000
,
0000
0000
0000
0000
,
0000
0000
0000
0000
,
0000
0000
0000
0000
,
1000
0000
1000
0000
1000
0100
0001
0000
,
0001
0000
0001
0100
1000
0100
0001
0000
,
0001
0000
0001
0000
0001
0100
1000
0000
,
1000
0001
1000
0010
1001
0000
0000
0000
,
1000
0001
0100
0000
0100
0000
0100
0000
,
0001
0000
0010
0000
0100
0000
0000
0000
0010
0000
0001
0000
1000
0100
0000
0000
,
1000
0001
0100
0000
0100
0000
0100
0000
,
1100
0000
1100
0000
0001
0010
0001
0000
,
0001
1000
0100
0000
0100
0000
0100
0000
,
1000
0000
0010
0000
0100
0000
0000
0000
0010
0000
1000
0000
0001
0100
0000
0000
,
0001
1000
0100
0000
0100
0000
0100
0000
,
0101
0100
0010
0000
1010
1000
0100
0001
,
2002
0003
0100
3100
,
1000
0100
0000
0000
1000
0010
0000
0000
1000
0100
0000
0000
1000
0010
0000
0000
,
1000
0001
0000
0010
0000
0100
1000
0001
,
1000
0100
0000
0000
1000
0010
0000
0000
0100
0000
0001
0000
1000
0000
0100
0000
,
0000
1000
0000
0010
0000
0100
0001
0100
,
0001
0100
0000
0000
0001
0010
0000
0000
0001
0100
0000
0000
0001
0010
0000
0000
,
0001
1000
0000
0010
0000
0100
0001
1000
,
0001
0100
0000
0000
0001
0010
0000
0000
0100
0000
1000
0000
0001
0000
0100
0000
,
0000
0001
0000
0010
0000
0100
1000
0100
,
0001
0100
0001
0100
,
0010
0100
0010
1000
,
1001
0100
0010
0000
,
1000
0000
0010
0000
1000
0001
0001
0000
,
1001
0100
0010
0000
,
0001
0000
0010
0000
1000
1000
1000
0000
,
1001
0100
0010
0000
,
1000
0000
0010
0000
1000
0001
0001
0000
,
1001
0100
0010
0000
,
0001
0000
0010
0000
1000
1000
1000
0000
,
1000
0100
0000
0000
1000
0010
0000
0000
1000
0100
0000
0000
1000
0010
0000
0000
,
1000
0001
0000
0010
0000
0100
1000
0001
,
1000
0100
0000
0000
1000
0010
0000
0000
0100
0000
0001
0000
1000
0000
0100
0000
,
0000
1000
0000
0010
0000
0100
0001
0100
,
0001
0100
0000
0000
0001
0010
0000
0000
0001
0100
0000
0000
0001
0010
0000
0000
,
0001
1000
0000
0010
0000
0100
0001
1000
,
0001
0100
0000
0000
0001
0010
0000
0000
0100
0000
1000
0000
0001
0000
0100
0000
,
0000
0001
0000
0010
0000
0100
1000
0100
,
0001
0100
0001
0100
,
0010
0100
0010
1000
,
1000
0100
1000
0100
,
0010
0100
0010
0001
,
2000
0000
0000
0002
0000
0000
3003
0000
;

//---------------dance-single - ----------------
#NOTES:
     dance-single:
     :
     Challenge:
     12:
     0.546359,0.525745,0.201290,0.080516,0.256645,380.000000,360.000000,20.000000,8.000000,0.000000,0.000000,0.546359,0.525745,0.201290,0.080516,0.256645,380.000000,360.000000,20.000000,8.000000,0.000000,0.000000:
// measure 0
0000
0000
0000
0000
,  // measure 1
0000
0000
0000
0000
,  // measure 2
0000
0000
0000
0000
,  // measure 3
0000
0000
0000
0000
,  // measure 4
0000
0000
0000
0000
,  // measure 5
0000
0000
0000
0000
,  // measure 6
1000
0000
1000
0000
0001
0010
0000
0100
1000
0000
0010
0000
0100
0000
0001
0000
,  // measure 7
0010
0000
0001
0000
0100
0000
0010
0000
1000
0100
1000
0000
0001
0000
0100
0000
,  // measure 8
0010
0000
0010
0000
1000
0100
0000
0010
0001
0000
1000
0000
0010
0000
0100
0000
,  // measure 9
0001
0000
0010
0000
0100
0000
1000
0000
0001
0100
0001
0000
2000
0000
0000
0000
,  // measure 10
3010
0000
0100
0000
0001
0000
0010
0000
0100
1000
0000
1000
0001
0000
0100
0000
,  // measure 11
0010
0000
1000
0000
0001
0000
0010
0000
0110
0000
0110
0000
0001
1000
0000
0000
,  // measure 12
0100
0000
1000
0000
0010
0000
0100
0000
0001
1000
0000
0001
0010
0000
0100
0000
,  // measure 13
1000
0000
0010
0000
1000
0000
0001
0000
1001
0000
1001
0000
0010
0100
0000
0000
,  // measure 14
1000
0000
0001
0000
0010
0000
0001
0000
0100
0010
0000
0010
1000
0000
0100
0000
,  // measure 15
1000
0000
0100
0000
1000
0000
0010
0000
1010
0000
1010
0000
0001
0100
0000
0000
,  // measure 16
0001
0000
0010
0000
0100
0000
1000
0000
0010
1000
0000
0001
0010
0000
0100
0000
,  // measure 17
1100
0101
0011
1100
,  // measure 18
1001
0001
0010
0100
1000
0010
0100
0001
,  // measure 19
1000
0000
0010
0100
0001
0000
0010
0100
1000
0000
0001
0000
0100
0000
0010
0000
,  // measure 20
1000
0100
0010
0001
1000
0010
0100
0001
,  // measure 21
0010
0000
0001
1000
0100
0000
1000
0001
0010
0000
0100
0000
1000
0000
0001
0000
,  // measure 22
0010
0001
0100
0001
1000
0100
1000
0010
,  // measure 23
0100
0000
0001
0010
0100
0000
1000
0001
0010
0000
0001
0000
1000
0000
0100
0000
,  // measure 24
0010
0100
0010
0001
1000
0100
1000
0001
,  // measure 25
0100
0000
0001
1000
0100
0000
0010
1000
0100
0000
0010
0000
0001
0000
1000
0000
,  // measure 26
0001
1000
0010
0100
0001
0010
0100
1000
,  // measure 27
0010
1000
0000
0010
1000
0000
0102
0000
0000
0000
0010
0000
0013
0000
0000
0000
,  // measure 28
1001
1100
0110
0011
,  // measure 29
1000
0010
0000
0000
0010
0100
0000
0100
0001
0000
0010
0000
0100
0000
1000
0000
,  // measure 30
0010
0100
0010
1000
0100
0010
0001
1000
,  // measure 31
0001
0010
0000
0000
0010
0100
0000
0100
1000
0000
0010
0000
1000
0000
0001
0000
,  // measure 32
0010
0001
0100
0001
2000
0100
3100
0000
,  // measure 33
0010
0100
0000
0000
0100
0001
0000
0001
1000
0000
0010
0000
1000
0000
0100
0000
,  // measure 34
0010
0001
1000
0010
1000
0100
0010
0001
,  // measure 35
0010
0001
0000
0000
0001
1000
0000
1000
0100
0000
1000
0000
0010
0000
0100
0000
,  // measure 36
0001
1000
0010
1000
0002
0100
0103
0000
,  // measure 37
0010
0000
1000
0001
0010
0000
0100
1000
0001
0000
1000
0000
0010
0000
0100
0000
,  // measure 38
0001
0010
0001
1000
0100
0010
0100
1000
,  // measure 39
0010
0000
0100
0001
0010
0000
0100
1000
0010
0000
0100
0000
0001
0000
1000
0000
,  // measure 40
0010
1000
0001
0010
0100
1000
0001
0100
,  // measure 41
0001
0000
0010
0100
1000
0000
0001
1000
0010
0000
1000
0000
0100
0000
0010
0000
,  // measure 42
0100
0010
0001
0100
0010
1000
0001
1000
,  // measure 43
0001
0000
0010
0001
0100
0000
0001
1000
0100
0000
1000
0000
0010
0000
0100
0000
,  // measure 44
0010
1000
0100
0010
0001
1000
0001
0100
,  // measure 45
0001
0010
0000
0001
0010
0000
1200
0000
0000
0000
1000
0000
1300
0000
0000
0000
,  // measure 46
0001
0010
0100
1000
0010
0100
0001
0000
,  // measure 47
0100
0010
0000
0100
0010
0000
2001
0000
0000
0000
0001
0000
3001
0000
0000
0000
,  // measure 48
1000
0001
0010
0100
1000
0001
0100
0000
,  // measure 49
0011
0010
0100
2200
0000
0000
3300
0000
;
