#VERSION:0.83;
#TITLE:Mythomane;
#SUBTITLE:;
#ARTIST:Hylen;
#TITLETRANSLIT:;
#SUBTITLETRANSLIT:;
#ARTISTTRANSLIT:;
#GENRE:;
#ORIGIN:;
#CREDIT:;
#BANNER:Mythomane-bn.png;
#BACKGROUND:Mythomane-bg.png;
#PREVIEWVID:;
#JACKET:Mythomane-jacket.png;
#CDIMAGE:;
#DISCIMAGE:;
#LYRICSPATH:;
#CDTITLE:;
#MUSIC:Mythomane.ogg;
#OFFSET:0.000000;
#SAMPLESTART:76.191002;
#SAMPLELENGTH:20.000000;
#SELECTABLE:YES;
#BPMS:0.000=180.000,
201.000=177.000,
202.000=176.000,
203.000=174.000,
204.000=173.000,
205.000=171.000,
206.000=170.000,
207.000=167.000,
208.000=166.000,
209.000=165.000,
210.000=163.000,
211.000=161.000,
212.000=158.000,
214.000=156.000,
215.000=154.000,
216.000=153.000,
217.000=151.000,
218.000=149.000,
219.000=147.000,
220.000=145.000,
221.000=144.000,
222.000=143.000,
222.500=142.000,
223.000=140.000;
#STOPS:;
#DELAYS:;
#WARPS:;
#TIMESIGNATURES:0.000=4=4;
#TICKCOUNTS:0.000=4;
#COMBOS:0.000=1;
#SPEEDS:0.000=1.000=0.000=0;
#SCROLLS:0.000=1.000;
#FAKES:;
#LABELS:0.000=Song Start;
#BGCHANGES:;
#KEYSOUNDS:;
#ATTACKS:
;

//---------------dance-single - ----------------
#NOTEDATA:;
#CHARTNAME:;
#STEPSTYPE:dance-single;
#DESCRIPTION:;
#CHARTSTYLE:;
#DIFFICULTY:Beginner;
#METER:3;
#RADARVALUES:0.131159,0.199076,0.090902,0.000000,0.000000,101.000000,91.000000,10.000000,0.000000,0.000000,0.000000,0.000000,0.000000,0.000000,0.131159,0.199076,0.090902,0.000000,0.000000,101.000000,91.000000,10.000000,0.000000,0.000000,0.000000,0.000000,0.000000,0.000000;
#CREDIT:;
#NOTES:
0000
0000
0000
0000
,
0000
0000
0000
0000
,
0000
0000
0000
0000
,
0000
0000
0000
0000
,
0000
0000
0000
0000
,
0000
0000
0000
0000
,
0000
0000
0000
0000
,
0000
0000
0000
0000
,
0000
0000
0000
0000
,
0001
0000
0000
0000
,
0001
0000
0000
0000
,
1000
0000
0000
0000
,
1000
0000
0000
0000
,
0001
0000
0000
0000
,
0001
0000
0000
0000
,
1000
0000
0000
0000
,
1000
0000
0000
0000
,
0001
0000
0010
0000
,
0100
0000
0000
0000
,
0001
0000
0100
0000
,
0010
0000
0000
0000
,
1000
0000
0010
0000
,
0100
0000
0000
0000
,
1000
0000
0100
0000
,
0010
0000
0000
0000
,
1001
0000
0000
0000
,
0001
0000
0001
0000
,
0001
0000
0000
0000
,
0010
0000
0010
0000
,
0010
0000
0000
0000
,
0100
0000
0100
0000
,
0100
0000
0000
0000
,
1000
0000
1000
0000
,
1000
0000
0000
0000
,
0100
0000
0100
0000
,
0100
0000
0000
0000
,
0010
0000
0010
0000
,
0010
0000
0000
0000
,
0001
0000
0001
0000
,
0001
0000
0000
0000
,
0010
0000
0000
0000
,
1001
0000
0000
0000
,
0001
0000
0000
0000
,
1001
0000
0000
0000
,
1000
0000
0000
0000
,
1001
0000
0000
0000
,
0001
0000
0000
0000
,
1001
0000
0000
0000
,
1000
0000
0000
0000
,
1001
0000
0000
0000
,
0000
0000
0000
0000
,
1001
0000
0000
0000
,
0000
0000
0000
0000
,
1001
0000
0000
0000
,
0000
0000
0000
0000
,
1001
0000
0000
0000
,
0000
0000
0000
0000
,
0001
0000
0010
0000
,
1000
1000
1000
0000
,
0001
0000
0100
0000
,
1000
1000
1000
0000
,
1000
0000
0010
0000
,
0001
0001
0001
0000
,
1000
0000
0100
0000
,
0001
0001
0001
0000
,
0001
0000
0100
0000
,
0010
0000
1000
0000
,
1000
0000
0100
0000
,
0010
0000
0001
0000
,
0001
0000
0100
0000
,
0001
0000
0100
0000
,
1000
0000
0010
0000
,
1000
0000
0000
0000
,
1001
0000
0000
0000
,
0000
0000
0000
0000
;

//---------------dance-single - ----------------
#NOTEDATA:;
#CHARTNAME:;
#STEPSTYPE:dance-single;
#DESCRIPTION:;
#CHARTSTYLE:;
#DIFFICULTY:Easy;
#METER:6;
#RADARVALUES:0.235048,0.298615,0.090902,0.036361,0.000000,181.000000,171.000000,10.000000,4.000000,0.000000,0.000000,0.000000,0.000000,0.000000,0.235048,0.298615,0.090902,0.036361,0.000000,181.000000,171.000000,10.000000,4.000000,0.000000,0.000000,0.000000,0.000000,0.000000;
#CREDIT:;
#NOTES:
0000
0000
0000
0000
,
0000
0000
0000
0000
,
0000
0000
0000
0000
,
0000
0000
0000
0000
,
0000
0000
0000
0000
,
0000
0000
0000
0000
,
0000
0000
0000
0000
,
0000
0000
0000
0000
,
0000
0000
0000
0000
,
1000
0100
0100
0000
,
0001
0100
0100
0000
,
1000
0010
0010
0000
,
0001
0010
0010
0000
,
1000
0100
0100
0000
,
0001
0100
0100
0000
,
1000
0010
0010
0000
,
0001
0010
0010
0000
,
1000
0100
0010
0000
,
0001
0100
0010
0000
,
1000
0010
0100
0000
,
0001
0010
0100
0000
,
1000
0100
0010
0000
,
0001
0100
0010
0000
,
1000
0010
0100
0010
,
0000
0000
0000
0000
,
1001
0000
0001
0001
,
1000
1000
0001
0000
,
1001
0000
2000
0000
,
3000
0001
1000
0000
,
0110
0000
0010
0010
,
0100
0100
0010
0000
,
0110
0000
0200
0000
,
0000
0000
0300
0000
,
1001
0000
0001
0001
,
0100
0100
0100
0000
,
1001
0000
1000
1000
,
0100
0100
0100
0000
,
1001
0000
0001
0001
,
0010
0010
0010
0000
,
1001
0000
0020
0000
,
0000
0000
0130
0000
,
0001
0001
0100
0000
,
1000
1000
0100
0000
,
0001
0001
0010
0000
,
1000
1000
0010
0000
,
0001
0001
0100
0000
,
1000
1000
0100
0000
,
0001
0001
0010
0000
,
1000
1000
0010
0000
,
0001
0000
0100
0000
,
0001
0000
0100
0000
,
1000
0000
0100
0000
,
1000
0000
0100
0000
,
0001
0000
0100
0000
,
1000
0000
0100
0000
,
0001
0000
0100
0000
,
0000
0000
0000
0000
,
1001
0000
0010
0010
,
0010
0000
0100
0100
,
0100
0000
0001
0001
,
0001
0000
1000
1000
,
1000
0000
0010
0010
,
0010
0000
0100
0100
,
0100
0000
0002
0000
,
0000
0000
1003
0000
,
0001
1000
0001
0000
,
1000
0001
1000
0000
,
0010
0100
0010
0000
,
0100
0010
0100
0000
,
0001
0010
0001
0010
,
0001
0100
0001
0000
,
1000
0010
1000
0010
,
1000
0100
1000
0000
,
1001
0000
0000
0000
,
0000
0000
0000
0000
;

//---------------dance-single - ----------------
#NOTEDATA:;
#CHARTNAME:;
#STEPSTYPE:dance-single;
#DESCRIPTION:;
#CHARTSTYLE:;
#DIFFICULTY:Medium;
#METER:10;
#RADARVALUES:0.399971,0.630409,0.281798,0.054541,0.013635,308.000000,277.000000,31.000000,6.000000,0.000000,0.000000,0.000000,0.000000,0.000000,0.399971,0.630409,0.281798,0.054541,0.013635,308.000000,277.000000,31.000000,6.000000,0.000000,0.000000,0.000000,0.000000,0.000000;
#CREDIT:;
#NOTES:
0000
0000
0000
0000
,
0000
0000
0000
0000
,
0000
0000
0000
0000
,
0000
0000
0000
0000
,
0000
0000
0000
0000
,
0000
0000
0000
0000
,
0000
0000
0000
0000
,
0000
0000
0000
0000
,
0000
0000
0000
0000
,
1000
0000
0100
0100
0000
0000
1001
0000
,
0001
0000
0100
0100
0000
0000
1001
0000
,
1000
0000
0010
0010
0000
0000
1001
0000
,
0001
0000
0010
0010
0000
0000
1001
0000
,
1000
0000
0100
0100
0000
0000
0110
0000
,
0001
0000
0100
0100
0000
0000
0110
0000
,
1000
0000
0010
0010
0000
0000
0110
0000
,
0001
0000
0010
0010
0000
0000
0110
0000
,
0001
0100
0010
0000
0100
0000
0000
0000
,
1000
0100
0010
0000
0100
0000
0000
0000
,
0001
0010
0100
0000
0010
0000
0000
0000
,
1000
0010
0100
0000
0010
0000
0000
0000
,
0001
0100
0010
0000
0100
0000
0000
0000
,
1000
0100
0010
0000
0100
0000
0000
0000
,
0001
0010
0100
0000
0010
0000
0000
0000
,
0000
0000
0000
0000
,
1001
0000
0001
0010
0001
0000
1000
0010
,
1000
0001
1000
0000
,
1001
0000
0001
0100
0002
0000
0000
0000
,
0003
0000
0001
0100
0001
0000
0000
0000
,
1001
0000
1000
0010
1000
0000
0001
0010
,
0001
0000
1000
0010
1000
0000
0000
0000
,
1001
0000
1000
0100
2000
0000
0000
0000
,
0000
0000
3010
0100
,
0110
0000
0001
0010
0001
0000
0100
0001
,
0100
0000
0001
0010
0001
0000
0000
0000
,
1001
0000
1000
0010
1000
0000
0100
1000
,
0100
0000
1000
0010
1000
0000
0000
0000
,
1001
0000
0010
0100
0010
0000
0100
0000
,
0001
0000
1000
0001
0000
0000
1000
0000
0000
0001
0000
0000
,
1001
0000
0010
0100
0020
0000
0000
0000
,
0000
0000
0130
0100
,
1001
0000
0001
0010
0100
0000
0000
0000
,
1001
0000
1000
0010
0100
0000
0000
0000
,
1001
0000
0001
0100
0010
0000
0000
0000
,
1001
0000
1000
0100
0010
0000
0000
0000
,
1001
0000
0001
0010
0100
0000
0000
0000
,
1001
0000
1000
0010
0100
0000
0000
0000
,
1001
0000
0001
0100
0010
0000
0000
0000
,
1001
0000
1000
0100
0010
0000
0000
0000
,
0001
0100
1000
0000
,
0001
0100
0010
0000
,
0001
0100
1000
0000
,
0001
0100
0010
0000
,
1000
0100
0001
0000
,
1000
0100
0010
0000
,
1000
0100
0001
0100
,
0000
0000
0000
0000
,
1001
0000
0010
1000
0010
0000
0100
0001
,
0100
0000
0001
1000
0001
0000
0000
0000
,
1001
0000
0010
0001
0010
0000
0100
1000
,
0100
0000
1000
0001
1000
0000
0000
0000
,
0110
0000
0010
1000
0100
0010
0100
0000
,
0110
0000
0010
0001
0100
0010
0200
0000
,
0310
0000
1000
0100
0002
0000
0000
0000
,
0000
0000
0103
1000
0001
0000
0001
0000
,
0110
0000
0001
1000
0100
0000
1000
0001
,
0100
0000
0001
1000
0100
0000
0100
0000
,
0110
0000
0001
1000
0010
0000
1000
0001
,
0010
0000
0001
1000
0010
0000
0010
0000
,
1000
0100
0001
0100
1000
0100
0001
0100
,
1000
0010
0001
0010
1000
0010
0001
0010
,
1000
0100
1000
0100
0010
0001
0010
0001
,
1000
0001
1000
0000
0001
1000
0001
0000
0020
0000
0000
0000
0130
0000
0000
0000
,
1001
0000
0000
0000
,
0000
0000
0000
0000
;

//---------------dance-single - ----------------
#NOTEDATA:;
#CHARTNAME:;
#STEPSTYPE:dance-single;
#DESCRIPTION:;
#CHARTSTYLE:;
#DIFFICULTY:Hard;
#METER:13;
#RADARVALUES:0.594762,0.895844,0.381790,0.109083,0.149989,458.000000,416.000000,42.000000,12.000000,0.000000,0.000000,0.000000,0.000000,0.000000,0.594762,0.895844,0.381790,0.109083,0.149989,458.000000,416.000000,42.000000,12.000000,0.000000,0.000000,0.000000,0.000000,0.000000;
#CREDIT:;
#NOTES:
0000
0000
0000
0000
,
0000
0000
0000
0000
,
0000
0000
0000
0000
,
0000
0000
0000
0000
,
0000
0000
0000
0000
,
0000
0000
0000
0000
,
0000
0000
0000
0000
,
0000
0000
0000
0000
,
0000
0000
0000
0000
,
0001
0000
1000
1000
0100
0000
1001
0000
,
0001
0000
1000
1000
0010
0000
1001
0000
,
1000
0000
0001
0001
0010
0000
1001
0000
,
1000
0000
0001
0001
0100
0000
1001
0000
,
0010
0000
0100
0100
0001
0000
0110
0000
,
0010
0000
0100
0100
1000
0000
0110
0000
,
0100
0000
0001
0001
1000
0000
0110
0000
,
0100
0000
1000
1000
0001
0000
0110
0000
,
0001
0100
0010
0000
0001
0100
0010
0000
,
0001
0100
1000
0000
0001
0100
0010
0000
,
1000
0100
0010
0000
1000
0100
0010
0000
,
1000
0100
0001
0000
1000
0100
0010
0000
,
0001
0010
0100
0000
0001
0010
0100
0000
,
0001
0010
1000
0000
0001
0010
0100
0000
,
1000
0010
1000
0010
0100
0001
0010
1000
,
0000
0000
0000
0000
,
1001
0000
0001
0010
0001
0100
0001
0100
,
0001
0010
0001
0010
0001
0100
0001
0000
,
1001
0000
1000
0010
2000
0100
0000
0100
,
0000
3010
1000
0010
1000
0100
0100
0100
,
0110
0000
0100
0010
0100
1000
0100
1000
,
0100
0010
0100
0010
0100
1000
0100
0000
,
0110
0000
0010
0001
0020
0100
0000
0100
,
0000
0001
0000
0031
0010
0010
0010
0000
,
0110
0000
0001
0010
0100
1000
0001
0010
,
0100
1000
0001
0010
0100
1000
0100
0000
,
1001
0000
1000
0010
0100
0001
1000
0010
,
0100
0001
1000
0010
0100
0001
1000
0000
,
1001
0000
0100
0010
0100
0010
0100
0010
,
0100
0000
0010
0100
0000
0010
0100
0000
0010
0100
0000
0000
,
1001
0000
1000
0100
0020
0100
0000
0100
,
0000
0100
0000
0130
0010
0001
1000
0000
,
0010
0000
1000
0100
0010
0000
0110
0000
,
1001
0000
0001
0100
0010
0000
0110
0000
,
1001
0000
1000
0100
0010
0000
0110
0000
,
1001
0000
0001
0100
0010
0000
0110
0000
,
1001
0000
1000
0001
0010
0000
0110
0000
,
1001
0000
0001
1000
0010
0000
0110
0000
,
1001
0000
1000
0001
0100
0000
0110
0000
,
1001
0000
0001
1000
0100
0000
0110
0000
,
0001
0010
0100
0000
1000
0010
0100
0000
,
0001
0010
0100
0000
1000
0010
0100
0000
,
0001
0100
0010
0000
1000
0100
0010
0000
,
0001
0100
0010
0000
1000
0100
0010
0000
,
0001
0010
0001
0010
0100
1000
0100
1000
,
0001
0010
0001
0010
0100
1000
0100
1000
,
0001
1000
0001
1000
0001
1000
0001
1000
,
0000
0000
0000
0000
,
1001
0000
0000
0000
0010
0100
0010
0000
1000
0000
0001
0000
0010
0100
0010
0000
,
0001
0000
1000
0000
0010
0100
0010
0000
1000
0001
1000
0000
0220
0000
0330
0000
,
1001
0000
0000
0000
0010
0100
0010
0000
0001
0000
1000
0000
0010
0100
0010
0000
,
1000
0000
0001
0000
0010
0100
0010
0000
0001
0000
0000
0000
0001
0000
0000
0000
,
1001
0000
0000
0000
1000
0100
1000
0000
0100
0010
0001
0000
0100
0001
0100
0000
,
0001
0100
0010
0000
1000
0010
1000
0000
0001
0010
0001
0000
2000
0000
0000
0000
,
3001
0000
0000
0000
0100
0010
1000
0000
0220
0000
0000
0000
0000
0000
0000
0000
,
0000
0000
0330
0000
0001
0100
0010
0000
1000
0000
0100
0000
0001
0000
0000
0000
,
1100
0000
0000
0000
0010
1000
0100
0000
0001
0000
0100
0000
1000
0000
0010
0000
,
0100
0000
0001
0000
0010
0001
0100
0000
0010
0000
0010
0000
0220
0000
0330
0000
,
1001
0000
0000
0000
0001
1000
0100
0000
0010
0001
0100
0000
0010
1000
0100
0000
,
1000
0001
0100
0000
0010
0100
0010
0000
0100
0000
0000
0000
0100
0000
0000
0000
,
0010
1000
0010
1000
0100
0010
0100
0010
,
0001
0100
0001
0100
0010
1000
0010
1000
,
0100
0010
0001
0000
0010
0100
1000
0000
0010
0100
0001
0000
0100
0010
1000
0000
,
0001
1000
0001
1000
0001
1000
0001
1000
0001
0000
1001
0000
0220
0000
0330
0000
,
1001
0000
0000
0000
,
0000
0000
0000
0000
;

//---------------dance-double - ----------------
#NOTEDATA:;
#CHARTNAME:;
#STEPSTYPE:dance-double;
#DESCRIPTION:;
#CHARTSTYLE:;
#DIFFICULTY:Easy;
#METER:6;
#RADARVALUES:0.222062,0.298615,0.127263,0.036361,0.000000,171.000000,157.000000,14.000000,4.000000,0.000000,0.000000,0.000000,0.000000,0.000000,0.222062,0.298615,0.127263,0.036361,0.000000,171.000000,157.000000,14.000000,4.000000,0.000000,0.000000,0.000000,0.000000,0.000000;
#CREDIT:;
#NOTES:
00000000
00000000
00000000
00000000
,
00000000
00000000
00000000
00000000
,
00000000
00000000
00000000
00000000
,
00000000
00000000
00000000
00000000
,
00000000
00000000
00000000
00000000
,
00000000
00000000
00000000
00000000
,
00000000
00000000
00000000
00000000
,
00000000
00000000
00000000
00000000
,
00000000
00000000
00000000
00000000
,
10000000
01000000
10000000
00000000
,
00010000
00000000
00001000
00000000
,
00010000
00001000
00010000
00000000
,
00000100
00000000
00000001
00000000
,
00000001
00000100
00000001
00000000
,
00001000
00000000
00010000
00000000
,
00001000
00010000
00001000
00000000
,
01000000
00000000
10000000
00000000
,
10000000
00100000
01000000
00000000
,
00001000
00000000
00010000
00000000
,
00001000
00010000
00000100
00000000
,
00000010
00000000
00000001
00000000
,
00000001
00000100
00000010
00000000
,
00010000
00000000
00001000
00000000
,
00010000
00001000
01000000
00010000
,
00000000
00000000
00000000
00000000
,
10010000
00000000
00100000
00100000
,
00100000
00000000
00011000
00000000
,
00011000
00000000
00000020
00000000
,
00000030
00000000
00011000
00000000
,
00011000
00000000
01000000
01000000
,
01000000
00000000
00011000
00000000
,
00011000
00000000
00000200
00000000
,
00000000
00000000
00000300
00000000
,
00001001
00000000
00000001
00000010
,
00000100
00000100
00000100
00000000
,
00000110
00000000
00001000
00010000
,
00100000
00100000
00100000
00000000
,
10010000
00000000
10000000
00100000
,
01000000
01000000
01000000
00000000
,
01100000
00000000
00002000
00000000
,
00000000
00000000
00013000
00000000
,
00000100
00000001
00000100
00000000
,
00001000
00000000
00010000
00000000
,
00100000
10000000
00100000
00000000
,
00010000
00000000
00001000
00000000
,
00010000
01000000
00010000
00000000
,
01000000
00000000
00010000
00000000
,
00001000
00000010
00001000
00000000
,
00010000
00000000
00001000
00000000
,
00000100
00000000
00000001
00000000
,
00000010
00000000
00000010
00000000
,
00001000
00000000
00010000
00000000
,
00100000
00000000
00100000
00000000
,
10000000
00000000
01000000
00000000
,
00010000
00000000
00010000
00000000
,
00001000
00000000
00000100
00000000
,
00000000
00000000
00000000
00000000
,
00001001
00000000
00000010
00000010
,
00000010
00000000
00001000
00001000
,
00001000
00000000
00000100
00000100
,
00000100
00000000
00010000
00000000
,
00011000
00000000
00100000
00100000
,
00100000
00000000
00010000
00010000
,
00010000
00000000
02000000
00000000
,
00000000
00000000
03100000
00000000
,
10000000
01000000
10000000
00000000
,
10000000
01000000
00100000
00000000
,
00001000
00010000
00001000
00000000
,
00001000
00010000
00000010
00000000
,
00000100
00000001
00000100
00000001
,
00000010
00000001
00000010
00000100
,
00010000
00001000
00010000
00001000
,
00100000
00010000
01000000
00000000
,
01100000
00000000
00000000
00000000
,
00000000
00000000
00000000
00000000
;

//---------------dance-double - ----------------
#NOTEDATA:;
#CHARTNAME:;
#STEPSTYPE:dance-double;
#DESCRIPTION:;
#CHARTSTYLE:;
#DIFFICULTY:Medium;
#METER:10;
#RADARVALUES:0.385686,0.597229,0.254527,0.054541,0.009090,297.000000,269.000000,28.000000,6.000000,0.000000,0.000000,0.000000,0.000000,0.000000,0.385686,0.597229,0.254527,0.054541,0.009090,297.000000,269.000000,28.000000,6.000000,0.000000,0.000000,0.000000,0.000000,0.000000;
#CREDIT:;
#NOTES:
00000000
00000000
00000000
00000000
,
00000000
00000000
00000000
00000000
,
00000000
00000000
00000000
00000000
,
00000000
00000000
00000000
00000000
,
00000000
00000000
00000000
00000000
,
00000000
00000000
00000000
00000000
,
00000000
00000000
00000000
00000000
,
00000000
00000000
00000000
00000000
,
00000000
00000000
00000000
00000000
,
00000001
00000000
00000100
00000100
00000000
00000000
00001001
00000000
,
00000010
00000000
00010000
00010000
00000000
00000000
00011000
00000000
,
00001000
00000000
01000000
01000000
00000000
00000000
10010000
00000000
,
10000000
00000000
01000000
01000000
00000000
00000000
10010000
00000000
,
10000000
00000000
00100000
00100000
00000000
00000000
10010000
00000000
,
01000000
00000000
00001000
00001000
00000000
00000000
00011000
00000000
,
00010000
00000000
00000010
00000010
00000000
00000000
00001001
00000000
,
00000001
00000000
00000010
00000010
00000000
00000000
00001001
00000000
,
00000001
00000100
00001000
00000000
00010000
00000000
00000000
00000000
,
00001000
00000010
00001000
00000000
00010000
00000000
00000000
00000000
,
00001000
00010000
00100000
00000000
00010000
00000000
00000000
00000000
,
00001000
00010000
01000000
00000000
10000000
00000000
00000000
00000000
,
10000000
00100000
00010000
00000000
00001000
00000000
00000000
00000000
,
00010000
01000000
00010000
00000000
00001000
00000000
00000000
00000000
,
00010000
00001000
00000100
00000000
00000001
00000000
00000000
00000000
,
00000000
00000000
00000000
00000000
,
00000110
00000001
00001000
00000001
,
00001000
00010000
00001000
00000000
,
00011000
00010000
02000000
00000000
,
03000000
00100000
10000000
00000000
,
01100000
10000000
00010000
10000000
,
00010000
00001000
00010000
00000000
,
00011000
00001000
00000200
00000000
,
00000000
00000000
00000310
00000010
,
00000110
00000000
00000001
00000010
00000100
00000000
00001000
00000000
,
00000010
00000100
00001000
00000000
00010000
00000000
00100000
00000000
,
01000000
00000000
00010000
00100000
01000000
00000000
10000000
00000000
,
01000000
00100000
00010000
00000000
01000000
00000000
00100000
00000000
,
00010000
00000000
00001000
00000100
00000010
00000000
00001000
00000000
,
00000001
00000000
00001000
00000001
00000000
00000000
00001001
00000000
00000000
00000100
00000000
00000000
,
00000001
00000000
00000010
00000100
00000020
00000000
00000000
00000000
,
00000000
00000000
00001030
00001000
,
00011000
00000000
00010000
01000000
00100000
00000000
00000000
00000000
,
01100000
00000000
00100000
01000000
00010000
00000000
00000000
00000000
,
00011000
00000000
00001000
00000100
00000010
00000000
00000000
00000000
,
00000110
00000000
00000010
00000100
00001000
00000000
00000000
00000000
,
00011000
00000000
00010000
00100000
01000000
00000000
00000000
00000000
,
01100000
00000000
01000000
00100000
00010000
00000000
00000000
00000000
,
00011000
00000000
00001000
00000010
00000100
00000000
00000000
00000000
,
00000110
00000000
00000100
00000010
00001000
00000000
00000000
00000000
,
00010000
01000000
10000000
00000000
,
00010000
00100000
10000000
00000000
,
00001000
00000100
00000001
00000000
,
00001000
00000010
00000001
00000000
,
00001000
00010000
10000000
00000000
,
00010000
00001000
00000001
00000000
,
00000001
00001000
00010000
10000000
,
00000000
00000000
00000000
00000000
,
10010000
00000000
00100000
00100000
01000000
00000000
00001000
00001000
,
00010000
00000000
00000100
00001000
00000010
00000000
00000000
00000000
,
00001001
00000000
00000100
00000100
00000010
00000000
00010000
00010000
,
00001000
00000000
01000000
00010000
00100000
00000000
00000000
00000000
,
01100000
00000000
10000000
01000000
00100000
00010000
00100000
00000000
,
00001000
00010000
00000100
00001000
00000100
00000010
00000200
00000000
,
00000310
00000000
00000001
00000100
00002000
00000000
00000000
00000000
,
00000000
00000000
00013000
01000000
10000000
00000000
10000000
00000000
,
10010000
00000000
00100000
10000000
00010000
00000000
00100000
00001000
,
00010000
00000000
00000010
00001000
00000001
00000000
00000001
00000000
,
00001001
00000000
00000100
00000001
00001000
00000000
00000100
00010000
,
00001000
00000000
01000000
00010000
10000000
00000000
10000000
00000000
,
00100000
10000000
00100000
10000000
01000000
00010000
01000000
00010000
,
00001000
00010000
00001000
00010000
00001000
00000010
00001000
00000010
,
00000001
00000100
00001000
00000100
00000001
00000100
00000010
00001000
,
00000100
00000000
00010000
00000000
00001000
00010000
00001000
00000000
00020000
00000000
00000000
00000000
00031000
00000000
00000000
00000000
,
00011000
00000000
00000000
00000000
,
00000000
00000000
00000000
00000000
;

//---------------dance-double - ----------------
#NOTEDATA:;
#CHARTNAME:;
#STEPSTYPE:dance-double;
#DESCRIPTION:;
#CHARTSTYLE:;
#DIFFICULTY:Hard;
#METER:13;
#RADARVALUES:0.535026,0.796306,0.327249,0.063632,0.090902,412.000000,376.000000,36.000000,7.000000,0.000000,0.000000,0.000000,0.000000,0.000000,0.535026,0.796306,0.327249,0.063632,0.090902,412.000000,376.000000,36.000000,7.000000,0.000000,0.000000,0.000000,0.000000,0.000000;
#CREDIT:;
#NOTES:
00000000
00000000
00000000
00000000
,
00000000
00000000
00000000
00000000
,
00000000
00000000
00000000
00000000
,
00000000
00000000
00000000
00000000
,
00000000
00000000
00000000
00000000
,
00000000
00000000
00000000
00000000
,
00000000
00000000
00000000
00000000
,
00000000
00000000
00000000
00000000
,
00000000
00000000
00000000
00000000
,
10000000
00000000
01000000
01000000
00100000
00000000
00011000
00000000
,
00000000
00000000
00000100
00000100
00000010
00000000
00001001
00000000
,
00000001
00000000
00000100
00000100
00000010
00000000
00011000
00000000
,
00000000
00000000
01000000
01000000
00100000
00000000
10010000
00000000
,
10000000
00000000
01000000
01000000
00100000
00000000
00011000
00000000
,
00000000
00000000
00000100
00000100
00000010
00000000
00001001
00000000
,
00000001
00000000
00000100
00000100
00000010
00000000
00011000
00000000
,
00000000
00000000
01000000
01000000
00100000
00000000
10010000
00000000
,
10000000
01000000
00010000
00000000
10000000
01000000
00100000
00000000
,
10000000
00100000
00010000
00001000
00000100
00000001
00001000
00000000
,
00000001
00000100
00001000
00000000
00000001
00000100
00000010
00000000
,
00000001
00000010
00001000
00010000
01000000
10000000
00010000
00000000
,
10000000
01000000
00010000
00000000
10000000
01000000
00100000
00000000
,
10000000
00100000
00010000
00001000
00000100
00000001
00001000
00000000
,
00000001
00000100
00001000
00000000
00000001
00000100
00000010
00000000
,
00000000
00000000
00000000
00000000
,
10010000
00000000
10000000
01000000
00100000
00010000
00100000
00010000
,
01000000
00001000
01000000
00001000
00010000
00001000
00010000
00000000
,
00001000
00000000
00010000
00000100
00002000
00000010
00000000
00000010
,
00000000
00003100
00001000
00000100
00000010
00000001
00000001
00000001
,
00001001
00000000
00000001
00000100
00000010
00001000
00000010
00001000
,
00000100
00010000
00000100
00010000
00001000
00010000
00001000
00000000
,
00010000
00000000
00001000
01000000
00020000
00100000
00000000
00100000
,
00000000
01000000
00000000
01030000
00100000
00100000
00100000
00000000
,
01100000
00000000
10000000
01000000
00100000
00010000
10000000
00100000
,
01000000
00001000
00010000
00000010
00000100
00000001
00001000
00000000
,
00001001
00000000
00000001
00000010
00000100
00001000
00000010
00001000
,
00000100
00010000
00001000
00100000
00010000
01000000
00100000
00000000
,
10010000
00000000
10000000
01000000
00100000
01000000
00100000
00001000
,
00010000
00000000
00001000
00010000
00000000
00001000
00010000
00000000
00001000
00010000
00000000
00000000
,
00011000
00000000
00001000
00000010
00000002
00000010
00000000
00000010
,
00000000
00000010
00000000
00000013
00000100
00001000
00000010
00000000
,
00000100
00000000
00000001
00000100
00001000
00000000
00011000
00000000
,
00010100
00000000
00001000
00010000
00100000
00000000
01100000
00000000
,
01000000
00000000
10000000
01000000
00010000
00000000
00011000
00000000
,
01001000
00000000
00010000
00001000
00000010
00000000
00000110
00000000
,
00000100
00000000
00000001
00000010
00001000
00000000
00011000
00000000
,
00010010
00000000
00001000
00010000
01000000
00000000
01100000
00000000
,
01000000
00000000
10000000
00100000
00010000
00000000
00011000
00000000
,
00101000
00000000
00010000
00001000
00000100
00000000
00000110
00000000
,
00000001
00001000
00010000
00000000
,
00001000
00010000
10000000
00000000
,
10000000
00010000
00001000
00000000
,
00010000
00001000
00000001
00000000
,
00000010
00000100
01000000
00000000
,
01000000
00100000
00000010
00000000
,
00000001
00000010
00000100
00001000
00010000
00100000
01000000
10000000
,
00000000
00000000
00000000
00000000
,
10010000
00000000
00000000
00000000
01000000
00100000
01000000
00000000
00010000
00000000
00001000
00000000
00000100
00000010
00000100
00000000
,
00001000
00000000
00010000
00000000
00100000
01000000
00100000
00000000
10000000
00000000
00000000
00000000
01100000
00000000
00000000
00000000
,
10010000
00000000
00000000
00000000
00100000
01000000
00100000
00000000
00010000
00000000
00001000
00000000
00000010
00000100
00000010
00000000
,
00001000
00000000
00010000
00000000
01000000
00100000
01000000
00000000
10000000
00000000
00000000
00000000
01100000
00000000
00000000
00000000
,
10010000
00000000
10000000
01000000
00100000
00010000
00001000
00001000
,
00000100
00000010
00000001
00000100
00001000
00000001
00000020
00000000
,
00010030
00000000
00001000
01000000
02200000
00000000
00000000
00000000
,
00000000
00000000
03300000
00000000
10000000
01000000
00100000
00000000
00010000
00000000
00100000
00000000
10000000
00000000
00000000
00000000
,
00110000
00000000
00000000
00000000
01000000
10000000
00100000
00000000
00010000
00000000
00001000
00000000
00000100
00000000
00001000
00000000
,
00010000
00000000
00001000
00000000
00000010
00000001
00000100
00000000
00000010
00000000
00000000
00000000
00000110
00000000
00000000
00000000
,
00001001
00000000
00000000
00000000
00000100
00000001
00000010
00000000
00001000
00000000
00010000
00000000
00001000
00000000
00000100
00000000
,
00001000
00000000
00010000
00000000
00100000
10000000
01000000
00000000
00100000
00000000
00000000
00000000
00100000
00000000
00000000
00000000
,
01000000
10000000
00100000
01000000
00010000
00010000
00100000
00100000
,
00001000
00010000
00000100
00001000
00000010
00000010
00000100
00000100
,
00000001
00000010
00000001
00000000
00000010
00000100
00001000
00000000
00000100
00010000
00001000
00000000
00100000
00010000
01000000
00000000
,
00100000
10000000
00100000
10000000
00100000
00000000
01000000
00000000
00001000
00000000
00011000
00000000
00000200
00000000
00000000
00000000
,
00000310
00000000
00000000
00000000
,
00000000
00000000
00000000
00000000
;

//---------------dance-single - ----------------
#NOTEDATA:;
#CHARTNAME:;
#STEPSTYPE:dance-single;
#DESCRIPTION:;
#CHARTSTYLE:;
#DIFFICULTY:Challenge;
#METER:16;
#RADARVALUES:0.831108,1.106169,0.609047,0.118173,0.586321,640.000000,573.000000,67.000000,13.000000,0.000000,0.000000,0.000000,0.000000,0.000000,0.831108,1.106169,0.609047,0.118173,0.586321,640.000000,573.000000,67.000000,13.000000,0.000000,0.000000,0.000000,0.000000,0.000000;
#CREDIT:;
#NOTES:
// measure 0
0000
0000
0000
0000
,  // measure 1
0000
0000
0000
0000
,  // measure 2
0000
0000
0000
0000
,  // measure 3
0000
0000
0000
0000
,  // measure 4
0000
0000
0000
0000
,  // measure 5
0000
0000
0000
0000
,  // measure 6
0000
0000
0000
0000
,  // measure 7
0000
0000
0000
0000
,  // measure 8
0000
0000
0000
0000
0000
0000
0010
0010
,  // measure 9
1001
0000
0001
0010
0001
0100
1000
0000
,  // measure 10
1100
0000
0010
1000
0100
0010
0001
0000
,  // measure 11
0101
0000
0001
1000
0100
0010
0100
0000
,  // measure 12
0110
0000
1000
0001
0010
0100
1000
0000
,  // measure 13
0101
0000
0010
0100
0010
1000
0100
0000
,  // measure 14
0110
0000
0100
1000
0001
0100
0010
0000
,  // measure 15
1010
0000
1000
0001
1000
0100
0010
0000
,  // measure 16
0011
0000
0001
0100
1000
0010
1000
0000
,  // measure 17
1001
0100
0010
0001
1000
0100
0010
0001
,  // measure 18
1000
0100
0010
0001
1000
0100
0010
0001
,  // measure 19
1001
0010
0100
1000
0001
0010
0100
1000
,  // measure 20
0001
0010
0100
1000
0001
0010
0100
1000
,  // measure 21
1100
1000
0010
1000
0001
0100
0001
0010
,  // measure 22
0100
1000
0010
1000
0001
0100
0001
0010
,  // measure 23
0001
0000
1000
0000
0010
0000
0100
0000
0010
1000
0010
1000
0001
0100
0001
0100
,  // measure 24
0010
0100
0001
1000
0100
0000
0100
0000
,  // measure 25
1001
0000
1000
0100
1000
0010
0100
0001
,  // measure 26
0010
0001
0100
0001
1000
0100
0202
0303
,  // measure 27
0011
0000
0000
0000
0100
0000
0010
0000
1000
0100
1000
0100
1000
0001
1000
0001
,  // measure 28
0100
0010
0100
0010
0100
0000
0010
0000
1000
0000
0001
0000
0100
0000
0100
0000
,  // measure 29
0101
0000
0010
1000
0001
0100
0001
0010
,  // measure 30
0001
0010
0001
0010
0100
1000
0100
1000
0010
0000
0100
0000
0220
0000
0330
0000
,  // measure 31
1010
0000
0000
0000
0001
0000
0100
0000
0010
1000
0010
1000
0010
1000
0010
1000
,  // measure 32
0001
0010
0001
0010
0100
1000
0100
1000
0001
0100
0010
0000
2020
0000
3030
0000
,  // measure 33
1001
0000
0010
1000
0100
0010
0100
1000
,  // measure 34
0001
0100
0001
0000
1000
0100
1000
0000
0010
0100
0010
0000
0100
0000
0000
0000
,  // measure 35
0101
0000
0001
1000
0010
1000
0100
0010
,  // measure 36
0001
1000
0001
0000
0100
1000
0100
0000
0010
1000
0010
0000
0100
0000
0000
0000
,  // measure 37
1100
0000
1000
0001
0010
0100
1000
0001
,  // measure 38
1000
0100
1000
0001
0100
0001
1000
0100
0010
0001
0000
0000
,  // measure 39
0011
0000
0000
0000
0001
0000
0010
0000
0100
1000
0100
1000
0100
0010
0100
0010
,  // measure 40
0100
1000
0100
1000
0001
0100
0001
0100
0001
0010
0100
1000
0010
0000
0000
0000
,  // measure 41
1001
0000
0001
0100
1000
0100
0001
0000
,  // measure 42
0011
0000
1000
0100
0001
0100
1000
0000
,  // measure 43
1100
0000
0001
0010
1000
0010
0001
0000
,  // measure 44
0110
0000
1000
0010
0001
0010
1000
0000
,  // measure 45
0011
0000
0100
0001
0100
1000
0100
0000
,  // measure 46
1010
0000
0010
0001
0010
1000
0010
0000
,  // measure 47
1001
0000
0100
1000
0100
0001
0100
0000
,  // measure 48
0011
0000
0010
1000
0010
0001
0010
0000
,  // measure 49
1001
0100
0010
0001
1000
0100
0010
0001
,  // measure 50
1000
0100
0010
0001
1000
0100
0010
0001
,  // measure 51
1001
0010
0100
1000
0001
0010
0100
1000
,  // measure 52
0001
0010
0100
1000
0001
0010
0100
1000
,  // measure 53
1100
0100
1000
0001
1000
0100
1000
0001
,  // measure 54
1000
0100
1000
0001
1000
0100
1000
0001
,  // measure 55
0011
0000
0011
0000
1100
0000
1100
0000
0001
1000
0010
0100
0001
0010
0100
1000
,  // measure 56
0020
0000
0000
0000
0030
0000
0110
1001
,  // measure 57
0110
0000
0000
0000
0010
1000
0010
0100
0001
0010
0100
1000
0010
0100
0010
0100
,  // measure 58
0001
1000
0100
0010
0001
0100
0010
1000
0100
0010
0001
1000
0200
0000
0300
0000
,  // measure 59
1100
0000
0000
0000
0001
0100
0010
0100
0010
1000
0100
0010
0001
0100
0001
1000
,  // measure 60
0001
1000
0100
0010
0100
1000
0001
0000
1001
0000
0000
0000
1001
0000
0000
0000
,  // measure 61
0011
0000
0000
0000
0001
1000
0100
0010
0100
1000
0100
1000
0001
1000
0001
0010
,  // measure 62
0001
0100
0010
0100
0010
1000
0001
0010
0100
1000
0001
1000
0200
0000
0300
0000
,  // measure 63
1001
0000
0000
0000
0010
1000
0100
0010
0001
0100
0001
0100
0001
1000
0001
1000
,  // measure 64
0001
0010
0001
0010
0100
0010
0100
0010
0001
0000
0101
0000
2002
0000
3003
0000
,  // measure 65
1100
0000
0000
0000
1000
0001
0010
0001
0100
0001
0010
0100
1000
0100
1000
0100
,  // measure 66
1000
0001
0010
0100
1000
0001
0100
0001
0010
0001
0010
0100
2000
0000
3000
0000
,  // measure 67
1010
0000
0000
0000
0001
1000
0010
1000
0100
0010
0001
0010
0001
0100
0010
1000
,  // measure 68
0001
0010
0100
1000
0100
0010
0001
0000
1001
0000
0000
0000
1001
0000
0000
0000
,  // measure 69
0101
0101
1100
1100
0011
0011
1010
1010
,  // measure 70
1100
1100
0011
0011
0101
0101
1010
1010
,  // measure 71
1000
0100
0010
0001
0100
0010
1000
0001
0010
0001
0100
0001
1000
0100
1000
0010
,  // measure 72
1000
0001
0010
0001
0100
0010
1000
0100
0010
0001
0100
0010
1000
0100
1000
0001
,  // measure 73
0200
0000
0000
0300
;
