#VERSION:0.83;
#TITLE:Musk Up;
#SUBTITLE:;
#ARTIST:The Blue Light Specialists;
#TITLETRANSLIT:;
#SUBTITLETRANSLIT:;
#ARTISTTRANSLIT:;
#GENRE:;
#ORIGIN:;
#CREDIT:;
#BANNER:Musk Up-bn.png;
#BACKGROUND:Musk Up-bg.png;
#PREVIEWVID:;
#JACKET:Musk Up-jacket.png;
#CDIMAGE:;
#DISCIMAGE:;
#LYRICSPATH:;
#CDTITLE:;
#MUSIC:Musk Up.ogg;
#OFFSET:-0.013000;
#SAMPLESTART:36.013000;
#SAMPLELENGTH:20.000000;
#SELECTABLE:YES;
#BPMS:0.000=160.000;
#STOPS:;
#DELAYS:;
#WARPS:;
#TIMESIGNATURES:0.000=4=4;
#TICKCOUNTS:0.000=4;
#COMBOS:0.000=1;
#SPEEDS:0.000=1.000=0.000=0;
#SCROLLS:0.000=1.000;
#FAKES:;
#LABELS:0.000=Song Start;
#BGCHANGES:;
#KEYSOUNDS:;
#ATTACKS:
;

//---------------dance-single - ----------------
#NOTEDATA:;
#CHARTNAME:;
#STEPSTYPE:dance-single;
#DESCRIPTION:;
#CHARTSTYLE:;
#DIFFICULTY:Easy;
#METER:4;
#RADARVALUES:0.265362,0.360907,0.060572,0.161525,0.000000,184.000000,178.000000,6.000000,16.000000,0.000000,0.000000,0.000000,0.000000,0.000000,0.265362,0.360907,0.060572,0.161525,0.000000,184.000000,178.000000,6.000000,16.000000,0.000000,0.000000,0.000000,0.000000,0.000000;
#CREDIT:;
#NOTES:
0000
0000
0000
0000
,
0000
0000
0000
0000
,
0000
0000
0000
0000
,
0000
0000
0000
0000
,
0000
0001
0000
0001
,
0000
1000
0000
1000
,
0000
0001
0000
1000
,
0000
0010
0000
0100
,
0001
0010
0000
0100
,
1000
0001
0000
1000
,
0010
0100
0000
0001
,
1000
0100
0000
0010
,
0001
1000
0000
0010
,
0100
0001
0000
0010
,
0100
1000
0010
0001
,
0010
0100
0100
0010
,
0220
0000
0330
0000
,
0001
0010
0000
1000
,
0010
0100
0000
1000
,
0001
0100
0000
1000
,
0100
0010
0000
1000
,
0001
0010
0000
0100
,
0001
0100
1000
0010
,
0001
0010
1000
0001
,
1002
0000
0103
0000
,
0020
0000
1030
0000
,
0200
0000
0310
0000
,
0002
0000
0103
0000
,
2000
0000
3010
0000
,
0200
0000
0301
0000
,
0020
0000
0130
0000
,
2000
0000
3010
0000
,
1001
0001
1000
0000
,
0010
1000
0100
0000
,
0001
0100
0010
0000
,
0001
1000
0100
0000
,
0010
0001
1000
0000
,
0100
0010
1000
0000
,
0010
0001
0100
0000
,
0001
1000
0001
0000
,
0010
0010
0001
0000
,
1000
1000
0100
0100
,
1000
0001
1000
0000
,
0000
0100
0010
0000
,
0001
0001
1000
0000
,
0010
0010
0100
0100
,
0010
1000
0010
0100
,
0001
0100
0010
0000
,
1000
0001
0100
0000
,
0010
0001
0010
1000
,
0001
0100
0010
0100
,
0000
0001
1000
0001
,
0010
0100
1000
0000
,
0001
0010
0001
0100
,
0020
0130
2000
3001
,
0110
0010
0010
0010
,
2002
0000
3003
0000
,
0001
1000
0000
0100
,
0010
0001
0000
1000
,
0010
0100
0000
0001
,
1000
0100
0000
0010
,
0001
1000
0000
0001
,
0100
0010
1000
0100
,
0010
0001
0100
0010
,
2002
0000
0000
0000
,
3003
0000
0000
0000
;

//---------------dance-single - ----------------
#NOTEDATA:;
#CHARTNAME:;
#STEPSTYPE:dance-single;
#DESCRIPTION:;
#CHARTSTYLE:;
#DIFFICULTY:Medium;
#METER:9;
#RADARVALUES:0.461499,0.557765,0.171620,0.302859,0.000000,320.000000,303.000000,17.000000,30.000000,0.000000,0.000000,0.000000,0.000000,0.000000,0.461499,0.557765,0.171620,0.302859,0.000000,320.000000,303.000000,17.000000,30.000000,0.000000,0.000000,0.000000,0.000000,0.000000;
#CREDIT:;
#NOTES:
0000
0000
0000
0000
,
0000
0000
0000
0000
,
0000
0000
0000
0000
,
0000
0000
0000
0000
,
0000
0000
0001
0001
0000
0000
0100
0000
,
0000
0000
0010
0010
0000
0000
1000
0000
,
0000
0000
0100
0100
0000
0000
0010
0000
,
0000
0000
0001
0002
0000
2003
0000
3010
,
0100
0000
0001
0010
0200
0000
0301
0000
,
0100
0000
1000
0001
0200
0000
0310
0000
,
0001
0000
0010
1000
0200
0000
0310
0000
,
0001
0000
1000
0010
0200
0000
0301
0000
,
0010
0000
0001
0100
2000
0000
3100
0000
,
0010
0000
0100
0010
0002
0000
0013
0000
,
1000
0100
0010
0000
0001
0100
0010
0000
,
1000
0001
0010
0000
0001
1000
0100
0000
,
2002
3003
1000
0001
,
0010
0000
0001
0010
1000
0000
0010
0000
,
0001
0000
0100
0001
0010
0000
0001
0000
,
1000
0000
0010
1000
0100
0000
1000
0000
,
0100
0000
0001
0100
1000
0000
0100
0000
,
0010
0000
0001
1000
0100
0000
0010
0000
,
0001
0100
1000
0000
0100
0001
0010
0000
,
1000
0010
0001
0000
1000
0100
0010
0000
,
2002
3003
0001
1000
,
1010
0000
0010
0100
0001
0000
0010
0000
,
1000
0000
0010
0001
1000
0000
0010
0000
,
0101
0000
0100
0010
1000
0000
0001
0000
,
0010
0000
1000
0010
0001
0000
1000
0000
,
0110
0000
0010
1000
0100
0000
0001
0000
,
0100
1000
0001
0000
0100
0010
1000
0000
,
0001
0010
0100
0000
1000
0001
0010
0000
,
2002
3003
1000
0001
,
0110
0000
0010
2000
0000
0000
3001
0000
,
0100
0000
0001
0020
0000
0000
0130
0000
,
1100
0000
0001
0020
0000
0000
1030
0000
,
0010
0000
0001
0200
0000
0000
0310
0000
,
1001
0000
0100
0020
0000
0000
0130
0000
,
0001
0010
0001
0000
1000
0100
1000
0000
,
0010
1000
0010
0000
0100
0001
0100
0000
,
1010
0000
0101
0000
1000
0100
0000
0010
,
0000
0001
0000
1000
0000
0010
0100
0001
,
1000
0000
0001
0000
0100
0001
0010
0000
,
0001
0000
1000
0000
0010
1000
0100
0000
,
1100
0000
0101
0000
0010
0100
0000
0001
,
0000
1000
0000
0100
0000
0010
0001
1000
,
0100
0010
0100
0000
0001
0100
1000
0000
,
0020
0031
0020
1030
,
1010
0000
0011
0000
0100
0010
0000
1000
,
0000
0100
0000
0010
0000
0001
0100
0010
,
1000
0001
1000
0000
0001
0100
0001
0000
,
1000
0010
1000
0000
0010
0100
0010
0000
,
0110
0000
1001
0000
0010
1000
0000
0100
,
0000
0001
0000
0100
0000
1000
0010
0001
,
0010
1000
0010
0010
0100
0001
0100
0100
,
0001
0010
0100
1000
0010
1000
0001
0100
,
1000
0000
0100
0001
0020
0000
1030
0000
,
0010
0000
0001
1000
0200
0000
0301
0000
,
0100
0000
1000
0010
0002
0000
0013
0000
,
1000
0000
0001
0100
2000
0000
3100
0000
,
0010
0000
1000
0001
0200
0000
1300
0000
,
0100
0000
0001
0010
2000
0000
3010
0000
,
0001
1000
0010
0100
0001
1000
0100
0010
,
0001
0100
0010
2000
0000
3002
0000
0103
,
0020
0000
0000
0000
,
0030
0000
0000
0000
;

//---------------dance-single - ----------------
#NOTEDATA:;
#CHARTNAME:;
#STEPSTYPE:dance-single;
#DESCRIPTION:;
#CHARTSTYLE:;
#DIFFICULTY:Hard;
#METER:11;
#RADARVALUES:0.483132,0.590575,0.060572,0.514860,0.020191,335.000000,329.000000,6.000000,51.000000,0.000000,0.000000,0.000000,0.000000,0.000000,0.483132,0.590575,0.060572,0.514860,0.020191,335.000000,329.000000,6.000000,51.000000,0.000000,0.000000,0.000000,0.000000,0.000000;
#CREDIT:;
#NOTES:
0000
0000
0000
0000
,
0000
0000
0000
0000
,
0000
0000
0000
0000
,
0000
0000
0000
0000
,
2000
0000
0001
0001
0000
0000
3001
0000
,
0020
0000
0100
0100
0000
0000
0130
0000
,
2000
0000
0010
0010
0000
0000
3010
0000
,
0002
0000
1000
2003
0000
3200
0000
0310
,
0001
0000
1000
0000
0010
0020
0000
0032
,
0000
0023
0000
2030
0000
3100
0010
0001
,
1000
0000
0001
0000
0100
0100
0000
0010
,
0000
0001
0000
0010
0000
1000
0100
0001
,
0100
0000
1000
0000
0100
0200
0000
0302
,
0000
0203
0000
2300
0000
3010
0100
0001
,
1000
1000
0100
0010
0001
0001
1000
0010
,
0100
0100
0001
0010
0000
1100
0000
0001
,
0200
0000
0310
0000
1000
2000
0000
3200
,
0000
0302
0000
0203
0000
1300
0010
0001
,
0010
0000
0100
0000
1000
1000
0000
0100
,
0000
0001
0000
0010
0000
0100
1000
0001
,
0010
0000
0100
0000
0001
0002
0000
0203
,
0000
2300
0000
3200
0000
0310
0001
1000
,
0100
0100
0010
0001
1000
1000
0010
0100
,
0001
0001
1000
0100
0000
0011
0000
1000
,
0020
0000
0031
0010
0100
0001
0000
2000
,
0000
0000
3100
0000
0010
2000
0000
0000
,
3010
0000
0001
1000
0010
1000
0100
0002
,
0000
0000
0023
0000
,
1030
0000
0001
1000
0100
0010
0000
2000
,
0000
0000
3010
0000
0001
0100
1000
0100
,
0010
0000
1000
0100
0010
0001
1000
0010
,
0100
0000
0000
0101
0000
1100
0000
0010
,
0100
0000
1000
0010
0001
0010
1000
0002
,
0000
0000
0103
0000
0010
2000
0000
0000
,
3100
0000
0001
0100
1000
0010
0100
2000
,
0000
0000
3020
0000
,
0031
0000
0100
0001
0010
1000
0000
0020
,
0000
0000
0000
0000
0031
0010
0001
0000
0100
0000
0010
0000
1000
0000
0100
0000
,
0001
0000
0100
0010
0001
1000
0010
0100
,
0002
0000
0000
1003
0000
0110
0000
0001
,
1000
0000
1000
0000
0001
0100
0000
0020
,
0000
0031
0000
0010
0000
1000
0100
0010
,
0001
1000
0100
1000
0010
0010
0100
0001
,
0010
0001
1000
0001
0100
0100
0000
0000
,
0010
0000
0010
0000
1000
0100
0000
0020
,
0000
1030
0000
0020
0000
0031
0100
0001
,
0010
0100
1000
0010
0001
0010
0000
1000
,
0000
0100
0001
0100
1000
0001
0100
0000
,
0001
0000
0001
0000
1000
0010
0000
0200
,
0000
1300
0000
0200
0000
0301
0010
0100
,
1000
0000
0000
0000
0001
0100
0001
0000
0010
0000
0100
0000
1000
0000
0000
0000
,
0000
0000
0000
0000
1000
0010
1000
0000
0100
0000
0010
0000
0001
0000
1000
0000
,
0100
0000
0100
0000
0010
0001
0000
0200
,
0000
1300
0000
0200
0000
0301
1000
0100
,
0010
0000
0100
0000
1000
0000
0001
1000
0001
0000
1000
0000
0100
0000
0010
0000
,
0001
0001
0010
0010
0100
0100
1000
1000
,
0001
0000
1000
0000
0100
0200
0000
0302
,
0000
0203
0000
2300
0000
3010
0100
0001
,
1000
0000
0001
0000
0010
0010
0000
0100
,
0000
0001
0000
0100
0000
1000
0010
0001
,
0010
0000
1000
0000
0010
0020
0000
0032
,
0000
0023
0000
2030
0000
3100
0010
0001
,
1000
1000
0010
0100
0001
0001
1000
0100
,
0010
0010
0001
0100
0000
1010
0000
0001
,
2000
0000
0000
0000
,
3000
0000
0000
0000
;

//---------------dance-double - ----------------
#NOTEDATA:;
#CHARTNAME:;
#STEPSTYPE:dance-double;
#DESCRIPTION:;
#CHARTSTYLE:;
#DIFFICULTY:Easy;
#METER:5;
#RADARVALUES:0.265362,0.360907,0.060572,0.161525,0.000000,184.000000,178.000000,6.000000,16.000000,0.000000,0.000000,0.000000,0.000000,0.000000,0.265362,0.360907,0.060572,0.161525,0.000000,184.000000,178.000000,6.000000,16.000000,0.000000,0.000000,0.000000,0.000000,0.000000;
#CREDIT:;
#NOTES:
00000000
00000000
00000000
00000000
,
00000000
00000000
00000000
00000000
,
00000000
00000000
00000000
00000000
,
00000000
00000000
00000000
00000000
,
00000000
00000001
00000000
00000001
,
00000000
00001000
00000000
00001000
,
00000000
00010000
00000000
10000000
,
00000000
00100000
00000000
01000000
,
00010000
00100000
00000000
01000000
,
00100000
00001000
00000000
00010000
,
00000010
00000100
00000000
00000001
,
00001000
00000100
00000000
00000010
,
00000001
00001000
00000000
00000010
,
00000100
00001000
00000000
00010000
,
01000000
10000000
00100000
00010000
,
00100000
01000000
01000000
00100000
,
02200000
00000000
03300000
00000000
,
00010000
00100000
00000000
00001000
,
01000000
00100000
00000000
00010000
,
00001000
00000100
00000000
00000001
,
00000100
00000010
00000000
00001000
,
00000001
00000010
00000000
00000100
,
00000001
00000100
00001000
00000010
,
00010000
00001000
00100000
00010000
,
20010000
00000000
31000000
00000000
,
00200000
00000000
00301000
00000000
,
00020000
00000000
00030100
00000000
,
00002000
00000000
00003001
00000000
,
00000002
00000000
00000013
00000000
,
00000200
00000000
00010300
00000000
,
00002000
00000000
00103000
00000000
,
00020000
00000000
10030000
00000000
,
10010000
00010000
10000000
00000000
,
00100000
10000000
01000000
00000000
,
00010000
00001000
00100000
00000000
,
00001000
00010000
00000100
00000000
,
00000010
00000001
00001000
00000000
,
00000100
00000010
00001000
00000000
,
00010000
00100000
01000000
00000000
,
00010000
10000000
00010000
00000000
,
00100000
00100000
00010000
00000000
,
10000000
10000000
01000000
01000000
,
00010000
00001000
00010000
00000000
,
00000000
00000100
00000010
00000000
,
00000001
00000001
00001000
00000000
,
00000010
00000010
00000100
00000100
,
00000010
00010000
00001000
01000000
,
00010000
10000000
00100000
00000000
,
10000000
00010000
01000000
00000000
,
00100000
00010000
00001000
00000010
,
00001000
00010000
01000000
00100000
,
00000000
00001000
00010000
00001000
,
00000100
00000010
00001000
00000000
,
00000001
00000010
00001000
00010000
,
00002000
01003000
00020000
00030100
,
00011000
00001000
00100000
00010000
,
20020000
00000000
30030000
00000000
,
00010000
10000000
00000000
01000000
,
00100000
00001000
00000000
00010000
,
00000010
00000100
00000000
00000001
,
00001000
00000100
00000000
00000010
,
00000001
00001000
00000000
00000001
,
00000100
00000010
00010000
00001000
,
01000000
00100000
10000000
00010000
,
20020000
00000000
00000000
00000000
,
30030000
00000000
00000000
00000000
;

//---------------dance-double - ----------------
#NOTEDATA:;
#CHARTNAME:;
#STEPSTYPE:dance-double;
#DESCRIPTION:;
#CHARTSTYLE:;
#DIFFICULTY:Medium;
#METER:9;
#RADARVALUES:0.461499,0.557765,0.171620,0.222097,0.000000,320.000000,303.000000,17.000000,22.000000,0.000000,0.000000,0.000000,0.000000,0.000000,0.461499,0.557765,0.171620,0.222097,0.000000,320.000000,303.000000,17.000000,22.000000,0.000000,0.000000,0.000000,0.000000,0.000000;
#CREDIT:;
#NOTES:
00000000
00000000
00000000
00000000
,
00000000
00000000
00000000
00000000
,
00000000
00000000
00000000
00000000
,
00000000
00000000
00000000
00000000
,
00000000
00000000
00000001
00000001
00000000
00000000
00001000
00000000
,
00000000
00000000
00000010
00000010
00000000
00000000
00010000
00000000
,
00000000
00000000
00001000
00001000
00000000
00000000
01000000
00000000
,
00000000
00000000
00010000
00010000
00000000
10000000
00000000
00100000
,
01000000
00000000
00001000
00100000
01000000
00000000
00010000
00000000
,
00001000
00000000
00000100
00000001
00001000
00000000
00000010
00000000
,
00000001
00000000
00000010
00001000
00000100
00000000
00000010
00000000
,
00001000
00000000
00010000
00100000
01000000
00000000
00010000
00000000
,
00100000
00000000
00010000
01000000
10000000
00000000
01000000
00000000
,
00100000
00000000
01000000
00100000
00010000
00000000
00001000
00000000
,
00010000
00000100
00000010
00000000
00000001
00000100
00000010
00000000
,
00010000
00001000
00100000
00000000
00010000
10000000
01000000
00000000
,
20020000
30030000
10000000
00010000
,
00100000
00000000
00010000
00100000
10000000
00000000
00100000
00000000
,
00010000
00000000
01000000
00010000
00100000
00000000
00001000
00000000
,
00010000
00000000
00000010
00001000
00000100
00000000
00001000
00000000
,
00000100
00000000
00000001
00000100
00001000
00000000
00000100
00000000
,
00010000
00000000
00000010
00010000
00001000
00000000
01000000
00000000
,
00010000
01000000
10000000
00000000
01000000
00010000
00100000
00000000
,
00001000
00010000
01000000
00000000
00010000
00001000
00000010
00000000
,
00002002
00003003
00000001
00001000
,
00001010
00000000
00000010
00000100
00000001
00000000
00000010
00000000
,
00001000
00000000
00000010
00000001
00001000
00000000
00000010
00000000
,
00000101
00000000
00000100
00000010
00010000
00000000
00001000
00000000
,
00100000
00000000
10000000
00100000
00010000
00000000
10000000
00000000
,
01100000
00000000
00100000
10000000
01000000
00000000
00010000
00000000
,
01000000
10000000
00010000
00000000
01000000
00100000
00010000
00000000
,
00001000
00000010
00000100
00000000
00000001
00001000
00000010
00000000
,
00002002
00003003
00001000
00000001
,
00000110
00000000
00000010
00002000
00000000
00000000
00003001
00000000
,
00000100
00000000
00000001
00000020
00000000
00000000
00001030
00000000
,
00011000
00000000
00010000
00200000
00000000
00000000
10300000
00000000
,
00100000
00000000
10000000
02000000
00000000
00000000
03100000
00000000
,
10010000
00000000
01000000
00200000
00000000
00000000
01300000
00000000
,
00100000
00001000
00100000
00000000
00001000
01000000
00001000
00000000
,
00010000
00000010
00010000
00000000
00000100
00010000
00000100
00000000
,
00001100
00000000
00000011
00000000
00001000
00000100
00000000
00000010
,
00000000
00000001
00000000
00001000
00000000
00000010
00000100
00001000
,
00010000
00000000
00001000
00000000
01000000
00010000
00100000
00000000
,
00001000
00000000
00010000
00000000
00000010
00001000
00000100
00000000
,
00001100
00000000
00001010
00000000
00000010
00000100
00000000
00001000
,
00000000
00010000
00000000
01000000
00000000
00100000
00010000
10000000
,
01000000
00100000
01000000
00000000
00010000
01000000
10000000
00000000
,
00200000
00310000
00200000
10300000
,
10100000
00000000
00110000
00000000
01000000
00100000
00000000
10000000
,
00000000
01000000
00000000
00100000
00000000
00010000
01000000
00100000
,
00010000
00001000
00010000
00000000
00000010
00001000
00000010
00000000
,
00000100
00000001
00000100
00000000
00000010
00000100
00000010
00000000
,
00000110
00000000
00001001
00000000
00000010
00000001
00000000
00000100
,
00000000
00001000
00000000
00000100
00000000
00000001
00000010
00001000
,
00010000
00001000
00100000
00100000
00001000
00010000
00000100
00000100
,
00001000
00000010
00010000
00001000
01000000
00010000
10000000
00100000
,
00010000
00000000
00100000
10000000
02000000
00000000
03010000
00000000
,
01000000
00000000
10000000
00010000
00200000
00000000
00301000
00000000
,
00010000
00000000
00001000
00000100
00000002
00000000
00000103
00000000
,
00000001
00000000
00001000
00000010
00000002
00000000
00000013
00000000
,
00000100
00000000
00000001
00001000
00000020
00000000
00010030
00000000
,
00001000
00000000
00010000
01000000
20000000
00000000
31000000
00000000
,
10000000
01000000
00100000
00001000
00010000
00000100
00000010
00000001
,
00000100
00000010
00010000
00002000
00000000
00203000
00000000
00310000
,
02000000
00000000
00000000
00000000
,
03000000
00000000
00000000
00000000
;

//---------------dance-double - ----------------
#NOTEDATA:;
#CHARTNAME:;
#STEPSTYPE:dance-double;
#DESCRIPTION:;
#CHARTSTYLE:;
#DIFFICULTY:Hard;
#METER:11;
#RADARVALUES:0.480248,0.590575,0.040381,0.535051,0.020191,333.000000,329.000000,4.000000,53.000000,0.000000,0.000000,0.000000,0.000000,0.000000,0.480248,0.590575,0.040381,0.535051,0.020191,333.000000,329.000000,4.000000,53.000000,0.000000,0.000000,0.000000,0.000000,0.000000;
#CREDIT:;
#NOTES:
00000000
00000000
00000000
00000000
,
00000000
00000000
00000000
00000000
,
00000000
00000000
00000000
00000000
,
00000000
00000000
00000000
00000000
,
20000000
00000000
00010000
00010000
00000000
00000000
30010000
00000000
,
00200000
00000000
00001000
00001000
00000000
00000000
00301000
00000000
,
00020000
00000000
00000100
00000100
00000000
00000000
00030100
00000000
,
00002000
00000000
00000001
00003002
00000000
00000203
00000000
00000310
,
00001000
00000000
00000001
00000000
00000010
00000020
00000000
00002030
,
00000000
00023000
00000000
00230000
00000000
10300000
00100000
00010000
,
00001000
00000000
00010000
00000000
01000000
01000000
00000000
10000000
,
00000000
00100000
00000000
00010000
00000000
00001000
00000100
00000001
,
00001000
00000000
00000001
00000000
00000100
00000200
00000000
00002300
,
00000000
00023000
00000000
02030000
00000000
13000000
00010000
00100000
,
01000000
01000000
00010000
00001000
00000010
00000010
00000001
00001000
,
00000100
00000100
00000010
00000001
00000000
00001100
00000000
00000001
,
00000200
00000000
00001300
00000000
00010000
00020000
00000000
02030000
,
00000000
23000000
00000000
30200000
00000000
00310000
00100000
10000000
,
00100000
00000000
00010000
00000000
00001000
00001000
00000000
00000100
,
00000000
00000001
00000000
00000010
00000000
00000100
00001000
00000001
,
00000010
00000000
00001000
00000000
00010000
00020000
00000000
00230000
,
00000000
20300000
00000000
30200000
00000000
01300000
00010000
10000000
,
01000000
01000000
00100000
00001000
00010000
00010000
00000100
00001000
,
00000010
00000010
00000100
00000001
00000000
00001010
00000000
00000001
,
00000020
00000000
00000130
00001000
00000010
00000100
00000000
00002000
,
00000000
00000000
00013000
00000000
00010000
00002000
00000000
00000000
,
01003000
00000000
00010000
00100000
10000000
00100000
01000000
00020000
,
00000000
00000000
00030200
00000000
,
00000301
00000000
00001000
00000010
00000001
00001000
00000000
00000020
,
00000000
00000000
00010030
00000000
00010000
00001000
00010000
01000000
,
10000000
00000000
10000000
00100000
10000000
00010000
01000000
00001000
,
00020000
00000000
00000000
00000010
00000000
00001000
00000000
00030100
,
00001000
00000000
00001000
00000100
00000001
00000100
00000010
00000002
,
00000000
00000000
00000103
00000000
00000100
00002000
00000000
00000000
,
00013000
00000000
01000000
00100000
00010000
10000000
00100000
00020000
,
00000000
00000000
00030020
00000000
,
00000031
00000000
00000010
00000100
00001000
00010000
00000000
00200000
,
00000000
00000000
00000000
00000000
01300000
00100000
01000000
00000000
00010000
00000000
10000000
00000000
01000000
00000000
00010000
00000000
,
00001000
00000000
00001000
00000010
00001000
00010000
01000000
10000000
,
02000000
00000000
00000000
13000000
00000000
00110000
00000000
01000000
,
00100000
00000000
00100000
00000000
00010000
01000000
00000000
00002000
,
00000000
00103000
00000000
00020000
00000000
00030100
00001000
00000010
,
00000100
00000001
00001000
00000100
00010000
00010000
00001000
00100000
,
00010000
10000000
01000000
00100000
00010000
00010000
00000000
00000000
,
01000000
00000000
01000000
00000000
00010000
00100000
00000000
00002000
,
00000000
01003000
00000000
00020000
00000000
00030100
00001000
00000001
,
00000010
00000100
00001000
00000010
00000001
00000010
00000000
00001000
,
00000000
00000100
00010000
00001000
01000000
00010000
00100000
00000000
,
00010000
00000000
00010000
00000000
10000000
01000000
00000000
00200000
,
00000000
00310000
00000000
02000000
00000000
03001000
00100000
00010000
,
01000000
00000000
00000000
00000000
00010000
00100000
00010000
00000000
01000000
00000000
00001000
00000000
00010000
00000000
00000000
00000000
,
00000000
00000000
00000000
00000000
00000100
00001000
00000100
00000000
00000010
00000000
00000001
00000000
00001000
00000000
00000100
00000000
,
00010000
00000000
00010000
00000000
00000010
00001000
00000000
00000200
,
00000000
00010300
00000000
00000020
00000000
00001030
00000001
00000100
,
00000010
00000000
00010000
00000000
00001000
00000000
00010000
00001000
00010000
00000000
00001000
00000000
00010000
00000000
00000010
00000000
,
00001000
00001000
00000100
00000100
00000010
00000010
00000001
00000001
,
00001000
00000000
00000001
00000000
00000100
00000200
00000000
00002300
,
00000000
00023000
00000000
02030000
00000000
13000000
01000000
00010000
,
00001000
00000000
00010000
00000000
00100000
00100000
00000000
10000000
,
00000000
01000000
00000000
00010000
00000000
00001000
00000010
00000001
,
00001000
00000000
00000001
00000000
00000010
00000020
00000000
00002030
,
00000000
00023000
00000000
00230000
00000000
10300000
00010000
01000000
,
00100000
00100000
00010000
00001000
00000100
00000100
00000001
00001000
,
00000010
00000010
00000100
00000001
00000000
00001010
00000000
00000001
,
00000020
00000000
00000000
00000000
,
00000030
00000000
00000000
00000000
;

//---------------dance-single - ----------------
#NOTEDATA:;
#CHARTNAME:;
#STEPSTYPE:dance-single;
#DESCRIPTION:;
#CHARTSTYLE:;
#DIFFICULTY:Beginner;
#METER:1;
#RADARVALUES:0.096626,0.161525,0.050476,0.010095,0.000000,67.000000,62.000000,5.000000,1.000000,0.000000,0.000000,0.000000,0.000000,0.000000,0.096626,0.161525,0.050476,0.010095,0.000000,67.000000,62.000000,5.000000,1.000000,0.000000,0.000000,0.000000,0.000000,0.000000;
#CREDIT:;
#NOTES:
0000
0000
0000
0000
,
0000
0000
0000
0000
,
0000
0000
0000
0000
,
0000
0000
0000
0000
,
0010
0000
0000
0000
,
1000
0000
0000
0000
,
0001
0000
0000
0000
,
0100
0000
0000
0000
,
0110
0000
0000
0000
,
0010
0000
0000
0000
,
1000
0000
0000
0000
,
0001
0000
0000
0000
,
0010
0000
0000
0000
,
0001
0000
0000
0000
,
1000
0000
0000
0000
,
0100
0000
0000
0000
,
0001
0000
0000
0000
,
0100
0000
0000
0000
,
1000
0000
0000
0000
,
0010
0000
0000
0000
,
0100
0000
0000
0000
,
0001
0000
0000
0000
,
1000
0000
0000
0000
,
0010
0000
0000
0000
,
0110
0000
0000
0000
,
0100
0000
0000
0000
,
0001
0000
0000
0000
,
1000
0000
0000
0000
,
0100
0000
0000
0000
,
0010
0000
0000
0000
,
0001
0000
0000
0000
,
1000
0000
0000
0000
,
0010
0000
0000
0000
,
0001
0000
0000
0000
,
0010
0000
0000
0000
,
1000
0000
0000
0000
,
0100
0000
0000
0000
,
0001
0000
0000
0000
,
0100
0000
0000
0000
,
1000
0000
0000
0000
,
1001
0000
0000
0000
,
0001
0000
0000
0000
,
0010
0000
0000
0000
,
0100
0000
0000
0000
,
1000
0000
0000
0000
,
0010
0000
0000
0000
,
0100
0000
0000
0000
,
0001
0000
0000
0000
,
1000
0000
0000
0000
,
0010
0000
0000
0000
,
0100
0000
0000
0000
,
1000
0000
0000
0000
,
0100
0000
0000
0000
,
0001
0000
0000
0000
,
0010
0000
0010
0000
,
0200
0000
0000
0300
,
0110
0000
0000
0000
,
0010
0000
0000
0000
,
0001
0000
0000
0000
,
0100
0000
0000
0000
,
1000
0000
0000
0000
,
0100
0000
0000
0000
,
0001
0000
0000
0000
,
0010
0000
0000
0000
,
1001
0000
0000
0000
;

//---------------dance-single - ----------------
#NOTEDATA:;
#CHARTNAME:;
#STEPSTYPE:dance-single;
#DESCRIPTION:;
#CHARTSTYLE:;
#DIFFICULTY:Challenge;
#METER:13;
#RADARVALUES:0.687923,0.623385,0.686480,0.201906,0.146382,477.000000,409.000000,68.000000,20.000000,0.000000,0.000000,0.000000,0.000000,0.000000,0.687923,0.623385,0.686480,0.201906,0.146382,477.000000,409.000000,68.000000,20.000000,0.000000,0.000000,0.000000,0.000000,0.000000;
#CREDIT:;
#NOTES:
// measure 0
0000
0000
0000
0000
,  // measure 1
0000
0000
0000
0000
,  // measure 2
0000
0000
0000
0000
,  // measure 3
0000
0000
0000
0000
,  // measure 4
1001
0000
0101
0100
1000
1000
0000
1010
,  // measure 5
0000
1100
0000
0011
0000
0001
0100
1000
,  // measure 6
0001
0000
1010
0010
0001
0001
0000
0110
,  // measure 7
0000
0000
0000
1100
0000
0101
0000
1100
,  // measure 8
0101
0000
1001
0010
1000
0001
0010
0100
,  // measure 9
1000
0000
0010
0000
1000
0000
0002
0000
0000
0000
0103
0000
0010
1000
0010
1000
,  // measure 10
0010
0000
1100
0010
0100
0001
1000
0100
,  // measure 11
0000
0000
1010
0000
0000
0000
0011
0000
0000
0000
0010
0000
0001
1000
0001
1000
,  // measure 12
0001
0000
0011
0100
1000
0010
1000
0001
,  // measure 13
0010
0000
0100
0000
1000
0000
0020
0000
0000
0000
0130
0000
0001
0010
0001
0010
,  // measure 14
0001
0000
0110
0001
0010
0100
1000
0001
,  // measure 15
0000
0000
0000
1100
0000
0101
0000
1100
,  // measure 16
0101
0000
1010
0100
0010
0001
0100
1000
,  // measure 17
0010
0000
1000
0000
0100
0000
0020
0000
0000
0000
0031
0000
1000
0100
1000
0100
,  // measure 18
1000
0000
0101
0001
0010
0001
0100
1000
,  // measure 19
0000
0000
0110
0000
0000
0000
1001
0000
0000
0000
0010
0000
0100
0001
0100
0001
,  // measure 20
0100
0000
1010
1000
0010
0100
0001
0010
,  // measure 21
0100
0000
1000
0000
0001
0000
0200
0000
0000
0000
0301
0000
0100
0010
0100
0010
,  // measure 22
0100
0000
1001
0010
1000
0100
1000
0001
,  // measure 23
0000
0000
0000
1100
0000
0101
0000
1100
,  // measure 24
0101
0000
0010
0100
1000
0001
0100
0010
,  // measure 25
1000
0000
0001
0100
1000
1000
0001
0000
,  // measure 26
0100
0000
0100
0001
1000
0100
0010
0001
,  // measure 27
0100
0000
0000
0000
0010
0000
0100
0000
1002
0000
0000
0000
0103
0001
0100
0001
,  // measure 28
1000
0000
0001
1000
0010
1000
0100
0010
,  // measure 29
0001
0000
0010
0001
0100
0010
1000
0100
,  // measure 30
0001
0000
0001
1000
0010
1000
0100
0010
,  // measure 31
0001
0000
0000
1100
0000
0101
0000
1100
,  // measure 32
0101
0000
1000
0001
0010
0001
0100
0010
,  // measure 33
1000
0000
0010
1000
0100
0100
0010
0000
,  // measure 34
0001
0000
0001
1000
0010
0100
0010
1000
,  // measure 35
0001
0000
0000
0000
1000
0000
0001
0000
0210
0000
0000
0000
0310
1000
0010
1000
,  // measure 36
0100
0000
0100
1000
0010
0100
0001
1000
,  // measure 37
0001
0000
0000
0000
0010
0001
0100
0000
1000
0000
1000
0000
0001
0000
0100
0000
,  // measure 38
0010
0000
1000
0001
0010
0100
0010
1000
,  // measure 39
0010
0000
0001
1100
0000
0101
0000
1100
,  // measure 40
0201
0000
1300
0000
0101
0101
1000
1200
,  // measure 41
0000
1300
0000
1010
0001
1000
0100
0010
,  // measure 42
0001
0100
0100
0010
1000
1000
0001
0000
,  // measure 43
0000
0000
0010
0000
0010
0000
0001
0000
1000
0000
1000
0000
0010
0100
0010
0100
,  // measure 44
0002
0000
0013
0000
0011
0011
1000
2010
,  // measure 45
0000
3100
0000
0110
0100
1000
0010
0100
,  // measure 46
0001
0010
0010
0010
0001
0100
0001
1000
,  // measure 47
0010
0000
1000
0000
0100
0000
0010
0000
0001
0000
0000
0000
1000
0100
1000
0100
,  // measure 48
0020
0000
0031
0000
1001
1001
1000
1020
,  // measure 49
0000
0130
0000
1001
0010
1000
0100
0010
,  // measure 50
0001
0000
0000
0000
1000
0100
0010
0000
0001
0000
0001
0000
0001
0000
0000
0000
,  // measure 51
0000
0000
0000
0000
0001
0010
0100
0000
1000
0000
1000
0000
1000
0000
0010
0000
,  // measure 52
0210
0000
0301
0000
1100
1100
0001
0021
,  // measure 53
0000
0130
0000
1100
0010
1000
0001
0100
,  // measure 54
0002
0100
0100
0103
2000
0100
0100
3100
,  // measure 55
0001
0001
1000
1000
0010
0010
0100
0100
,  // measure 56
0010
0000
1010
0001
0100
0010
1000
0100
,  // measure 57
0010
0000
0001
0000
1000
0000
0002
0000
0000
0000
0103
0000
0010
1000
0001
1000
,  // measure 58
0010
0000
0101
1000
0001
0010
0100
1000
,  // measure 59
0000
0000
1001
0000
0000
0000
0110
0000
0000
0000
1000
0000
0100
0010
0001
0010
,  // measure 60
0100
0000
1100
0001
1000
0010
1000
0001
,  // measure 61
0010
0000
0100
0000
1000
0000
0002
0000
0000
0000
0103
0000
0001
1000
0100
1000
,  // measure 62
0001
0000
0011
0100
0001
1000
0100
1000
,  // measure 63
0010
0000
0000
1100
0000
0101
0000
1100
,  // measure 64
0202
0000
0000
0000
,  // measure 65
0303
0000
0000
0000
;
