#TITLE:Move Along;
#SUBTITLE:;
#ARTIST:The All-American Rejects;
#TITLETRANSLIT:;
#SUBTITLETRANSLIT:;
#ARTISTTRANSLIT:;
#GENRE:;
#CREDIT:;
#BANNER:Move Along-bn.png;
#BACKGROUND:Move Along-bg.png;
#LYRICSPATH:;
#CDTITLE:;
#MUSIC:Move Along.ogg;
#OFFSET:-0.062500;
#SAMPLESTART:26.275000;
#SAMPLELENGTH:20.000000;
#SELECTABLE:YES;
#DISPLAYBPM:110.000000;
#BPMS:0.000000=109.870003
;
#STOPS:
;
#BGCHANGES:;
#KEYSOUNDS:;
#ATTACKS:;

//---------------dance-single - x scale 10----------------
#NOTES:
     dance-single:
     :
     Hard:
     10:
     0.391095,0.408198,0.204303,0.555705,0.126668,335.000000,310.000000,25.000000,68.000000,0.000000,0.000000,0.391095,0.408198,0.204303,0.555705,0.126668,335.000000,310.000000,25.000000,68.000000,0.000000,0.000000:
0000
0000
0000
0000
,
0000
0000
0000
0000
,
0000
0000
0000
0000
,
0000
0000
0000
0000
,
1000
0000
0010
0100
0010
1000
0001
0100
,
0001
0010
0001
0010
0100
1000
0100
1000
,
0010
1000
0001
0000
0100
0010
0100
0001
,
0010
0001
0010
0100
0001
1000
0100
0000
,
0010
0000
1000
0100
1000
0010
0100
0001
,
1000
0010
1000
0010
0100
0001
0100
0001
,
0010
0001
0100
0000
0001
1000
0010
1000
,
0100
0010
1000
0010
0100
0001
0100
0000
,
0020
0000
0000
0000
0230
0000
0000
0000
0302
0000
0000
2003
0000
0000
3020
0000
,
0000
2000
0000
0000
0030
0000
3002
0000
,
0203
0000
0000
0000
0320
0000
0000
0000
2030
0000
0000
3002
0000
0000
2003
0000
,
0000
0000
0020
0000
3000
0000
0000
0000
0230
0000
0000
0302
0000
0000
1003
0000
,
1001
0000
1000
0100
0010
0100
0010
0001
,
1000
0000
0000
0001
0000
0000
0200
0000
0010
0000
0000
0000
0310
0000
1000
0000
,
2100
0000
3001
0100
0201
0000
0310
0100
,
0001
0000
0000
1000
0000
0000
0010
0000
0000
0000
1000
0000
0001
0000
0000
0000
,
0110
0000
0100
0010
1000
0100
1000
0001
,
0020
0000
0000
0032
0000
0000
2003
0000
0001
0000
0000
0000
3010
0000
0100
0000
,
1020
0000
1030
0001
0012
0000
0103
0001
,
0010
0000
0000
0001
0000
0000
0200
0000
0000
0000
0310
0000
1000
0000
0001
0000
,
1000
0100
1000
0100
1000
0000
0000
0000
0000
0000
0000
0000
0000
0000
0000
0000
,
0001
0100
0001
0100
0001
0000
0000
0000
0000
0000
0000
0000
0000
0000
0000
0000
,
0010
0100
1000
0000
1000
0001
0100
0001
,
0010
0001
0100
0001
1000
0100
0010
0000
,
0001
0000
1000
0100
0001
0010
0001
1000
,
0010
0100
0010
0100
0001
1000
0001
1000
,
0100
0010
0100
0000
0001
0010
0001
1000
,
0010
1000
0100
0010
1000
0001
0100
0000
,
0002
0000
0000
0000
0023
0000
0000
0000
0230
0000
0000
2300
0000
0000
3020
0000
,
0000
0230
0001
0000
0000
0000
0302
0000
,
2003
0000
3002
0000
0203
0000
0301
1000
,
0020
0000
0000
0000
2030
0000
0000
0000
3200
0000
0000
2300
0000
0000
3001
0000
,
0110
0000
1000
0001
0010
0001
0100
1000
,
0002
0000
0000
1000
0000
0000
0023
0000
0100
0000
0000
0000
0130
0000
0001
0000
,
0012
0000
1003
0100
2100
0000
3010
0100
,
0020
0000
0000
1000
0000
0000
0230
0000
0000
0000
0001
0000
0301
0000
0000
0000
,
1001
0000
0100
0010
0100
1000
0001
0010
,
0001
0000
0000
0100
0000
0000
2000
0000
0001
0000
0000
0000
3010
0000
0100
0000
,
0201
0000
0310
1000
1020
0000
0130
0001
,
1000
0000
0000
1000
0000
0000
0002
0000
0000
0000
0103
0000
0001
0000
0010
0000
,
0012
0013
0000
0201
0301
0000
2001
3001
,
0000
1020
1030
0000
1000
0100
0010
0001
,
1100
0000
0110
0000
0010
0100
0001
1000
,
0100
1000
0100
1000
0001
1000
0001
0000
,
2100
0000
0000
3001
0000
0000
0202
0000
0003
0000
0010
0000
0310
0000
0000
0000
,
0020
0000
0000
1000
0000
0000
0001
0000
0000
1030
0000
0000
0010
0000
0000
0000
,
0012
0000
0000
1003
0000
0000
2020
0000
0030
0000
0001
0000
3001
0000
0000
0000
,
0200
0000
0000
0001
0000
0000
0010
0000
0000
0301
0000
0000
0100
0000
0000
0000
,
0210
0000
0000
0310
0000
0000
2002
0000
3000
0000
0100
0000
0103
0000
0000
0000
,
0020
0000
0000
0100
0000
0000
0100
0000
0000
0130
0000
0000
0020
0000
0000
0000
,
2030
0000
0000
0001
0000
0000
3002
0000
0000
0000
0100
0000
0203
0000
0000
0000
,
0301
1000
0001
1000
0001
1000
1001
0000
0000
0000
0000
0000
;

//---------------dance-single - x scale 14 or 15----------------
#NOTES:
     dance-single:
     :
     Challenge:
     14:
     0.621082,0.612297,0.637427,0.245164,0.592480,532.000000,454.000000,78.000000,30.000000,0.000000,0.000000,0.621082,0.612297,0.637427,0.245164,0.592480,532.000000,454.000000,78.000000,30.000000,0.000000,0.000000:
// measure 0
0000
0000
0000
0000
,  // measure 1
0000
0000
0000
0000
,  // measure 2
0000
0000
0000
0000
,  // measure 3
0000
0000
0000
0000
,  // measure 4
1000
0100
0000
1000
0100
0000
0010
0001
0000
0010
0001
0000
0100
0010
1000
0001
,  // measure 5
0100
0001
0000
0100
0001
0000
1000
0010
0000
1000
0010
0000
1000
0100
0010
0001
,  // measure 6
1000
0001
0000
1000
0001
0000
0100
0010
0000
0100
0010
0000
0010
1000
0001
0100
,  // measure 7
0001
0010
0000
0001
0010
0000
0100
1000
0000
0100
1000
0000
0001
0100
0010
1000
,  // measure 8
0001
0010
0000
0010
1000
0000
0001
0100
0000
0100
1000
0000
0010
0001
1000
0100
,  // measure 9
1000
0010
0000
0010
0001
0000
1000
0100
0000
0100
0001
0000
1000
0010
0001
0100
,  // measure 10
0001
0100
0000
0100
1000
0000
0001
0010
0000
0010
1000
0000
1000
0010
0100
0001
,  // measure 11
1000
0100
0000
0100
0001
0000
1000
0010
0000
0010
0001
0000
0110
0000
0000
0000
,  // measure 12
1100
0000
0000
0000
1100
0000
0000
0000
0110
0000
0000
1001
0000
0000
0110
0000
,  // measure 13
0000
0101
0000
0000
0000
0000
1010
0000
,  // measure 14
1001
0000
0000
0000
1001
0000
0000
0000
0101
0000
0000
1100
0000
0000
0101
0000
,  // measure 15
0000
0000
0011
0000
1000
0000
0000
0000
0011
0000
0000
1010
0000
0000
0110
0000
,  // measure 16
1001
0100
0010
0100
0001
0001
1000
1000
,  // measure 17
0001
1000
0000
1000
0100
0000
0020
0000
0031
0000
0010
0000
0100
0000
0100
0000
,  // measure 18
0201
0000
0310
0100
1000
0000
1000
0000
1002
0000
0103
0010
0001
0000
0001
0000
,  // measure 19
0110
0000
1010
0000
1000
0000
2100
0000
0001
0000
0100
0000
3010
0100
0010
0100
,  // measure 20
0110
0100
0001
1000
0010
0010
1000
1000
,  // measure 21
0100
0010
0000
0010
1000
0000
0002
0000
1003
0000
0001
0000
0100
0000
0100
0000
,  // measure 22
0012
0000
1003
0001
0100
0000
0100
0000
0210
0000
0301
1000
0010
0000
0010
0000
,  // measure 23
1010
0100
0010
1010
1000
0001
0001
1000
,  // measure 24
0001
0100
1000
0100
0001
0000
0000
0000
0010
0000
0000
0000
0010
0000
0000
0000
,  // measure 25
1000
0100
0001
0100
1000
0000
0000
0000
0010
0000
0000
0000
0010
0000
0000
0000
,  // measure 26
1000
0100
0000
0100
0001
0000
0001
0010
0000
0010
1000
0000
0100
1000
0010
0001
,  // measure 27
0010
0001
0000
0001
0100
0000
0100
1000
0000
1000
0010
0000
0001
1000
0100
0010
,  // measure 28
1000
1000
0000
0100
0100
0000
0010
0010
0000
0001
0001
0000
0100
0001
1000
0010
,  // measure 29
0100
0100
0000
0010
0010
0000
1000
1000
0000
0001
0001
0000
0010
0001
0100
1000
,  // measure 30
0001
0001
0000
0010
0010
0000
0100
0100
0000
1000
1000
0000
0010
0100
0001
1000
,  // measure 31
0100
0100
0000
0010
0010
0000
1000
1000
0000
0001
0001
0000
1001
0000
0000
0000
,  // measure 32
2000
0000
3010
0000
2000
0000
3010
0000
0101
0000
0000
0110
0000
0000
2010
0000
,  // measure 33
3001
1000
0010
0100
0010
1000
0011
0000
,  // measure 34
0200
0310
0200
0310
2000
3001
1000
0001
,  // measure 35
0011
0000
0000
0000
0011
0000
0000
0000
1001
0000
0000
0110
0000
0000
1001
0000
,  // measure 36
1010
0001
1000
0100
0010
0010
0100
0100
,  // measure 37
1000
0001
0000
1000
0100
0000
0020
0000
0031
0000
0100
0000
0010
0000
0010
0000
,  // measure 38
2010
0000
3100
1000
0001
0000
0001
0000
2001
0000
3100
1000
0010
0000
0010
0000
,  // measure 39
1010
0000
1100
0000
0001
0000
0012
0000
0100
0000
1003
0000
0001
0010
0001
0010
,  // measure 40
0011
1000
0100
1000
0001
0001
0010
0010
,  // measure 41
0100
0010
0000
0100
0001
0000
2000
0000
3010
0000
0100
0000
1000
0000
1000
0000
,  // measure 42
2001
0000
3010
0100
0001
0000
0001
0000
0102
0000
0103
0010
1000
0000
1000
0000
,  // measure 43
1001
0100
0010
1001
1000
0001
0001
0100
,  // measure 44
0010
1000
0000
1000
0010
0000
0100
0001
0000
0001
0100
0000
0001
0010
0100
1000
,  // measure 45
0100
1000
0000
1000
0100
0000
0010
0001
0000
0001
0010
0000
0001
1000
0010
0100
,  // measure 46
0102
1003
0102
0103
0010
0010
1000
0001
,  // measure 47
0100
0010
0100
0010
1001
0100
1001
0000
,  // measure 48
0012
0000
0000
0103
0000
0000
0120
0000
0000
1030
0000
0000
0100
0010
0100
0010
,  // measure 49
1010
0000
0000
1100
0000
0000
1010
0000
0000
1100
0000
0000
1001
0000
0000
0000
,  // measure 50
1002
0000
0000
0013
0000
0000
0012
0000
0000
1003
0000
0000
0100
0010
0100
0010
,  // measure 51
0101
0000
0000
0011
0000
0000
0101
0000
0000
0011
0000
0000
0110
0000
0000
0000
,  // measure 52
0210
0000
0000
0301
0000
0000
2001
0000
0000
3100
0000
0000
0010
1000
0010
1000
,  // measure 53
1100
0000
0000
1001
0000
0000
0101
0000
0000
1001
0000
0000
1100
0000
0000
0000
,  // measure 54
2100
0000
0000
3001
0000
0000
0201
0000
0000
0310
0000
0000
0110
0000
0000
0000
,  // measure 55
1000
0100
1000
0001
0100
0001
1001
0000
0000
0000
0000
0000
;

//---------------dance-single - x scale 8----------------
#NOTES:
     dance-single:
     :
     Medium:
     8:
     0.290695,0.317488,0.073549,0.408607,0.200217,249.000000,240.000000,9.000000,50.000000,0.000000,0.000000,0.290695,0.317488,0.073549,0.408607,0.200217,249.000000,240.000000,9.000000,50.000000,0.000000,0.000000:
0000
0000
0000
0000
,
0000
0000
0000
0000
,
0000
0000
0000
0000
,
0000
0000
0000
0000
,
1000
0000
0000
0100
0000
0000
0010
0000
0000
0001
0000
0000
0100
0000
0010
0000
,
1000
0000
0000
0010
0000
0000
0100
0000
0000
0001
0000
0000
0010
0000
0100
0000
,
0001
0000
0000
0100
0000
0000
0010
0000
0000
1000
0000
0000
0001
0000
1000
0000
,
0001
0000
0000
0010
0000
0000
0100
0000
0000
1000
0000
0000
0001
0000
1000
0000
,
0010
0000
0000
0100
0000
0000
0001
0000
0000
1000
0000
0000
0001
0000
0100
0000
,
0010
0000
0000
1000
0000
0000
0001
0000
0000
0100
0000
0000
0100
0000
0001
0000
,
0100
0000
0000
0010
0000
0000
1000
0000
0000
0001
0000
0000
1000
0000
0010
0000
,
0100
0000
0000
0001
0000
0000
1000
0000
0000
0010
0000
0000
1001
0000
0000
0000
,
0020
0000
0000
0000
0130
0000
0000
0000
0001
0000
0000
0001
0000
0000
0002
0000
,
0000
0200
0000
0000
0303
0000
0110
0000
,
0020
0000
0000
0000
1030
0000
0000
0000
0001
0000
0000
0001
0000
0000
0002
0000
,
0000
0000
2000
0000
0003
0000
0000
0000
0100
0000
0000
0100
3000
0000
0100
0000
,
0020
0000
0030
0100
0001
1000
0001
0000
,
0010
0000
0000
0100
0000
0000
0002
0000
0000
0000
0000
0000
1003
0000
0000
0000
,
2000
3010
0002
0013
,
2000
0000
0000
3001
0000
0000
2000
0000
0000
0000
0000
0000
3000
0000
0000
0000
,
0200
0000
0300
0001
0100
0010
1000
0000
,
0001
0000
0000
1000
0000
0000
0020
0000
0000
0000
0000
0000
0130
0000
0000
0000
,
0200
0301
0020
0031
,
0001
0000
0000
0100
0000
0000
0001
0000
0000
0000
1000
0000
0010
0000
0100
0000
,
0001
0001
0001
0000
0000
0000
0000
0000
,
1000
1000
1000
0000
0000
0000
0000
0000
,
0010
0000
0000
1000
0000
0000
0010
0000
0000
0100
0000
0000
0001
0000
1000
0000
,
0001
0000
0000
1000
0000
0000
0001
0000
0000
0100
0000
0000
0010
0000
0100
0000
,
0001
0000
0000
0001
0000
0000
1000
0000
0000
1000
0000
0000
0010
0000
0100
0000
,
1000
0000
0000
1000
0000
0000
0001
0000
0000
0001
0000
0000
0100
0000
0010
0000
,
0100
0000
0000
0100
0000
0000
0010
0000
0000
0010
0000
0000
1000
0000
0001
0000
,
0010
0000
0000
0010
0000
0000
0100
0000
0000
0100
0000
0000
0110
0000
0000
0000
,
0002
0000
0000
0000
1003
0000
0000
0000
0010
0000
0000
0010
0000
0000
0020
0000
,
0000
0200
0000
0000
0330
0000
1001
0000
,
2000
0000
3200
0000
1300
0000
0001
0100
,
0020
0000
0000
0000
0130
0000
0000
0000
0001
0000
0000
0001
0000
0000
0001
0000
,
2000
0000
3000
1000
0100
0010
0100
0010
,
0001
0000
0000
1000
0000
0000
0200
0000
0000
0000
0000
0000
0310
0000
0000
0000
,
2000
3002
2003
3002
,
0103
0000
0000
0100
0000
0000
0200
0000
0000
0000
0000
0000
0300
0000
0000
0000
,
0002
0000
0003
0001
1000
0010
1000
0010
,
0100
0000
0000
0001
0000
0000
2000
0000
0000
0000
0000
0000
3010
0000
0000
0000
,
0020
0230
0320
0230
,
0302
0000
0000
0103
0000
0000
0001
0000
0000
0000
0100
0000
0010
0000
1000
0000
,
0010
0000
0000
0010
0000
0000
1000
0000
0000
0000
1000
0000
0010
0000
1000
0000
,
0001
0000
0000
0001
0000
0000
0100
0000
0000
0100
0000
0000
0001
0000
0100
0000
,
0020
0000
0230
0000
0301
1000
0000
0010
,
1000
0000
1000
0001
0100
0000
0100
0000
,
2002
0000
0003
0200
0000
0000
0300
0000
,
0010
0000
0000
0010
0000
0000
0010
0000
0000
0000
0000
0000
3001
0000
0000
0000
,
0220
0000
0300
2000
0000
0000
3000
0000
,
0001
0000
0000
0001
0000
0000
0001
0000
0000
0000
0000
0000
0130
0000
0000
0000
,
2002
0000
3000
0020
0000
0000
0030
0000
,
0100
0000
0000
0100
0000
0000
0100
0000
0000
0000
0000
0000
0013
0000
0000
0000
,
0220
0000
0030
0002
0000
0000
0303
0000
,
0100
0010
0100
0010
0000
0000
1001
0000
0000
0000
0000
0000
;

//---------------dance-single - x scale 4----------------
#NOTES:
     dance-single:
     :
     Easy:
     4:
     0.200801,0.226777,0.122582,0.098066,0.000000,172.000000,157.000000,15.000000,12.000000,0.000000,0.000000,0.200801,0.226777,0.122582,0.098066,0.000000,172.000000,157.000000,15.000000,12.000000,0.000000,0.000000:
0000
0000
0000
0000
,
0000
0000
0000
0000
,
0000
0000
0000
0000
,
0000
0000
0000
0000
,
1000
1000
1000
1000
,
0001
0001
0001
0001
,
0100
0100
0100
0100
,
0010
0010
0010
0010
,
0001
0001
0001
0001
,
1000
1000
1000
1000
,
0010
0010
0010
0010
,
0100
0100
0100
0100
,
0001
1000
0001
0000
,
0200
0000
0300
0000
,
0010
0100
0010
0000
,
2000
3000
1001
0000
,
0010
0000
1000
1000
,
0001
0100
0010
1000
,
1001
0000
1001
0000
,
0010
0010
0010
0000
,
0100
0000
0001
0001
,
0100
0010
1000
0001
,
1001
0000
1001
0000
,
0100
0100
0100
0100
,
0001
1000
0000
0000
,
0010
0100
0000
0000
,
0010
0100
0010
0100
,
0001
1000
0001
1000
,
0010
1000
0001
0100
,
0001
0010
0100
1000
,
0100
0010
1000
0001
,
1000
0010
0100
0001
,
0100
0010
1000
0000
,
0002
0000
0003
0000
,
0100
0001
1000
0000
,
0020
0030
0110
0000
,
0001
0000
0010
0010
,
0001
1000
0010
0100
,
0110
0000
0110
0000
,
0001
0001
0001
0000
,
1000
0000
0100
0100
,
0010
1000
0100
0001
,
0110
0000
0110
0000
,
1000
1000
1000
1000
,
0001
0001
1000
1000
,
0010
0010
0100
0100
,
0010
0100
0001
1000
,
0100
0000
1000
0001
,
2002
0000
0000
0003
,
0100
0000
3100
0000
,
2002
0000
0000
3000
,
0100
0000
0103
0000
,
0220
0000
0000
0030
,
0001
0000
0301
0000
,
0220
0300
1030
0000
,
1000
0001
1001
0000
;

//---------------dance-single - x scale 1----------------
#NOTES:
     dance-single:
     :
     Beginner:
     1:
     0.060707,0.113388,0.024516,0.000000,0.000000,52.000000,49.000000,3.000000,0.000000,0.000000,0.000000,0.060707,0.113388,0.024516,0.000000,0.000000,52.000000,49.000000,3.000000,0.000000,0.000000,0.000000:
0000
0000
0000
0000
,
0000
0000
0000
0000
,
0000
0000
0000
0000
,
0000
0000
0000
0000
,
1000
0000
0000
0000
,
0100
0000
0000
0000
,
0010
0000
0000
0000
,
0001
0000
0000
0000
,
0010
0000
0000
0000
,
0100
0000
0000
0000
,
0001
0000
0000
0000
,
1000
0000
0000
0000
,
1000
0000
0000
0000
,
0000
0000
0000
0000
,
0001
0000
0000
0000
,
0000
0000
1001
0000
,
0000
0000
0000
0000
,
0100
0000
0000
0000
,
0001
0000
0001
0000
,
0001
0000
0000
0000
,
0000
0000
0000
0000
,
1000
0000
0000
0000
,
0010
0000
0010
0000
,
0010
0000
0000
0000
,
0100
0100
0000
0000
,
0010
0010
0000
0000
,
1000
0000
0000
0000
,
0001
0000
0000
0000
,
0100
0000
0000
0000
,
0001
0000
0000
0000
,
1000
0000
0000
0000
,
0010
0000
0000
0000
,
0010
0000
0000
0000
,
0000
0000
0000
0000
,
0100
0000
0000
0000
,
0000
0000
1001
0000
,
0000
0000
0000
0000
,
0010
0000
0000
0000
,
0100
0000
0100
0000
,
0100
0000
0000
0000
,
0000
0000
0000
0000
,
0001
0000
0000
0000
,
1000
0000
1000
0000
,
1000
0000
0000
0000
,
0100
0000
0000
0000
,
1000
0000
0000
0000
,
0010
0000
0000
0000
,
0001
0000
0000
0000
,
0010
0000
0000
0000
,
0000
0000
0000
0000
,
0100
0000
0000
0000
,
0000
0000
0000
0000
,
0001
0000
0000
0000
,
0000
0000
0000
0000
,
1000
0000
0000
0000
,
0000
0000
1001
0000
;
