#VERSION:0.83;
#TITLE:Mess With My Emotions;
#SUBTITLE:;
#ARTIST:Latenighter;
#TITLETRANSLIT:;
#SUBTITLETRANSLIT:;
#ARTISTTRANSLIT:;
#GENRE:;
#ORIGIN:;
#CREDIT:;
#BANNER:Mess With My Emotions-bn.png;
#BACKGROUND:Mess With My Emotions-bg.png;
#PREVIEWVID:;
#JACKET:Mess With My Emotions-jacket.png;
#CDIMAGE:;
#DISCIMAGE:;
#LYRICSPATH:;
#CDTITLE:;
#MUSIC:Mess With My Emotions.ogg;
#OFFSET:0.000000;
#SAMPLESTART:38.375000;
#SAMPLELENGTH:20.000000;
#SELECTABLE:YES;
#DISPLAYBPM:130.000000;
#BPMS:0.000=129.980;
#STOPS:;
#DELAYS:;
#WARPS:;
#TIMESIGNATURES:0.000=4=4;
#TICKCOUNTS:0.000=4;
#COMBOS:0.000=1;
#SPEEDS:0.000=1.000=0.000=0;
#SCROLLS:0.000=1.000;
#FAKES:;
#LABELS:0.000=Song Start;
#BGCHANGES:;
#KEYSOUNDS:;
#ATTACKS:
;

//---------------dance-single - ----------------
#NOTEDATA:;
#CHARTNAME:;
#STEPSTYPE:dance-single;
#DESCRIPTION:;
#CHARTSTYLE:;
#DIFFICULTY:Beginner;
#METER:3;
#RADARVALUES:0.129979,0.156079,0.000000,0.009679,0.000000,94.000000,94.000000,0.000000,1.000000,0.000000,0.000000,0.000000,0.000000,0.000000,0.129979,0.156079,0.000000,0.009679,0.000000,94.000000,94.000000,0.000000,1.000000,0.000000,0.000000,0.000000,0.000000,0.000000;
#CREDIT:;
#DISPLAYBPM:130.000000;
#NOTES:
0000
0000
0000
0000
,
0000
0000
0000
0000
,
0000
0000
0000
0000
,
0000
0000
0000
0000
,
0000
0000
0000
0000
,
0010
0000
0000
0000
,
1000
0000
0000
0000
,
0001
0001
0000
0000
,
1000
1000
0000
0000
,
0100
0000
0000
0000
,
0010
0000
0000
0000
,
0001
0001
0000
0000
,
1000
1000
0000
0000
,
0010
0000
0010
0000
,
0010
0010
0010
0000
,
0100
0000
0100
0000
,
0100
0000
0000
0000
,
0001
0000
0001
0000
,
0001
0001
0001
0000
,
1000
0000
1000
0000
,
1000
0000
0000
0010
,
0010
0000
0100
0000
,
0010
0000
0001
0000
,
1000
0000
0100
0000
,
0001
0001
0001
0000
,
1000
0000
0010
0000
,
0001
0000
0010
0000
,
1000
0000
0100
0000
,
0010
0010
0010
0000
,
0100
0000
0000
0000
,
0010
0000
0000
0000
,
0001
0000
0000
0000
,
1000
0000
0000
0000
,
0100
0000
0000
0000
,
0100
0100
0100
0000
,
0010
0000
0000
0000
,
0010
0010
0010
0000
,
0001
0000
0100
0000
,
1000
0000
0100
0000
,
0001
0000
0010
0000
,
0100
0100
0100
0000
,
0010
0000
1000
0000
,
0001
0000
0100
0000
,
1000
0000
0001
0000
,
1000
1000
1000
0000
,
0010
0000
0100
0000
,
0010
0000
0100
0000
,
0001
0000
1000
0000
,
0001
0001
0001
0000
,
0100
0000
1000
0000
,
0010
0000
0001
0000
,
0100
0000
0001
0000
,
0010
0000
0000
0000
,
0200
0000
0000
0300
;

//---------------dance-single - ----------------
#NOTEDATA:;
#CHARTNAME:;
#STEPSTYPE:dance-single;
#DESCRIPTION:;
#CHARTSTYLE:;
#DIFFICULTY:Easy;
#METER:5;
#RADARVALUES:0.183907,0.205202,0.009679,0.009679,0.000000,133.000000,132.000000,1.000000,1.000000,0.000000,0.000000,0.000000,0.000000,0.000000,0.183907,0.205202,0.009679,0.009679,0.000000,133.000000,132.000000,1.000000,1.000000,0.000000,0.000000,0.000000,0.000000,0.000000;
#CREDIT:;
#DISPLAYBPM:130.000000;
#NOTES:
0000
0000
0000
0000
,
0000
0000
0000
0000
,
0000
0000
0000
0000
,
0000
0000
0000
0000
,
0000
0000
0000
0000
,
1000
0000
0001
0000
,
0010
1000
0100
0000
,
0010
0001
1000
1000
,
0001
0000
1000
0000
,
0010
0000
0100
0000
,
1000
0100
0001
0000
,
0010
1000
0100
0100
,
1000
0000
0100
0000
,
0001
0010
0100
1000
,
0010
0000
1000
0000
,
0100
0000
0001
0000
,
0100
0100
0100
0000
,
1000
0010
0100
0001
,
0010
0000
0100
0000
,
1000
0000
0010
0000
,
0001
0020
0000
0000
,
0030
0010
0000
0100
,
1000
0100
0000
0010
,
0000
0001
0000
1000
,
0010
0100
0010
0000
,
1000
0100
1000
0000
,
0000
0010
0000
0100
,
0001
0010
0000
0100
,
1000
0100
0010
0000
,
1000
1000
0000
0000
,
0010
0010
0000
0100
,
0010
0010
0000
1000
,
0001
0001
0000
0100
,
1000
0100
0010
0010
,
0001
0000
0100
0000
,
1000
0010
0100
0100
,
0001
0000
1000
0000
,
0001
0100
1000
0100
,
0001
0000
0010
0000
,
0100
0000
0100
0000
,
0001
1000
0001
0000
,
1000
0100
0001
0100
,
1000
0000
0100
0000
,
0010
0000
0010
0000
,
1000
0000
0001
0000
,
0100
0010
0001
0100
,
0000
0001
1000
0100
,
0000
1000
0010
0100
,
0001
0000
1000
0000
,
1000
0010
0100
0001
,
1000
0000
0001
0000
,
0010
0001
0010
0100
,
0010
0000
0000
0000
,
1001
0000
0000
0000
;

//---------------dance-single - ----------------
#NOTEDATA:;
#CHARTNAME:;
#STEPSTYPE:dance-single;
#DESCRIPTION:;
#CHARTSTYLE:;
#DIFFICULTY:Medium;
#METER:8;
#RADARVALUES:0.338776,0.352327,0.212945,0.077435,0.000000,245.000000,223.000000,22.000000,8.000000,0.000000,0.000000,0.000000,0.000000,0.000000,0.338776,0.352327,0.212945,0.077435,0.000000,245.000000,223.000000,22.000000,8.000000,0.000000,0.000000,0.000000,0.000000,0.000000;
#CREDIT:;
#DISPLAYBPM:130.000000;
#NOTES:
0000
0000
0000
0000
,
0000
0000
0000
0000
,
0000
0000
0000
0000
,
0000
0000
0000
0000
,
0000
0000
0000
0000
,
0010
0001
1000
0001
,
0100
0010
1000
0000
0100
0000
1010
0000
,
0100
0000
0001
0000
1000
0001
0010
0000
,
0100
0000
0011
0000
0001
0100
0010
0000
,
0100
1000
0001
1000
,
0010
0100
0001
0000
0010
0000
0101
0000
,
0010
0000
1000
0000
0001
1000
0100
0000
,
0020
0000
0000
0030
,
0010
1000
0100
0001
,
0100
1000
0020
0030
,
0001
1000
0001
0000
0010
0001
1000
0000
,
0110
0000
1000
0001
,
0100
0001
0010
1000
,
0010
0001
0200
0300
,
0001
1000
0001
0000
0100
0001
1000
0000
,
0200
0001
0310
0000
,
1001
1010
0010
0100
,
0001
0100
0010
0000
1100
0000
1001
0000
,
0010
0001
0100
0000
0010
0000
0100
0000
,
0010
1000
0001
0000
2000
0000
3100
0000
,
0010
0001
1000
0000
0010
0000
1000
0000
,
0010
1000
0001
0000
0100
0000
0001
0000
,
0100
0001
0010
0000
0100
0000
0010
0000
,
0100
1000
0010
0001
,
0110
0001
1001
0100
,
0020
0000
1030
0000
0001
0100
0001
0000
,
0020
0000
0031
0000
1000
0100
1000
0000
,
0002
0000
0013
0000
1000
0010
1000
0000
,
1001
0000
0010
0000
0100
0010
0001
0000
,
0010
0000
0110
0000
0010
0100
1000
0000
,
0010
0000
1001
0000
0001
0100
1000
0000
,
0100
0000
1001
0000
1000
0100
0001
0000
,
1000
0000
0001
0000
0001
1000
0010
0000
,
1000
0100
0010
0000
0100
0010
0001
0000
,
0100
0000
1001
0000
0010
1000
0001
0000
,
0100
0000
1001
0000
1000
0100
0001
0100
,
1000
0000
0100
0000
0010
0100
1000
0000
,
0100
0000
0110
0000
0100
0010
0001
0000
,
0100
0000
1001
0000
1000
0010
0100
0000
,
0010
0000
1001
0000
0001
0010
0100
0000
,
0001
0000
1000
0000
1000
0001
0100
0000
,
0001
0010
0100
0000
0010
0100
1000
0000
,
0010
0000
1001
0000
0100
0001
1000
0000
,
0010
0000
1001
0000
0001
0010
1000
0010
,
0001
0000
0100
0000
0010
0100
1000
0000
,
0001
0000
1000
0000
0100
0010
0001
0000
,
1000
0000
0001
0000
1000
0001
0100
0000
,
0110
0000
0000
0000
;

//---------------dance-single - ----------------
#NOTEDATA:;
#CHARTNAME:;
#STEPSTYPE:dance-single;
#DESCRIPTION:;
#CHARTSTYLE:;
#DIFFICULTY:Hard;
#METER:11;
#RADARVALUES:0.442483,0.513004,0.300059,0.125831,0.150030,320.000000,289.000000,31.000000,13.000000,0.000000,0.000000,0.000000,0.000000,0.000000,0.442483,0.513004,0.300059,0.125831,0.150030,320.000000,289.000000,31.000000,13.000000,0.000000,0.000000,0.000000,0.000000,0.000000;
#CREDIT:;
#DISPLAYBPM:130.000000;
#NOTES:
0000
0000
0000
0000
,
0000
0000
0000
0000
,
0000
0000
0000
0000
,
0000
0000
0000
0000
,
0000
0000
0000
0000
,
1000
0000
0000
0000
0000
0000
0001
0000
0000
0010
0000
0000
0100
0000
0000
0000
,
0002
0000
0000
0000
0000
0000
1003
0000
0000
0010
0000
0000
0100
0000
0000
0000
,
1000
0000
0000
0000
0000
0000
0100
0000
0000
0010
0000
0000
1000
0000
0000
0000
,
0001
1000
1010
0011
,
1000
0000
0000
0000
0100
0000
0010
0000
0000
0001
0000
0000
1000
0000
0000
0000
,
0020
0000
0000
0000
0031
0000
0100
0000
0000
0010
0000
0000
1000
0000
0000
0000
,
0001
0000
0000
0000
0100
0000
0010
0000
0000
1000
0000
0000
0100
0000
0000
0000
,
0010
0001
2000
3001
,
1000
0000
0000
1000
0001
0000
0000
0001
0010
0000
0000
0010
0100
0000
0000
0000
,
0110
0000
1010
0000
0101
0000
1001
0001
,
0010
0000
0100
0000
1000
0000
0010
0000
0100
0000
0000
0001
1000
0000
0000
0000
,
0110
0000
0000
0000
0000
0000
1000
0000
0000
0010
0000
0000
0001
0000
0000
0000
,
0100
0000
0000
0100
0010
0000
0000
0010
1000
0000
0000
1000
0100
0000
0000
0000
,
0011
0000
1100
1000
1010
0000
0110
0010
,
1000
0000
0100
0000
0010
0000
0100
0000
1000
0000
0000
0010
0100
0000
0100
0000
,
0001
0100
0020
0000
,
1030
0100
1000
0000
0001
0000
0010
0000
0100
0000
1000
0000
0010
0000
0100
0000
,
0001
0100
0001
0000
1000
0000
0010
0000
0100
0000
0001
0000
0101
0000
0000
0000
,
1000
0010
1000
0000
0100
0000
0010
0000
0001
0000
1000
0000
0010
0000
0100
0000
,
0002
1000
1000
0100
1003
0000
1001
0000
,
0010
0100
0010
0000
1000
0000
0001
0000
0100
0000
0010
0000
1000
0000
0100
0000
,
0010
0100
0010
0000
0001
0000
1000
0000
0100
0000
0010
0000
0110
0000
0000
0000
,
1000
0001
1000
0000
0010
0000
0001
0000
0100
0000
0010
0000
1000
0000
0010
0000
,
0200
0001
0001
0000
0310
0000
1001
0000
,
0001
0000
1000
0000
0010
0000
0000
0100
0000
0000
1000
0000
0010
0000
0000
0000
,
1000
0000
0001
0000
0100
0000
0000
0010
0000
0000
0001
0000
1000
0000
0000
0000
,
0010
0000
1000
0000
0001
0000
0000
0100
0000
0000
0010
0000
0001
0000
0000
0100
,
0000
0000
1000
0000
0010
0000
0000
0100
0000
0000
0001
0000
1000
0000
0000
0000
,
0010
0000
0000
1000
0001
0000
0000
0000
0100
0000
0000
0001
0010
0000
0000
0000
,
0100
0000
0000
1000
0010
0000
0000
0000
1000
0000
0000
0001
0100
0000
0000
0000
,
0020
2030
3200
0302
,
0023
0000
0031
0000
0011
0000
0100
0100
,
0010
1000
0100
0010
0100
1000
0010
0100
,
0010
0001
0100
0010
0100
0001
0010
0100
,
0001
0100
1000
0100
0001
0010
0100
0000
,
1100
0000
0101
0000
0011
0001
1010
0000
,
0100
0001
0010
0000
0100
1000
0001
0000
,
1100
0110
0011
1001
,
0100
0001
0010
0100
0010
0001
0100
0010
,
0100
1000
0010
0100
0010
1000
0100
0010
,
1000
0010
0001
0010
1000
0100
0010
0000
,
0001
1000
1100
0000
0001
0010
0011
0000
,
1000
0000
0000
0001
0100
0000
0010
0000
1000
0000
0100
0000
1100
0000
0000
0000
,
0001
0010
1000
0001
,
0001
0100
0110
0000
1000
0100
0110
0000
,
1000
0001
1000
0001
0100
0001
0100
0001
,
1000
0010
0001
0100
,
1000
0000
0220
0330
,
1001
0000
0000
0000
;

//---------------dance-single - ----------------
#NOTEDATA:;
#CHARTNAME:;
#STEPSTYPE:dance-single;
#DESCRIPTION:;
#CHARTSTYLE:;
#DIFFICULTY:Challenge;
#METER:13;
#RADARVALUES:0.593204,0.609434,0.174228,0.067755,0.329097,429.000000,411.000000,18.000000,7.000000,0.000000,0.000000,0.000000,0.000000,0.000000,0.593204,0.609434,0.174228,0.067755,0.329097,429.000000,411.000000,18.000000,7.000000,0.000000,0.000000,0.000000,0.000000,0.000000;
#CREDIT:;
#DISPLAYBPM:130.000000;
#NOTES:
0000
0000
0000
0000
,
0000
0000
0000
0000
,
0000
0000
0000
0000
,
0000
0000
0000
0000
,
0000
0000
0000
0000
,
1000
0000
0010
0000
0100
0000
0001
0000
0010
0100
0000
0100
1000
0000
0001
0000
,
1000
0000
0010
0000
0100
0000
0010
0000
1000
0001
0000
0001
0010
0000
0100
0000
,
1000
0000
0001
0000
0100
0000
0001
0000
1000
0010
0000
0010
0100
0000
0001
0000
,
0010
0000
0001
0000
1000
0000
0100
1000
0000
0010
0100
0000
0001
0000
0000
0000
,
1000
0000
0001
0000
0010
0000
0001
0000
0100
0010
0000
1000
0100
0000
0010
0000
,
0001
0000
1000
0000
0100
0000
0010
0000
0100
0010
0000
0001
1000
0000
0010
0000
,
0100
0000
0001
0000
0010
0000
0001
0000
1000
0010
0000
1000
0100
0000
0010
0000
,
0001
0000
0010
0000
0100
0000
1000
0010
0000
0100
0001
0000
1000
0000
0000
0000
,
1001
0001
0010
0100
1000
0010
0100
0001
,
2000
0000
0000
0000
3010
0100
0001
0000
1000
0000
0010
0000
0100
0000
0001
0000
,
0010
0010
0010
0001
1000
0010
0100
0100
,
0001
0000
0010
0000
0001
0000
0100
0010
0000
1000
0100
0000
1000
0000
0000
0000
,
0110
0001
1000
0010
1000
0100
0010
0001
,
0200
0000
0000
0000
0310
1000
0001
0000
0010
0000
0100
0000
1000
0000
0001
0000
,
1000
1000
0010
0010
0100
0100
0001
0001
,
0101
0000
0100
0000
0110
0000
0010
0000
2010
0000
0000
0000
3001
1000
0001
1000
,
0010
0000
0100
0000
0010
0000
1000
0100
1000
0001
1000
0000
0010
0000
0100
0000
,
0001
0000
0010
0000
0001
0000
1000
0010
0100
0010
1000
0000
0100
0000
0010
0000
,
0001
0000
1000
0000
0010
0000
1000
0100
1000
0001
0010
0000
0100
0000
0010
0000
,
0001
0000
0100
0000
0010
0000
1000
0100
1000
0001
0100
0000
0010
0000
1000
0000
,
0001
0000
0010
0000
0001
0000
0100
0010
1000
0001
1000
0000
0100
0000
0010
0000
,
0100
0000
1000
0000
0010
0000
0100
0001
0010
0001
1000
0000
0001
0000
0100
0000
,
0010
0000
1000
0000
0100
0000
0010
0001
0100
0010
1000
0000
0001
0000
0100
0000
,
0001
0000
0010
0000
0100
0000
1000
0000
0010
1000
0001
0000
0100
0000
0010
0000
,
1010
1000
1100
0000
0001
0100
0110
0000
,
1000
0000
0001
0000
1000
0000
0010
0000
0100
0001
0100
0000
0001
0000
1000
0000
,
1001
1000
1100
0000
1001
0001
0101
0000
,
0001
0010
0100
1000
0010
0100
0001
1000
,
0101
1200
0001
0001
,
1000
1000
0010
0310
,
2001
0001
0100
0010
,
0001
0000
3001
1000
0010
0100
0001
1000
,
0100
0000
0010
0001
0000
0001
1000
0000
0010
0000
0100
0000
0001
0000
1000
0000
,
0001
0000
0010
0100
0000
0100
1000
0000
0001
0000
1000
0000
0010
0000
0100
0000
,
0001
0000
0100
0010
0000
0010
1000
0000
0001
0000
0100
0000
0010
0000
1000
0000
,
0100
0000
0010
0100
0000
0100
1000
0000
0001
0000
0010
0000
0001
0000
1000
0000
,
0010
0000
1000
0001
0000
0001
0010
0000
0100
0000
1000
0000
0001
0000
0100
0000
,
0010
0000
0100
0001
0000
0001
0010
0000
0001
0000
1000
0000
0100
0000
1000
0000
,
0100
0000
0010
0001
0000
0001
0100
0000
0010
0000
1000
0000
0100
0000
1000
0000
,
0001
0000
1000
0010
0000
0010
0100
0000
0010
0000
1000
0000
0001
0000
0100
0000
,
0001
0000
1000
0010
0100
0010
1000
0000
0001
0000
0100
0000
0010
0000
1000
0000
,
0100
0000
0010
0001
1000
0001
0010
0000
0001
0000
0100
0000
0010
0000
1000
0000
,
0100
0000
1000
0001
0100
0001
1000
0000
0010
0000
0100
0000
0010
0000
1000
0000
,
0100
0000
0010
0001
0100
0001
0010
0000
0001
0000
1000
0000
0100
0000
1000
0000
,
0010
0000
0100
0001
1000
0010
0100
0000
0001
0000
0010
0000
0100
0000
1000
0000
,
0001
0000
1000
0010
1000
0100
0010
0000
0100
0000
1000
0000
0001
0000
0100
0000
,
0001
0000
0010
0001
0100
0001
1000
0000
0010
0000
0100
0000
0001
0000
1000
0000
,
0001
0010
0100
1000
1100
0000
0101
0000
,
2002
0000
0000
0000
,
0000
0000
0000
3003
;

//---------------dance-double - ----------------
#NOTEDATA:;
#CHARTNAME:;
#STEPSTYPE:dance-double;
#DESCRIPTION:;
#CHARTSTYLE:;
#DIFFICULTY:Easy;
#METER:5;
#RADARVALUES:0.230921,0.291469,0.106473,0.038717,0.000000,167.000000,156.000000,11.000000,4.000000,0.000000,0.000000,0.000000,0.000000,0.000000,0.230921,0.291469,0.106473,0.038717,0.000000,167.000000,156.000000,11.000000,4.000000,0.000000,0.000000,0.000000,0.000000,0.000000;
#CREDIT:;
#DISPLAYBPM:130.000000;
#NOTES:
00000000
00000000
00000000
00000000
,
00000000
00000000
00000000
00000000
,
00000000
00000000
00000000
00000000
,
00000000
00000000
00000000
00000000
,
00000000
00000000
00000000
00000000
,
00001001
00000000
00000000
00000000
,
00000001
00000100
00001000
00000000
,
00100000
00001000
01000000
00000000
,
00100000
10000000
00010000
00000000
,
10010000
00000000
00000000
00000000
,
01000000
00100000
00010000
00000000
,
00000010
00001000
00000100
00000000
,
00010000
00000100
00001000
00000000
,
00000001
00000001
00000100
00000100
,
00000010
00001000
00010000
00000000
,
10000000
00010000
00100000
01000000
,
10000000
00000000
00000000
00000000
,
00100000
00100000
10000000
10000000
,
01000000
00010000
00001000
00000000
,
00000001
00000100
00000001
00000010
,
00000100
00000100
00000000
00000000
,
00010000
00001000
00010000
00010000
,
00100000
01000000
10000000
10000000
,
00010000
00100000
00001000
00001000
,
00010000
00000100
00000010
00000000
,
00000001
00000100
00000010
00000010
,
00010000
00000100
00001000
00001000
,
00000100
00000010
00000100
00001000
,
00100000
00010000
01000000
00001000
,
01100000
10010000
00000000
00000000
,
10000000
00010000
00100000
01000000
,
01100000
10010000
00000000
00000000
,
00010000
00001000
00000010
00000100
,
00000110
00001001
00000000
00000000
,
00000000
00000000
00000000
00000000
,
00022000
00000000
00000000
00000000
,
00000000
00003000
00001000
00030010
,
00010000
00010000
00100000
01000000
,
10000000
00100000
10000000
00010000
,
00100000
01000000
10000000
00010000
,
00100000
00001000
00010000
00100000
,
01000000
00100000
00001000
00000010
,
00000100
00000010
00010000
00000100
,
00000010
00000001
00001000
00000100
,
00010000
00001000
00010000
00100000
,
01000000
10000000
00100000
10000000
,
00010000
00100000
00001000
01000000
,
00100000
01000000
00010000
00100000
,
00001000
00010000
00001000
00000100
,
00000010
00000001
00000100
00000010
,
00000100
00000001
00000010
00000100
,
00001000
00000100
00010000
00001000
,
00011000
00000000
10000000
00000000
,
20020000
00000000
00000000
00000000
,
00000000
00000000
00000000
30030000
;

//---------------dance-double - ----------------
#NOTEDATA:;
#CHARTNAME:;
#STEPSTYPE:dance-double;
#DESCRIPTION:;
#CHARTSTYLE:;
#DIFFICULTY:Medium;
#METER:9;
#RADARVALUES:0.391321,0.450452,0.290380,0.029038,0.000000,283.000000,253.000000,30.000000,3.000000,0.000000,0.000000,0.000000,0.000000,0.000000,0.391321,0.450452,0.290380,0.029038,0.000000,283.000000,253.000000,30.000000,3.000000,0.000000,0.000000,0.000000,0.000000,0.000000;
#CREDIT:;
#DISPLAYBPM:130.000000;
#NOTES:
00000000
00000000
00000000
00000000
,
00000000
00000000
00000000
00000000
,
00000000
00000000
00000000
00000000
,
00000000
00000000
00000000
00000000
,
00000000
00000000
00000000
00000000
,
00001100
00000001
00001000
00000100
,
00010000
00001000
00010000
00001000
00000000
00000000
00000000
00000000
,
01000000
00100000
01000000
00100000
00000000
00000000
00000000
00000000
,
10000000
01000000
00100000
00010000
00000000
00001000
00100000
00000000
,
00011000
00000100
00001000
00000001
,
00000010
00000001
00000010
00000001
00000000
00000000
00000000
00000000
,
00000100
00001000
00000100
00001000
00000000
00000000
00000000
00000000
,
00100000
00001000
00100000
00001000
00000000
00010000
01000000
00000000
,
01010000
11000000
01010000
00011000
,
00001100
00000101
00001100
00000000
,
00000010
00000001
00000100
00000000
00000010
00001000
00000100
00000000
,
00010000
00001000
00010000
00000000
00100000
01000000
10000000
00000000
,
01010000
11000000
01010000
00011000
,
00001100
00000101
00001100
00000000
,
00010000
00000100
00001000
00000000
00100000
01000000
10000000
00000000
,
00010000
10000000
01000000
00000000
00000000
00000000
00000000
00000000
,
10000000
00010000
00100000
01000000
00000000
10000000
00100000
01000000
,
00000000
00010000
00100000
00001000
00000000
00010000
00000000
00000010
,
00000100
00000001
00000010
00000100
00000000
00010000
00000100
00001000
,
00000000
00000010
00001000
00000001
00000000
00001000
00010000
00000000
,
00100000
01000000
00100000
00010000
00000000
01000000
00000000
00001000
,
00000000
00100000
00010000
01000000
00000000
00001000
00000000
00010000
,
00000100
00001000
00000010
00000100
00000000
00000001
00000100
00000010
,
00000000
00001000
00000100
00010000
00000000
00001000
01000000
00010000
,
10010000
01100000
10010000
01100000
,
00100000
00000000
00010000
00000000
00001000
00000010
00000100
00000001
,
00001001
00000110
00001001
00000110
,
00010000
00000000
00000100
00000000
00001000
00000010
00000100
00000001
,
00000011
00001100
00000010
00000100
,
00000010
00010000
00001000
01000000
,
00120000
01000000
00100000
10000000
,
01000000
00000000
00130000
00001000
00000000
00010000
00001000
01000000
,
00100000
10000000
01000000
00000000
00100000
00010000
01000000
00000000
,
00001000
01000000
00100000
00000000
01000000
00010000
00001000
00000000
,
00000100
00000010
00000100
00000000
00001000
00000010
00010000
00000000
,
00000100
00010000
00000010
00000000
00000100
00000010
00001000
00000000
,
00000100
00010000
01000000
00000000
00100000
10000000
00010000
00000000
,
00100000
01000000
00100000
00000000
00010000
01000000
00100000
00000000
,
10000000
00010000
00000100
00000000
00000001
00000010
00000100
00000000
,
00001000
00000010
00000100
00000000
00000010
00010000
00001000
00000000
,
00010000
00000100
00001000
00000000
00000010
00000100
00000001
00000000
,
00000010
00010000
00001000
00000000
00010000
01000000
10000000
00000000
,
00100000
01000000
00010000
00000000
01000000
00001000
00010000
00000000
,
00000010
00000001
00000100
00000000
00000001
00001000
00000100
00000000
,
00001000
00000010
00001000
00000100
00010000
00001000
00100000
00000000
,
01000000
10000000
00100000
01000000
00100000
10000000
00010000
00000000
,
00100000
00001000
00010000
00001000
00010000
00000010
00000100
00000000
,
00001100
00000000
00011000
00000000
,
02200000
00000000
00000000
00000000
,
00000000
00000000
00000000
03300000
;

//---------------dance-double - ----------------
#NOTEDATA:;
#CHARTNAME:;
#STEPSTYPE:dance-double;
#DESCRIPTION:;
#CHARTSTYLE:;
#DIFFICULTY:Hard;
#METER:12;
#RADARVALUES:0.497794,0.503446,0.203266,0.048397,0.043557,360.000000,339.000000,21.000000,5.000000,0.000000,0.000000,0.000000,0.000000,0.000000,0.497794,0.503446,0.203266,0.048397,0.043557,360.000000,339.000000,21.000000,5.000000,0.000000,0.000000,0.000000,0.000000,0.000000;
#CREDIT:;
#DISPLAYBPM:130.000000;
#NOTES:
00000000
00000000
00000000
00000000
,
00000000
00000000
00000000
00000000
,
00000000
00000000
00000000
00000000
,
00000000
00000000
00000000
00000000
,
00000000
00000000
00000000
00000000
,
00001000
00000000
00010000
00000000
00100000
00000000
01000000
00000000
00000000
10000000
00000000
00000000
00010000
00000000
00000000
00000000
,
01000000
00000000
00100000
00000000
10000000
00000000
01000000
00000000
00000000
00100000
00000000
00000000
00010000
00000000
00000000
00000000
,
00000010
00000000
00010000
00000000
00000100
00000000
00001000
00000000
00000000
00000001
00000000
00000000
00000100
00000000
00000000
00000000
,
00000001
00000000
00000010
00000000
00000100
00000000
00001000
00000000
00000000
00000010
00000000
00000000
00010000
00000000
00000000
00000000
,
00100000
00000000
00001000
00000000
00010000
00000000
00000010
00000000
00000000
00000100
00000000
00000000
00000001
00000000
00000000
00000000
,
00001000
00000000
00000010
00000000
00010000
00000000
00000100
00000000
00000000
00001000
00000000
00000000
00100000
00000000
00000000
00000000
,
01000000
00000000
10000000
00000000
00001000
00000000
00100000
00000000
00000000
00010000
00000000
00000000
01000000
00000000
00000000
00000000
,
00010000
00000000
00100000
00000000
00010000
00000000
10000000
00000000
00000000
00100000
00000000
00000000
01000000
00000000
00000000
00000000
,
00010000
00100000
00001000
00100000
00010000
01000000
00001000
01000000
,
00010000
00100000
00001000
01000000
00010000
10000000
01000000
00000000
,
00100000
00001000
00010000
00000010
00000100
00000010
00001000
00000001
,
00000010
00000000
00000100
00000000
00001000
00000000
00000010
00000000
00000000
00010000
00000000
00000000
00001000
00000000
00000000
00000000
,
00010000
00000100
00001000
00000100
00010000
00000010
00001000
00000010
,
00010000
00000100
00001000
00000010
00010000
01000000
00100000
00000000
,
10000000
00010000
00100000
01000000
00100000
00001000
01000000
00010000
,
00100000
00001000
00022000
00000000
00000000
00000000
00033000
00000000
,
00000001
00000010
00000100
00000010
00000001
00000100
00000010
00001000
,
00000100
00000010
00000100
00001000
00000010
00010000
00000100
00001000
,
00100000
01000000
10000000
00010000
00100000
00001000
00010000
01000000
,
10000000
00100000
01000000
00010000
00100000
01000000
10000000
00000000
,
00010000
00000100
00000010
00000001
00000100
00000010
00001000
00000100
,
00010000
00000010
00001000
00000001
00000010
00000100
00001000
00000100
,
00000010
00010000
00000100
00000010
00000001
00000100
00000010
00001000
,
00100000
01000000
10000000
00010000
10000000
00100000
01000000
00010000
,
00110000
00011000
00001100
00011000
,
00110000
00010000
01000000
00100000
10000000
01000000
00100000
00010000
,
00010100
00011000
00101000
00011000
,
00010100
00000010
00001000
00000100
00000010
00000100
00001000
00000001
,
00000011
00001001
00001100
00001001
,
00000010
00001000
00000100
00000010
00000001
00000100
00001000
00000000
,
01020000
00000000
00000100
00000000
10000000
10000000
10000000
00000000
,
00100000
00100000
00130000
00010000
01000000
00100000
10000000
00010000
,
00100000
00001000
00010000
00000010
00000100
00000010
00010000
00001000
,
00000100
00000010
00000001
00000100
00000010
00000100
00000001
00001000
,
00000100
00010000
00000100
00001000
00000010
00010000
00001000
00100000
,
00010000
01000000
00100000
10000000
01000000
00100000
01000000
10000000
,
00001000
00100000
00010000
01000000
00100000
10000000
01000000
00010000
,
00000100
00001000
00000010
00010000
00000010
00000100
00000001
00001000
,
00000100
00001000
00000010
00000100
00000010
00010000
00000100
00001000
,
00000010
00010000
00001000
01000000
00001000
00100000
01000000
10000000
,
00010000
00100000
01000000
00100000
00001000
00010000
00001000
01000000
,
00001000
00000010
00000100
00000010
00010000
00000100
00000010
00000001
,
00000010
00000100
00001000
00100000
00010000
01000000
00100000
10000000
,
00010000
00100000
01000000
00100000
00001000
00000100
00010000
00000010
,
00000100
00000001
00001000
00000100
00010000
00000010
00100000
00001000
,
00010000
00000100
00001000
00000010
00000100
00000001
00000010
00000100
,
00010000
00001000
00100000
01000000
10000000
00100000
01000000
00010000
,
00110000
11000000
10100000
01010000
,
00022000
00000000
00000000
00000000
,
00000000
00000000
00000000
00033000
;

//---------------dance-double - ----------------
#NOTEDATA:;
#CHARTNAME:;
#STEPSTYPE:dance-double;
#DESCRIPTION:;
#CHARTSTYLE:;
#DIFFICULTY:Challenge;
#METER:13;
#RADARVALUES:0.597353,0.609434,0.174228,0.019359,0.314578,432.000000,414.000000,18.000000,2.000000,0.000000,0.000000,0.000000,0.000000,0.000000,0.597353,0.609434,0.174228,0.019359,0.314578,432.000000,414.000000,18.000000,2.000000,0.000000,0.000000,0.000000,0.000000,0.000000;
#CREDIT:;
#DISPLAYBPM:130.000000;
#NOTES:
// measure 0
00000000
00000000
00000000
00000000
,  // measure 1
00000000
00000000
00000000
00000000
,  // measure 2
00000000
00000000
00000000
00000000
,  // measure 3
00000000
00000000
00000000
00000000
,  // measure 4
00000000
00000000
00000000
00000000
,  // measure 5
00000010
00000000
00001000
00000000
00000100
00000000
00010000
00001000
00000000
01000000
00100000
00000000
10000000
00000000
00010000
00000000
,  // measure 6
00100000
00000000
01000000
00000000
00100000
00000000
00001000
00010000
00000000
00001000
00100000
00000000
01000000
00000000
10000000
00000000
,  // measure 7
00010000
00000000
00100000
00000000
01000000
00000000
00100000
00001000
00000000
00010000
00000100
00000000
00001000
00000000
00000001
00000000
,  // measure 8
00000010
00000000
00000100
00000000
00001000
00000000
00000010
00000100
00000000
00000001
00001000
00000000
00001100
00000000
00000000
00000000
,  // measure 9
00010000
00000000
00000010
00000000
00000100
00000000
00000010
00001000
00000000
00000100
00010000
00000000
00100000
00000000
01000000
00000000
,  // measure 10
10000000
00000000
00100000
00000000
01000000
00000000
00010000
00100000
00000000
00001000
00010000
00000000
01000000
00000000
00100000
00000000
,  // measure 11
01000000
00000000
00001000
00000000
00100000
00000000
00001000
00010000
00000000
00000100
00000010
00000000
00000001
00000000
00001000
00000000
,  // measure 12
00000010
00000000
00001000
00000000
00000100
00000000
00010000
00001000
00000000
01000000
00100000
00000000
10100000
00000000
00000000
00000000
,  // measure 13
10010000
00100000
00010000
01000000
00001000
00010000
00001000
00100000
,  // measure 14
00000010
00001000
00000100
00000010
00000001
00000100
00000001
00001000
,  // measure 15
00000100
00001000
00000010
00000100
00000010
00010000
00001000
01000000
,  // measure 16
00100000
00000000
10000000
00000000
00010000
00000000
00100000
01000000
00000000
01000000
10000000
00000000
11000000
00000000
00000000
00000000
,  // measure 17
00110000
00001000
00010000
00000010
00001000
00000100
00010000
00000010
,  // measure 18
00000100
00000001
00000010
00000100
00001000
00000010
00000100
00000001
,  // measure 19
00010000
00001000
00010000
00100000
01000000
00100000
00001000
00010000
,  // measure 20
00011000
00000000
00001000
00000000
01001000
00000000
01000000
00000000
01100000
00000000
00000000
00000000
10000000
00010000
10000000
00010000
,  // measure 21
00100000
00000000
00010000
00000000
01000000
00000000
00010000
00100000
01000000
00100000
00010000
00000000
10000000
00000000
00100000
00000000
,  // measure 22
01000000
00000000
00001000
00000000
00010000
00000000
00000100
00001000
00000010
00001000
00000100
00000000
00000010
00000000
00000001
00000000
,  // measure 23
00001000
00000000
00000010
00000000
00010000
00000000
00000100
00001000
00000010
00001000
00000100
00000000
00000010
00000000
00000001
00000000
,  // measure 24
00001000
00000000
00000010
00000000
00010000
00000000
00001000
00100000
00010000
00100000
01000000
00000000
10000000
00000000
00010000
00000000
,  // measure 25
00000100
00000000
00001000
00000000
00000010
00000000
00000100
00000010
00001000
00000100
00001000
00000000
00000001
00000000
00000010
00000000
,  // measure 26
00000100
00000000
00010000
00000000
00001000
00000000
00100000
01000000
10000000
00100000
01000000
00000000
00001000
00000000
00100000
00000000
,  // measure 27
01000000
00000000
00100000
00000000
01000000
00000000
10000000
00010000
00100000
00010000
01000000
00000000
00001000
00000000
00010000
00000000
,  // measure 28
00000010
00000000
00001000
00000000
00000100
00000000
00000010
00000000
00000001
00000100
00000010
00000000
00010000
00000000
00001000
00000000
,  // measure 29
00011000
00000000
00001100
00000000
00000001
00000100
00001001
00000000
,  // measure 30
00000010
00001000
00000100
00000010
00000001
00000100
00010000
00000000
,  // measure 31
00110000
00000000
00101000
00000000
00010000
10000000
11000000
00000000
,  // measure 32
00100000
01000000
10000000
00010000
00100000
01000000
00100000
00001000
,  // measure 33
00011000
00000110
00000001
00000001
,  // measure 34
00001000
00001000
00000100
00000100
,  // measure 35
00010100
00100000
00010000
01000000
00100000
10000000
01000000
00100000
,  // measure 36
00010000
01000000
00001000
00100000
01000000
10000000
00010000
01000000
,  // measure 37
00001000
00000000
00100000
00000000
00010000
00000000
00001000
00000000
00000100
00000000
00000010
00000001
00000000
00000001
00001000
00000000
,  // measure 38
00000010
00000000
00001000
00000000
00000100
00000000
00010000
00000000
00001000
00000000
00010000
00000010
00000000
00000010
00000100
00000000
,  // measure 39
00000001
00000000
00000010
00000000
00001000
00000000
00000100
00000000
00010000
00000000
00001000
01000000
00000000
01000000
00100000
00000000
,  // measure 40
10000000
00000000
00010000
00000000
00100000
00000000
01000000
00000000
10000000
00000000
00010000
00100000
00000000
00001000
01000000
00000000
,  // measure 41
00100000
00000000
01000000
00000000
00001000
00000000
00010000
00000000
00000100
00000000
00000010
00000001
00000000
00000001
00001000
00000000
,  // measure 42
00000100
00000000
00010000
00000000
00001000
00000000
01000000
00000000
00010000
00000000
00100000
01000000
00000000
01000000
10000000
00000000
,  // measure 43
00100000
00000000
01000000
00000000
00001000
00000000
00100000
00000000
01000000
00000000
10000000
00010000
00000000
00010000
00100000
00000000
,  // measure 44
00010000
00000000
01000000
00000000
00001000
00000000
00100000
00000000
00010000
00000000
10000000
00100000
00000000
00100000
00010000
00000000
,  // measure 45
00001000
00000000
00000100
00000000
00000010
00000000
00000001
00000000
00001000
00000000
00000100
00010000
00001000
00010000
00000100
00000000
,  // measure 46
00000010
00000000
00000100
00000000
00001000
00000000
00000010
00000000
00010000
00000000
00000100
00001000
00000001
00001000
00000100
00000000
,  // measure 47
00000010
00000000
00000001
00000000
00000100
00000000
00010000
00000000
00001000
00000000
01000000
00010000
00100000
00010000
01000000
00000000
,  // measure 48
10000000
00000000
00100000
00000000
01000000
00000000
00001000
00000000
00100000
00000000
01000000
10000000
00100000
10000000
01000000
00000000
,  // measure 49
00100000
00000000
00001000
00000000
00010000
00000000
00000100
00000000
00001000
00000000
00000010
00000100
00000001
00000010
00000100
00000000
,  // measure 50
00001000
00000000
00000001
00000000
00000100
00000000
00000010
00000000
00010000
00000000
00001000
01000000
00010000
00100000
01000000
00000000
,  // measure 51
10000000
00000000
00010000
00000000
00100000
00000000
00001000
00000000
00010000
00000000
00000100
00001000
00000010
00000100
00000001
00000000
,  // measure 52
00000010
00000100
00001000
00000001
00001000
00000010
00010000
00000100
,  // measure 53
00002200
00000000
00000000
00000000
,  // measure 54
00000000
00000000
00000000
00003300
;
