#TITLE:Merry Go 'Round;
#SUBTITLE:;
#ARTIST:Kacey Musgraves;
#TITLETRANSLIT:;
#SUBTITLETRANSLIT:;
#ARTISTTRANSLIT:;
#GENRE:;
#CREDIT:;
#BANNER:Merry Go 'Round-bn.png;
#BACKGROUND:Merry Go 'Round-bg.png;
#LYRICSPATH:;
#CDTITLE:;
#MUSIC:Merry Go 'Round.ogg;
#OFFSET:0.000000;
#SAMPLESTART:44.143002;
#SAMPLELENGTH:20.000000;
#SELECTABLE:YES;
#DISPLAYBPM:87.000000;
#BPMS:0.000000=86.989998
;
#STOPS:
;
#BGCHANGES:;
#KEYSOUNDS:;
#ATTACKS:;

//---------------dance-single - ----------------
#NOTES:
     dance-single:
     :
     Challenge:
     11:
     0.451362,0.436714,0.053165,0.098735,0.744313,416.000000,409.000000,7.000000,13.000000,0.000000,0.000000,0.451362,0.436714,0.053165,0.098735,0.744313,416.000000,409.000000,7.000000,13.000000,0.000000,0.000000:
0000
0000
0000
0000
,
0000
0000
0000
0000
,
0000
0000
0000
0000
,
0000
0000
0000
0000
,
1000
0010
0000
0100
0000
0001
0000
2000
0000
0000
0010
0000
3010
0100
0000
0001
,
0000
0000
0100
0000
0100
0000
0010
2000
0000
0000
3001
0020
0000
0000
0031
1000
,
0000
0000
0000
0000
0010
1000
0000
0002
0000
0000
0013
0100
0000
1000
0000
0002
,
0000
0000
0013
0001
0000
0000
1000
0010
0000
0000
0100
0001
0000
0000
1000
0100
,
1000
0010
0100
0010
0100
0010
0100
0010
0000
0000
1000
0001
0000
0000
0100
0001
,
0000
0100
0010
0100
0010
0100
0010
0100
0000
0000
0001
0010
0000
0000
0001
1000
,
0000
0000
0001
0100
0001
0100
0001
0100
0000
0000
0001
0010
0000
0000
0001
1000
,
0000
0000
0100
1000
0100
1000
0100
1000
0000
0000
0010
0100
0000
0000
0001
1000
,
0002
0000
1000
0000
0000
0000
0103
0000
0010
0000
0001
0100
0000
0010
1000
0000
,
0000
0000
0100
1000
0000
0000
1000
0001
0000
0000
0001
0010
0000
0000
0010
0100
,
2000
0000
0001
0000
0000
0000
3010
0000
0100
0000
0001
0100
0000
0010
1000
0000
,
0100
0000
0010
0001
0000
1000
0000
0020
0000
0000
0130
0010
0000
1000
0001
0000
,
0100
0010
0000
1000
0000
0100
0010
0000
0001
1000
0000
0001
1000
0000
0000
0000
,
0010
0100
0000
0001
0000
0010
0100
0000
1000
0001
0000
1000
0001
0000
0000
0010
,
0001
0000
0100
0010
0000
0010
1000
0000
0100
0000
0010
0001
0000
0001
1000
0000
,
0100
0000
1000
0010
0000
0100
0000
0001
0010
0000
0001
1000
0000
1000
0100
0000
,
1000
0001
0000
0010
0000
0100
0000
1000
0010
0000
0100
0001
0000
0001
0100
0000
,
0010
0100
0000
0001
1000
0000
0100
0010
0000
0001
0000
1000
0000
0001
0100
0000
,
0010
1000
0000
0001
0000
0010
0100
0000
1000
0010
0000
0100
0000
0001
0000
1000
,
0100
0000
1000
0010
0000
1000
0000
0001
0000
0010
0100
0000
1000
0001
1000
0000
,
0001
0000
0100
0010
1000
0000
0000
0000
0100
0000
0010
0001
0000
0001
1000
0000
,
1001
0000
0010
1000
0100
0000
0010
0001
0100
0000
0010
1000
0001
0000
0000
0000
,
0100
0000
0001
1000
0000
0001
1000
0000
1010
0000
0000
0110
0000
0000
0101
0000
,
1000
0000
0010
0100
0000
0100
0001
0000
0010
0001
0000
0100
0000
0010
1000
0000
,
0001
0000
1000
0010
0000
1000
0100
0000
0010
0000
0001
1000
0000
0001
0100
0000
,
0110
0000
0001
1000
0001
1000
0001
1000
0000
0000
0010
0100
0000
0000
0001
0100
,
0010
0100
0000
0001
0000
1000
0100
0000
1000
0000
0001
0010
0000
0100
1000
0000
,
0010
0000
1000
0001
0100
0001
1000
0000
0010
0100
0010
0000
1000
0100
0010
0001
,
0100
0000
0001
0010
0001
1000
0001
0000
0100
0010
0000
1000
0000
0010
0100
0000
,
0010
0100
0000
0001
0000
0010
0000
0001
1000
0000
0010
1000
0000
0001
0100
0000
,
0010
0100
0000
0010
1000
0000
0001
0010
0000
0001
0000
1000
0000
0001
0100
0000
,
0001
1000
0000
0100
0000
1000
0001
0000
0010
0001
0000
0100
0000
0010
0000
1000
,
0100
0000
0010
0100
0000
1000
0001
0010
0000
0001
0100
0000
0001
1000
0010
0000
,
0100
0000
0001
0010
0000
0010
0001
0000
1000
0000
0100
1000
0000
1000
0001
0000
,
1001
0000
0100
0001
0100
0001
0100
0001
0000
0000
0010
0100
0000
0000
1000
0001
,
0000
0000
1000
0010
1000
0010
1000
0010
0000
0000
0100
0010
0000
0100
0001
0000
,
0010
0000
0001
1000
0001
1000
0001
1000
0000
0000
0010
0100
0000
0000
0100
0001
,
0000
0000
0010
0001
0010
0001
0010
0001
0000
0000
0001
0100
0000
0010
1000
0000
,
0100
0000
1000
0010
0000
0100
0010
0000
1000
0000
0001
0010
0001
0000
0000
0000
,
0200
0000
0320
0000
0230
0000
0320
0000
1030
0000
0001
0010
0100
0000
0000
0000
,
1000
0000
0010
0200
0001
0000
0000
0301
1000
0010
0000
1000
0100
0000
0000
0000
,
0010
0000
0001
1000
0000
1000
0100
0000
1000
0010
0000
0100
0000
0001
1000
0000
,
0101
0000
0000
0000
;

//---------------dance-single - ----------------
#NOTES:
     dance-single:
     :
     Hard:
     9:
     0.369987,0.384309,0.053165,0.015190,0.227851,341.000000,334.000000,7.000000,2.000000,0.000000,0.000000,0.369987,0.384309,0.053165,0.015190,0.227851,341.000000,334.000000,7.000000,2.000000,0.000000,0.000000:
0000
0000
0000
0000
,
0000
0000
0000
0000
,
0000
0000
0000
0000
,
0000
0000
0000
0000
,
1000
0010
0100
0001
0010
0100
1000
0001
,
0010
0001
0100
0010
1000
0001
1000
0100
,
0010
0000
0001
0100
0001
0010
0100
1000
,
0010
0000
0100
0001
0000
0000
0001
1000
0000
0000
1000
0010
0000
0000
0010
0100
,
0010
1000
0001
0010
0001
0100
0010
1000
,
0100
0010
0001
1000
0010
0100
0010
1000
,
0001
0010
0001
0100
0001
0010
0100
1000
,
0010
0000
0100
0001
0000
0000
0001
0010
0000
0000
0010
0100
0000
0000
0100
1000
,
0002
0000
0000
0000
0000
0000
0013
0000
0001
0000
0100
0010
0000
0100
0010
0000
,
0000
0000
1000
0100
0000
0000
0100
0010
0000
0000
0010
0001
0000
0000
0001
1000
,
0002
0000
0000
0000
0000
0000
1003
0000
0100
0000
1000
0010
0000
0010
0100
0000
,
0001
1000
0010
0100
0001
0010
0100
1000
,
0010
0000
0100
0000
0001
0000
0010
0000
0001
1000
0000
0001
0100
0000
0000
0000
,
0010
0000
0100
0000
0001
0000
0010
0000
0100
1000
0000
0001
1000
0000
0000
0000
,
0010
0100
0010
1000
0100
1000
0001
0010
,
0100
1000
0010
0100
0001
0010
0001
1000
,
0010
0000
0100
0000
0010
0000
1000
0000
0100
0000
0010
0001
0000
0001
1000
0000
,
0001
0000
0100
0000
0010
0000
1000
0100
0000
1000
0100
0000
0010
0000
0001
0000
,
0100
0000
0010
0100
0000
0001
1000
0000
0010
0000
0100
0000
0001
0000
1000
0000
,
0010
0100
0010
1000
0100
0000
1000
0001
,
0010
0000
0000
0100
0000
0000
1000
0000
0010
0000
0000
0100
0000
0000
0001
0000
,
1001
0000
0010
0000
0100
0000
0001
0000
0010
0000
0100
1000
0001
0000
0000
0000
,
1000
0000
0010
0100
0000
0100
0001
0000
0011
0000
0000
0110
0000
0000
1100
0000
,
0001
0000
0000
1000
0000
0000
0010
0000
0100
0000
0010
0100
0000
0001
1000
0000
,
0100
0000
0000
0010
0000
0000
0001
0000
1000
0000
0000
0010
0000
0000
0100
0000
,
0110
0010
1000
0100
1000
0010
0100
0001
,
0010
0100
1000
0010
0100
0010
1000
0001
,
0100
0000
0001
0000
0010
0100
1000
0000
0010
0100
0001
0000
1000
0001
0100
0000
,
0010
0000
1000
0000
0001
0010
0100
0000
1000
0001
0000
0100
0000
0010
1000
0000
,
0001
0000
0010
0000
0100
0000
1000
0000
0010
0000
0100
0001
0000
0001
1000
0000
,
0010
0000
0100
0000
0010
0000
1000
0001
0000
0001
1000
0000
0100
0000
0010
0000
,
0001
0000
0100
0010
0000
0100
0010
0000
1000
0000
0100
0000
1000
0000
0001
0000
,
0100
0010
1000
0100
0010
0000
0001
1000
,
0010
0000
0000
1000
0000
0000
0100
0000
0010
0000
0000
0001
0000
0000
1000
0000
,
1001
0000
0010
0000
0100
0000
0010
0000
0000
0000
1000
0001
0000
0000
1000
0100
,
0000
0000
0010
0000
0001
0000
0010
0000
0000
0000
0001
0100
0000
0010
1000
0000
,
0100
0000
1000
0000
0001
0000
1000
0000
0000
0000
0010
0100
0000
0000
0100
0001
,
0000
0000
1000
0000
0010
0000
1000
0000
0000
0000
0001
0010
0000
0000
0001
0100
,
0001
0010
0001
1000
0010
0100
0001
0000
,
0010
0001
1000
0010
0100
0010
1000
0000
,
0100
0010
0100
0010
0001
1000
0100
0000
,
1000
0010
0100
0001
1000
0100
0010
0001
,
1001
0000
0000
0000
;

//---------------dance-single - ----------------
#NOTES:
     dance-single:
     :
     Medium:
     7:
     0.264741,0.262029,0.053165,0.015190,0.034178,244.000000,237.000000,7.000000,2.000000,0.000000,0.000000,0.264741,0.262029,0.053165,0.015190,0.034178,244.000000,237.000000,7.000000,2.000000,0.000000,0.000000:
0000
0000
0000
0000
,
0000
0000
0000
0000
,
0000
0000
0000
0000
,
0000
0000
0000
0000
,
1000
0010
1000
0010
0000
0100
0000
0001
,
0000
0010
0000
0100
0000
1000
0000
0001
,
0000
1000
0000
0010
0000
0100
0000
0001
,
0000
0010
0000
0001
0000
0100
0000
0001
,
1000
0100
1000
0100
0000
0010
0000
0001
,
0000
0100
0010
0100
0000
0001
0000
1000
,
0000
0001
0010
0001
0000
0010
0000
0100
,
0000
0010
0100
0010
0000
0001
0000
1000
,
0002
0000
0000
0103
0001
1000
0001
1000
,
0000
0001
0000
0100
0000
0010
0000
1000
,
0002
0000
0000
0103
0010
0100
0010
0100
,
0001
0000
1000
0100
0010
0000
0001
1000
,
0001
0000
0000
0010
0000
0000
0100
0000
1000
0000
0000
0010
0000
0000
0000
0000
,
0100
0000
0000
0001
0000
0000
1000
0000
0001
0000
0000
0010
0000
0000
0000
0000
,
0100
0000
0000
1000
0000
0000
0100
0000
0010
0000
0000
0001
0000
0000
1000
0000
,
0100
0000
1000
0010
0100
0000
0001
1000
,
0001
0100
0001
0000
1000
0100
1000
0000
,
0001
0010
0001
0000
1000
0010
1000
0000
,
0100
0010
0001
0000
0100
0010
1000
0000
,
0001
0000
1000
0010
1000
0000
0100
0010
,
0001
0101
1000
1100
,
1001
1000
0000
0100
0000
0010
0001
0000
,
0100
0000
0010
0000
0100
0000
0010
0000
1000
0000
0000
0001
0000
0000
1000
0000
,
0000
0000
0001
0000
0000
0000
0010
0000
0001
0000
0000
1000
0000
0000
0100
0000
,
0010
0000
0001
0000
0000
0000
0100
0000
0010
0000
0000
1000
0000
0000
0001
0000
,
0100
0010
0100
0010
0000
1000
0000
0001
,
0000
0100
0001
0100
0000
0010
0000
1000
,
0001
0100
0010
1000
0100
0010
0001
0000
,
1000
0010
1000
0001
0010
0100
1000
0000
,
0010
1000
0010
0000
0100
0001
0100
0000
,
0010
0001
0010
0000
0100
1000
0100
0000
,
1000
0010
0100
0000
0001
0010
0100
0000
,
1000
0000
0001
1000
0100
0000
0010
0001
,
1000
1100
0001
0101
,
1001
1000
0010
1000
0000
0100
0010
0001
,
0000
0100
0001
0100
0000
0001
0010
0100
,
0000
1000
0010
1000
0000
0001
0100
0010
,
0000
0100
0001
0100
0000
0001
0010
0100
,
1000
0010
1000
0000
0100
0010
0001
0000
,
0100
0100
0100
0000
0001
1000
0001
0000
,
0010
0001
0100
0000
0001
1000
0100
0000
,
1000
0010
1000
0000
0001
0100
0001
0000
,
1001
0000
0000
0000
;

//---------------dance-single - ----------------
#NOTES:
     dance-single:
     :
     Easy:
     5:
     0.167091,0.192154,0.045570,0.000000,0.000000,154.000000,148.000000,6.000000,0.000000,0.000000,0.000000,0.167091,0.192154,0.045570,0.000000,0.000000,154.000000,148.000000,6.000000,0.000000,0.000000,0.000000:
0000
0000
0000
0000
,
0000
0000
0000
0000
,
0000
0000
0000
0000
,
0000
0000
0000
0000
,
1000
1000
0001
0001
,
0010
0010
0100
0100
,
1000
0010
0100
0001
,
1000
0000
0000
0000
,
0001
0010
0001
0100
,
0010
1000
0001
1000
,
0100
0010
0001
0100
,
0010
0000
0000
0000
,
1001
0000
1000
0100
,
0010
0000
0001
0000
,
1001
0000
0001
1000
,
0010
0000
0100
0000
,
0001
0001
1000
0010
,
0100
0100
0010
1000
,
0100
0010
0001
1000
,
0100
0000
0000
0000
,
0001
0010
0001
0100
,
0001
0010
0100
1000
,
0010
0100
0010
1000
,
0001
0000
0000
1000
,
0010
0010
0100
0100
,
1001
0100
1001
0100
,
0001
0010
0100
1000
,
0010
0000
1000
0001
,
0100
0000
0001
1000
,
0010
0010
0100
0100
,
0001
0010
0001
1000
,
0100
0010
0001
0100
,
0001
1000
0100
0010
,
0001
1000
0001
0100
,
0010
1000
0100
0010
,
0001
1000
0100
1000
,
0001
0000
0000
1000
,
0010
0010
0100
0100
,
1001
0001
0100
0001
,
0100
0010
1000
0010
,
1000
0100
0010
0001
,
1000
0010
1000
0001
,
1000
1000
0010
0010
,
0100
0100
0001
0001
,
0010
0010
0001
0001
,
1000
1000
0100
0100
,
1001
0000
0000
0000
;

//---------------dance-single - ----------------
#NOTES:
     dance-single:
     :
     Beginner:
     2:
     0.082460,0.087343,0.000000,0.000000,0.000000,76.000000,76.000000,0.000000,0.000000,0.000000,0.000000,0.082460,0.087343,0.000000,0.000000,0.000000,76.000000,76.000000,0.000000,0.000000,0.000000,0.000000:
// measure 0
0000
0000
0000
0000
,  // measure 1
0000
0000
0000
0000
,  // measure 2
0000
0000
0000
0000
,  // measure 3
0000
0000
0000
0000
,  // measure 4
1000
0000
0001
0000
,  // measure 5
0010
0000
0100
0000
,  // measure 6
1000
0000
0010
0000
,  // measure 7
0100
0000
0000
0000
,  // measure 8
0001
0000
0010
0000
,  // measure 9
0001
0000
1000
0000
,  // measure 10
0100
0000
0010
0000
,  // measure 11
0100
0000
0000
0000
,  // measure 12
1000
0000
0000
0000
,  // measure 13
0010
0000
0000
0000
,  // measure 14
0100
0000
0000
0000
,  // measure 15
0001
0000
0000
0000
,  // measure 16
1000
0000
0001
0000
,  // measure 17
1000
0000
0001
0000
,  // measure 18
0100
0000
0010
0000
,  // measure 19
0100
0000
0000
0000
,  // measure 20
0001
0000
0010
0000
,  // measure 21
0001
0000
0100
0000
,  // measure 22
0010
0000
1000
0000
,  // measure 23
0100
0000
0000
0000
,  // measure 24
1000
0000
0001
0000
,  // measure 25
0100
0000
0100
0000
,  // measure 26
0010
0000
0010
0000
,  // measure 27
1000
0000
0001
0000
,  // measure 28
0010
0000
0100
0000
,  // measure 29
1000
0000
0010
0000
,  // measure 30
0100
0000
0001
0000
,  // measure 31
1000
0000
0100
0000
,  // measure 32
0010
0000
0001
0000
,  // measure 33
0100
0000
0100
0000
,  // measure 34
0010
0000
0010
0000
,  // measure 35
1000
0000
0001
0000
,  // measure 36
1000
0000
0000
0000
,  // measure 37
0010
0000
0100
0000
,  // measure 38
0001
0000
0010
0000
,  // measure 39
0001
0000
0010
0000
,  // measure 40
0100
0000
1000
0000
,  // measure 41
0100
0000
1000
0000
,  // measure 42
0010
0000
0010
0000
,  // measure 43
0100
0000
0100
0000
,  // measure 44
0001
0000
0001
0000
,  // measure 45
1000
0000
1000
0000
,  // measure 46
0001
0000
0000
0000
;
