#TITLE:Maria;
#SUBTITLE:;
#ARTIST:Blondie;
#TITLETRANSLIT:;
#SUBTITLETRANSLIT:;
#ARTISTTRANSLIT:;
#GENRE:;
#CREDIT:;
#BANNER:Maria-bn.png;
#BACKGROUND:Maria-bg.png;
#LYRICSPATH:;
#CDTITLE:;
#MUSIC:Maria.ogg;
#OFFSET:-0.031250;
#SAMPLESTART:47.743000;
#SAMPLELENGTH:20.000000;
#SELECTABLE:YES;
#DISPLAYBPM:160.000000;
#BPMS:0.000000=159.710007
;
#STOPS:
;
#BGCHANGES:;
#KEYSOUNDS:;
#ATTACKS:;

//---------------dance-single - ----------------
#NOTES:
     dance-single:
     :
     Hard:
     11:
     0.550810,0.504990,0.307089,0.187665,0.004265,452.000000,416.000000,36.000000,22.000000,0.000000,0.000000,0.550810,0.504990,0.307089,0.187665,0.004265,452.000000,416.000000,36.000000,22.000000,0.000000,0.000000:
0000
0000
0000
0000
,
0000
0000
0000
0000
,
0000
0000
0000
0000
,
0000
0000
0000
0000
,
0000
0000
0000
0000
,
0000
0000
0000
0000
0000
0000
0000
0000
0000
0000
0000
0000
0000
0000
1000
0001
,
1000
0000
1100
0000
0001
0100
0101
0000
,
0010
0000
1001
0000
1000
0001
0100
0010
,
2000
0000
3020
0000
0130
0001
1000
0100
,
0010
0000
0001
1000
0000
0001
0100
0010
,
1000
0100
0010
0001
0000
1000
1000
0000
,
0010
0100
0001
1000
0000
0100
0100
0000
,
1002
0000
0010
0000
1003
0001
0100
0000
,
0110
0000
1001
0000
1000
0010
0100
0001
,
0010
0000
0001
1000
0000
0100
0100
1000
,
0001
0000
0100
0010
0000
1000
1000
0001
,
0010
0001
0000
0100
0010
0000
1000
0001
,
1000
0000
0010
0100
0000
0001
1000
0100
,
2000
3020
0230
0302
,
0013
0001
0000
0100
0000
0001
1000
0000
,
2010
0000
0100
0000
3001
1000
0010
0000
,
1100
0000
0011
0000
0100
0010
1000
0001
,
0010
0000
0001
0100
0000
0001
0001
1000
,
0100
0000
0010
0001
0000
0100
0100
0010
,
0110
0000
0010
0000
1000
0001
0000
0100
,
0010
1000
0000
0002
0000
0103
0001
0000
,
0010
0001
0200
0010
0000
1000
1000
0000
,
0301
1000
0001
0100
0010
1000
0100
0000
,
1100
0000
0001
0010
0000
0100
1000
0001
,
0010
0010
0000
0100
1000
0000
0001
1000
,
0010
1000
0200
0010
0000
0001
0001
0000
,
1300
0001
0100
0010
1000
0100
0010
0000
,
0201
0000
0310
1020
0000
1000
1030
0001
,
0100
0000
0001
0010
0100
1000
0010
0100
,
0001
1000
0100
0010
0000
0100
1000
0001
,
0010
0001
1000
0001
0010
0100
1000
0000
,
1001
0000
0010
0000
1001
0100
0010
0000
,
1100
0000
0001
0000
0010
0001
1000
0010
,
0100
0010
1000
0001
0000
0010
0010
0000
,
1000
0010
1000
0001
1000
0100
0010
0000
,
0012
0000
1003
2100
0000
0010
3010
0100
,
0001
0000
0010
0001
0100
0010
1000
0100
,
0010
0001
0100
0010
0000
1000
0001
0100
,
0010
1000
0010
0100
0010
1000
0001
0000
,
0110
0000
0001
0000
0110
1000
0001
0000
,
0101
0000
0010
0000
1000
0100
0010
0001
,
0100
0001
1000
0100
0000
0010
0010
0000
,
0001
1000
0010
1000
0100
1000
0001
0000
,
0011
0000
1000
0000
0010
0100
0000
0001
,
0010
0001
0000
2000
0000
3100
1000
0000
,
0010
1000
0002
0010
0000
0100
0100
0000
,
1003
0001
0010
0001
0100
0010
1000
0000
,
1010
0000
0100
0001
0000
1000
0010
0100
,
0010
1000
0001
0000
0100
0010
0000
1000
,
0001
1000
0020
1000
0000
0100
0100
0000
,
1030
0010
0100
0001
1000
0100
0010
0001
,
1001
0000
0010
0000
1000
0100
0001
0000
,
1100
0000
0001
0000
0100
0010
1000
0000
,
2100
0000
3001
0201
0000
0010
0310
0100
,
0010
0000
1000
0100
1000
0010
0100
0001
,
0010
0100
1000
0001
0000
0100
0010
1000
,
0001
0010
0001
0100
0010
1000
0010
0000
,
1001
0000
0100
0000
1001
0010
0100
0000
,
0011
0000
1000
0000
0010
1000
0100
0010
,
0001
0100
0010
1000
0000
0001
0001
0000
,
0100
0010
1000
0010
0100
0001
0010
0000
,
0012
0000
1003
1020
0000
0100
0130
0001
,
1000
0000
0010
1000
0100
0010
0100
1000
,
0001
0100
0001
1000
0000
0010
1000
0100
,
1000
0001
0010
0100
0010
0001
0100
0000
,
0110
0000
1000
0000
0110
0001
1000
0000
,
1010
0000
0100
0000
0001
1000
0100
0010
,
0001
0100
0010
1000
0000
0100
0100
0000
,
1000
0010
1000
0100
0010
0001
0100
0000
,
0110
0000
0000
0000
;

//---------------dance-single - ----------------
#NOTES:
     dance-single:
     :
     Medium:
     8:
     0.408233,0.441866,0.264437,0.264437,0.000000,335.000000,304.000000,31.000000,31.000000,0.000000,0.000000,0.408233,0.441866,0.264437,0.264437,0.000000,335.000000,304.000000,31.000000,31.000000,0.000000,0.000000:
0000
0000
0000
0000
,
0000
0000
0000
0000
,
0000
0000
0000
0000
,
0000
0000
0000
0000
,
0000
0000
0000
0000
,
0000
0000
0000
0000
,
1000
0000
1100
0000
0000
0001
0100
0000
,
0001
0000
0101
0000
0000
1000
0100
0000
,
0002
0203
0320
2030
,
3001
0000
1000
0000
0010
1000
0001
0000
,
0010
0001
0000
0100
0000
0000
0000
0000
,
0010
1000
0000
0100
0000
0000
0000
0000
,
1002
0010
1000
0103
,
2000
0000
3002
0000
0013
0001
0100
0000
,
0010
0000
1000
0000
0100
0010
0100
0000
,
1000
0000
0001
0000
0010
0100
0010
0000
,
0001
2000
0000
0000
0010
0000
3100
0000
,
0001
0000
0010
0000
0100
1000
0001
0000
,
2000
3002
0203
0320
,
1030
0001
0000
0100
0000
0000
0000
0000
,
0120
0000
1000
0000
0130
0001
0010
0000
,
0002
0000
2003
0000
3100
0010
0001
0000
,
0100
0000
0010
0000
1000
0001
1000
0000
,
0010
0000
1000
0000
0100
0010
0100
0000
,
0012
0100
0100
0103
,
1000
0001
0000
0100
0000
0010
1000
0000
,
0001
1000
0002
0000
0010
0000
0100
0000
,
1000
0000
0100
0000
0013
0001
0010
0000
,
2010
0100
0100
3100
,
0001
1000
0001
0000
0100
0010
0100
0000
,
1000
0001
2000
0000
0010
0000
0100
0000
,
0001
0000
0010
0000
3001
1000
0100
0000
,
2001
0000
0000
0020
0000
0000
3000
0000
,
0100
1000
0001
1030
,
0010
0000
1000
0000
0100
0010
0001
0000
,
1000
0000
0010
0000
0100
0001
1000
0000
,
0011
1000
1010
0001
,
0101
1000
1100
0001
,
0010
0000
0100
0000
1000
0010
0100
0000
,
0001
0000
1000
0000
0001
0100
0010
0000
,
0210
0000
0000
0002
0000
0000
0300
0000
,
0010
1000
0100
1003
,
0001
0000
0010
0000
0100
1000
0010
0000
,
1000
0000
0010
0000
1000
0001
0100
0000
,
1010
0100
0011
0100
,
0101
0010
1100
0010
,
1000
0000
0010
0000
1000
0001
0100
0000
,
0001
0000
0010
0000
0100
0010
0001
0000
,
1002
0010
0010
0013
,
1000
0100
0000
0010
0000
0001
0100
0000
,
0001
1000
0002
0000
0010
0000
1000
0000
,
0100
0000
0010
0000
1003
0001
1000
0000
,
0210
0010
0010
0310
,
0100
0001
1000
0000
0100
1000
0001
0000
,
0010
0001
0020
0000
1000
0000
0100
0000
,
0031
0010
0001
0000
1000
0010
1000
0000
,
0010
0000
0101
0000
0000
1000
0001
0000
,
0010
0000
1100
0000
0000
0001
1000
0000
,
0210
0000
0001
0002
0000
0000
0300
0000
,
1000
0100
0010
0103
,
0001
0000
0010
0000
1000
0001
0100
0000
,
0010
0000
0100
0000
0010
1000
0001
0000
,
1100
0001
0011
1000
,
1010
0100
0011
0010
,
0001
0000
1000
0000
0010
1000
0100
0000
,
0010
0000
0001
0000
0100
0010
1000
0000
,
2001
0000
0100
0200
0000
0000
3000
0000
,
0010
1000
0001
1300
,
0100
0000
0010
0000
0001
1000
0100
0000
,
1000
0000
0001
0000
1000
0100
0010
0000
,
0101
0010
1010
0001
,
1100
1000
0011
0100
,
0010
0000
1000
0000
0100
0010
0001
0000
,
1000
0000
0010
0000
1000
0001
0100
0000
,
0110
0000
0000
0000
;

//---------------dance-single - ----------------
#NOTES:
     dance-single:
     :
     Easy:
     6:
     0.281498,0.315619,0.264437,0.170605,0.000000,231.000000,200.000000,31.000000,20.000000,0.000000,0.000000,0.281498,0.315619,0.264437,0.170605,0.000000,231.000000,200.000000,31.000000,20.000000,0.000000,0.000000:
0000
0000
0000
0000
,
0000
0000
0000
0000
,
0000
0000
0000
0000
,
0000
0000
0000
0000
,
0000
0000
0000
0000
,
0000
0000
0000
0000
,
1000
1001
0000
0100
,
0001
1001
0000
0010
,
1000
1000
1000
0100
,
0001
0000
1000
0000
,
0010
1000
0100
0000
,
0010
0001
0100
0000
,
2200
0000
0300
0001
,
0100
0100
0100
3100
,
0010
0000
1000
0100
,
1000
0000
0001
0100
,
0001
0001
0001
0010
,
1000
0000
0001
0000
,
0010
0010
0010
0001
,
0100
0010
1000
0000
,
0022
0000
0030
1000
,
0010
0010
0010
0013
,
0001
0000
0010
0100
,
1000
0000
0001
1000
,
1001
0000
0000
0010
,
1000
0001
0100
0100
,
0001
1000
0002
0000
0000
0000
0100
0000
,
0000
0100
0000
0103
,
0110
0000
0000
0001
,
2000
3000
0002
0003
,
0100
0010
0200
0000
0000
0000
0000
0000
,
0001
0001
0001
0301
,
2000
0000
0000
0002
0000
0000
3000
0000
,
0000
0100
0100
0103
,
0001
1000
0000
0010
,
0100
0100
0100
0100
,
0110
0000
0110
0000
,
1001
0000
1001
0000
,
1100
0000
0001
0100
,
0010
0010
0010
0010
,
0200
0000
0000
0020
0000
0000
0300
0000
,
0000
1000
1000
1030
,
0010
1000
0000
0100
,
1000
1000
1000
1000
,
1001
0000
1001
0000
,
0110
0000
0110
0000
,
0101
0000
1000
0010
,
0001
0001
0001
0001
,
1010
0000
0000
0100
,
0010
0001
1000
1000
,
0010
0100
0020
0000
0000
0000
1000
0000
,
0000
0001
0000
1030
,
0101
0000
0000
0010
,
0200
0300
0020
0030
,
1000
0001
2000
0000
0000
0000
0000
0000
,
0010
0010
0100
3100
,
0001
0011
0000
0100
,
1000
1010
0000
0010
,
2000
0000
0000
0200
0000
0000
3000
0000
,
0000
0001
1000
0301
,
0100
0010
0000
1000
,
0001
0001
0001
0001
,
1001
0000
0110
0000
,
1001
0000
0110
0000
,
1010
0000
0100
0001
,
0100
0100
0100
0100
,
0002
0000
0000
0020
0000
0000
0003
0000
,
0000
1000
0001
1030
,
0010
0001
0000
0100
,
1000
1000
1000
1000
,
0110
0000
1001
0000
,
0110
0000
1001
0000
,
0011
0000
0100
1000
,
0010
0010
0010
0010
,
0110
0000
0000
0000
;

//---------------dance-single - ----------------
#NOTES:
     dance-single:
     :
     Beginner:
     1:
     0.097488,0.189371,0.102363,0.034121,0.000000,80.000000,68.000000,12.000000,4.000000,0.000000,0.000000,0.097488,0.189371,0.102363,0.034121,0.000000,80.000000,68.000000,12.000000,4.000000,0.000000,0.000000:
// measure 0
0000
0000
0000
0000
,  // measure 1
0000
0000
0000
0000
,  // measure 2
0000
0000
0000
0000
,  // measure 3
0000
0000
0000
0000
,  // measure 4
0000
0000
0000
0000
,  // measure 5
0000
0000
0000
0000
,  // measure 6
0000
0000
0000
0000
,  // measure 7
0000
0000
0000
0000
,  // measure 8
1000
0000
1000
0000
,  // measure 9
1000
0000
0000
0000
,  // measure 10
0001
0000
0001
0000
,  // measure 11
0001
0000
0000
0000
,  // measure 12
1001
0000
0000
0000
,  // measure 13
1001
0000
0000
0000
,  // measure 14
1001
0000
0000
0000
,  // measure 15
0000
0000
0000
0000
,  // measure 16
0100
0000
0100
0000
,  // measure 17
0100
0000
0000
0000
,  // measure 18
0010
0000
0010
0000
,  // measure 19
0010
0000
0000
0000
,  // measure 20
0110
0000
0000
0000
,  // measure 21
0110
0000
0000
0000
,  // measure 22
0110
0000
0000
0000
,  // measure 23
0000
0000
0000
0000
,  // measure 24
1001
0000
0000
0000
,  // measure 25
1000
0000
0000
0000
,  // measure 26
0100
0000
0000
0000
,  // measure 27
0000
0000
0000
0000
,  // measure 28
0110
0000
0000
0000
,  // measure 29
0010
0000
0000
0000
,  // measure 30
0001
0000
0000
0000
,  // measure 31
0000
0000
0000
0000
,  // measure 32
2000
0000
0000
0000
,  // measure 33
3000
0000
0000
0000
,  // measure 34
0001
0000
0000
0000
,  // measure 35
0100
0000
0000
0000
,  // measure 36
0010
0000
0010
0000
,  // measure 37
0010
0000
0010
0000
,  // measure 38
0010
0000
0000
0000
,  // measure 39
0100
0000
0000
0000
,  // measure 40
0002
0000
0000
0000
,  // measure 41
0003
0000
0000
0000
,  // measure 42
1000
0000
0000
0000
,  // measure 43
0010
0000
0000
0000
,  // measure 44
0100
0000
0100
0000
,  // measure 45
0100
0000
0100
0000
,  // measure 46
0100
0000
0000
0000
,  // measure 47
0010
0000
0000
0000
,  // measure 48
0110
0000
0000
0000
,  // measure 49
0100
0000
0000
0000
,  // measure 50
0001
0000
0000
0000
,  // measure 51
0000
0000
0000
0000
,  // measure 52
1001
0000
0000
0000
,  // measure 53
1000
0000
0000
0000
,  // measure 54
0010
0000
0000
0000
,  // measure 55
0000
0000
0000
0000
,  // measure 56
1001
0000
0000
0000
,  // measure 57
0000
0000
0000
0000
,  // measure 58
0020
0000
0000
0000
,  // measure 59
0030
0000
0000
0000
,  // measure 60
1000
0000
0000
0000
,  // measure 61
0100
0000
0000
0000
,  // measure 62
0001
0000
0001
0000
,  // measure 63
0001
0000
0001
0000
,  // measure 64
0001
0000
0000
0000
,  // measure 65
1000
0000
0000
0000
,  // measure 66
0200
0000
0000
0000
,  // measure 67
0300
0000
0000
0000
,  // measure 68
0010
0000
0000
0000
,  // measure 69
0001
0000
0000
0000
,  // measure 70
1000
0000
1000
0000
,  // measure 71
1000
0000
1000
0000
,  // measure 72
1000
0000
0000
0000
,  // measure 73
0001
0000
0000
0000
,  // measure 74
0110
0000
0000
0000
;
