#TITLE:MY SUMMER LOVE;
#SUBTITLE:;
#ARTIST:MITSU-O! with GEILA;
#TITLETRANSLIT:;
#SUBTITLETRANSLIT:;
#ARTISTTRANSLIT:;
#GENRE:;
#CREDIT:;
#BANNER:MY SUMMER LOVE.png;
#BACKGROUND:MY SUMMER LOVE-bg.png;
#LYRICSPATH:;
#CDTITLE:;
#MUSIC:MY SUMMER LOVE.ogg;
#OFFSET:0.000000;
#SAMPLESTART:69.525002;
#SAMPLELENGTH:15.000000;
#SELECTABLE:YES;
#DISPLAYBPM:100.000000;
#BPMS:0.000000=100.093002
,12.000000=100.084000
;
#STOPS:
;
#BGCHANGES:;
#KEYSOUNDS:;
#ATTACKS:;

//---------------dance-single - ----------------
#NOTES:
     dance-single:
     :
     Beginner:
     3:
     0.109975,0.160380,0.074844,0.000000,0.000000,72.000000,65.000000,7.000000,0.000000,0.000000,0.000000,0.109975,0.160380,0.074844,0.000000,0.000000,72.000000,65.000000,7.000000,0.000000,0.000000,0.000000:
0000
0000
0000
0000
,
0000
0000
0000
0000
,
0000
0000
0000
0000
,
0000
0000
0000
0000
,
0000
0000
0000
0000
,
1000
0000
0010
0000
,
0001
0000
1000
0000
,
0100
0000
0001
0000
,
0010
0000
1000
0000
,
0001
0000
0001
0000
,
0010
0000
0100
0000
,
0010
0000
0001
0000
,
0010
0000
1000
1000
,
1000
0000
1001
0000
,
0010
0000
0001
0000
,
0010
0000
1001
0000
,
0100
0000
1000
0000
,
0010
0000
1001
0000
,
0010
0000
1001
0000
,
0001
0000
1001
0000
,
0100
0000
1000
0000
,
0100
0000
0000
0000
,
0100
0000
0100
0000
,
0001
0000
1000
0000
,
1000
0000
0100
0000
,
1000
0000
0001
0000
,
1000
0000
0001
0000
,
0100
0000
0001
0000
,
0010
0000
0010
0000
,
0100
0000
1001
0000
,
0010
0000
0001
0000
,
0010
0000
1001
0000
,
0100
0000
1000
0000
,
0010
0000
1000
0000
,
0010
0000
0001
0000
,
0010
0000
0001
0000
,
0100
0000
1000
0000
,
0000
0000
1000
0000
,
0000
0000
0000
0000
;

//---------------dance-single - ----------------
#NOTES:
     dance-single:
     :
     Easy:
     4:
     0.204675,0.240570,0.181764,0.000000,0.000000,134.000000,117.000000,17.000000,0.000000,0.000000,0.000000,0.204675,0.240570,0.181764,0.000000,0.000000,134.000000,117.000000,17.000000,0.000000,0.000000,0.000000:
0000
0000
0000
0000
,
0000
0000
0000
0000
,
0000
0000
0000
0000
,
0000
0000
0000
0000
,
0000
0000
0000
0000
,
1000
1000
0010
0100
,
0001
0000
1000
0001
,
0100
0000
0001
1000
,
0010
0000
1000
0001
,
0000
0100
0001
1000
,
0010
0000
0100
0001
,
0010
0000
0001
0100
,
0010
0000
1000
1001
,
0100
0100
1001
1001
,
0010
0100
0001
0001
,
0010
0010
1001
1001
,
0100
0001
1000
1000
,
0010
0100
1001
0001
,
0010
0100
1001
1000
,
0001
0100
1001
1001
,
0100
0001
1000
0010
,
0100
0000
0000
0001
,
0100
0001
0100
1000
,
0001
0100
1000
0010
,
1000
0001
0100
0110
,
1000
0000
0001
0000
,
0100
0001
1000
0010
,
0100
0000
0001
1000
,
0010
0100
0010
1000
,
0100
0010
1001
1001
,
0010
0100
0001
1000
,
0010
0100
1001
1001
,
0100
0001
1000
1001
,
0010
0100
1000
0001
,
0010
0100
0001
1001
,
0010
0100
0001
1001
,
0100
0001
1000
0010
,
0000
0000
1000
0000
,
0000
0000
0000
0000
;

//---------------dance-single - ----------------
#NOTES:
     dance-single:
     :
     Medium:
     9:
     0.317705,0.360855,0.203148,0.000000,0.000000,208.000000,189.000000,19.000000,0.000000,0.000000,0.000000,0.317705,0.360855,0.203148,0.000000,0.000000,208.000000,189.000000,19.000000,0.000000,0.000000,0.000000:
0000
0000
0000
0000
,
0000
0000
0000
0000
,
0000
0000
0000
0000
,
0000
0000
0000
0000
,
0000
0000
0000
0000
,
0000
1000
0000
0010
0100
0001
1000
0010
,
0000
0100
0000
0100
0001
1000
0001
0100
,
0000
0010
0000
0010
0000
1000
0001
0100
,
0000
0001
0000
1000
0010
0100
0001
0100
,
0000
0010
0000
1000
0000
0001
0100
0010
,
0000
1000
0000
0001
1000
0001
1000
0001
,
0000
0100
0000
0010
0000
1000
0001
0100
,
0010
1000
0010
1000
0001
0000
1001
0000
,
0010
0000
0100
0000
0001
0100
0001
0100
,
0010
1000
0101
1100
,
0001
0000
1000
0000
0010
1000
0010
1000
,
0001
0100
0011
1010
,
0010
0000
0100
0000
0001
1000
0010
0100
,
0001
1000
1010
0101
,
0010
1000
0001
0100
0010
0000
1000
0000
,
0001
0000
0001
1000
0010
0000
0100
0001
,
1000
0000
1000
0000
0001
0000
0010
0100
,
1000
0001
1000
0001
0010
0100
1000
0001
,
0100
0100
0100
0100
,
0001
1000
1001
1001
,
0100
0001
0100
0001
1000
0010
1000
0010
,
0100
0001
1000
0010
0100
0001
1000
0000
,
0010
1000
0001
0100
0010
1000
0001
0000
,
0100
0010
0100
0010
1000
0000
1001
0001
,
0100
0000
0001
0000
1000
0010
1000
0010
,
0100
0000
0100
0000
1001
1000
0110
0100
,
0001
0000
0100
0000
0010
1000
0001
0100
,
0010
1000
0010
0000
1010
0100
0101
0010
,
1000
0001
1000
0001
0100
0001
1000
0010
,
0100
0100
0101
1100
,
0010
0010
0011
0000
1000
1000
1100
0000
,
0010
1000
0001
1000
0010
0000
1001
0000
,
0100
0000
0000
1000
0001
0000
0000
0000
,
0000
0000
0000
0000
;

//---------------dance-single - ----------------
#NOTES:
     dance-single:
     :
     Hard:
     12:
     0.420042,0.621472,0.160380,0.000000,0.229878,275.000000,260.000000,15.000000,0.000000,0.000000,0.000000,0.420042,0.621472,0.160380,0.000000,0.229878,275.000000,260.000000,15.000000,0.000000,0.000000,0.000000:
0000
0000
0000
0000
,
0000
0000
0000
0000
,
0000
0000
0000
0000
,
0000
0000
0000
0000
,
0000
0000
0000
0000
,
1000
0010
1000
0001
0100
0000
0100
0001
,
1000
0100
1000
0100
1000
0010
0100
0001
,
0010
0100
0010
0001
1000
0000
0010
0100
,
0001
1000
0001
1000
0010
0000
0100
0001
,
1000
0010
0100
0001
1000
0000
1001
0001
,
0100
0000
0100
0000
0100
0010
1000
0001
,
0000
1000
0100
0001
0000
0001
0100
1000
,
0010
1000
0001
0100
0010
1000
0001
0000
,
0100
0000
0010
0000
1000
0001
1000
0001
0100
0000
0000
0000
1001
0000
0100
0000
,
0010
0000
0010
1000
0001
0100
0001
1000
,
0010
0000
0100
0000
0001
0000
1000
0001
0100
0000
0100
0000
0010
0000
0100
0001
,
1000
0000
1000
0010
0011
0000
0011
0000
,
1000
0000
0010
0000
0100
0000
0000
0001
1000
0000
0001
0000
0100
0000
0010
0000
,
1000
0000
1000
0010
0101
0000
0101
0000
,
1000
0000
0001
0000
0100
0001
0100
0001
1000
0000
0010
0000
0100
0000
0001
0000
,
1000
0000
1000
0010
0100
0000
0101
0001
,
1000
0000
1000
0000
1000
0010
1000
0010
,
0100
0001
0100
0001
1000
0010
0100
0001
,
0100
0000
0000
0000
0010
0000
1000
0001
0100
0000
0000
0000
0100
0001
1000
0010
,
0100
0001
0101
1100
,
0001
0010
0001
0010
0001
0100
0001
0100
0001
0010
0001
0010
0001
1000
0001
1000
,
0010
0100
0010
1000
0010
0100
0010
1000
0001
0010
0100
1000
0001
0000
0000
0000
,
0010
1000
0010
1000
0010
0100
0010
0100
0001
1000
0001
1000
0001
0010
0001
0010
,
0100
0001
1000
0010
0100
0000
0100
0000
0001
1000
0000
0001
0100
0000
0000
0000
,
0010
0000
0100
0000
0001
1000
0001
1000
0010
0000
0000
0000
1001
0000
0010
0000
,
0100
0000
0100
0001
1000
0010
1000
0001
,
0100
0000
0010
0000
1000
0000
0001
1000
0010
0000
0010
0000
0100
0000
0010
1000
,
0001
0000
0001
0100
1100
0000
1100
0000
,
0001
0000
0100
0000
0010
0000
0000
1000
0001
0000
1000
0000
0010
0000
0100
0000
,
0001
0000
0001
0100
1010
0000
1010
0000
,
0001
0000
1000
0000
0010
1000
0010
1000
0001
0000
0100
0000
0010
0000
1000
0000
,
0001
0000
0001
0100
0010
0000
1010
1000
,
0001
0000
0000
1000
0001
0000
0000
0000
,
0000
0000
0000
0000
;

//---------------dance-double - ----------------
#NOTES:
     dance-double:
     :
     Easy:
     5:
     0.187873,0.240570,0.042768,0.000000,0.000000,123.000000,119.000000,4.000000,0.000000,0.000000,0.000000,0.187873,0.240570,0.042768,0.000000,0.000000,123.000000,119.000000,4.000000,0.000000,0.000000,0.000000:
00000000
00000000
00000000
00000000
,
00000000
00000000
00000000
00000000
,
00000000
00000000
00000000
00000000
,
00000000
00000000
00000000
00000000
,
00000000
00000000
00000000
00000000
,
00000000
01000000
00000000
00001000
,
00000000
00010000
00000000
00010000
,
00000000
00000010
00001000
00000100
,
00010000
00000000
00000010
00001000
,
00000001
00000100
00000000
00000010
,
00010000
00001000
01000000
00010000
,
10000000
00000000
00010000
01000000
,
00001000
00010000
00000010
00000110
,
00000001
00000000
00001000
00000010
,
00010000
00010000
00001000
01000000
,
00100000
00100000
10000000
00010000
,
01000000
00001000
00010000
00011000
,
00000010
00010000
00000100
00010000
,
00000010
00000010
00001000
00000001
,
00000100
00000010
00010000
00000000
,
01000000
00100000
10000000
00010000
,
01000000
00000000
00001000
00010000
,
00000010
00000100
00000001
00001000
,
00000100
00000000
00000100
00000000
00010000
00000100
00010000
00001000
,
00010000
00000000
01000000
10010000
,
01000000
00000000
01000000
01000000
00001000
00000000
00001000
00000000
,
00100000
00001000
00010000
00000100
,
00001000
00000001
00000100
00000010
,
00010000
00000100
00010000
00001000
,
01000000
00000000
00010000
00100000
,
00001000
00001000
00010000
00000010
,
00000100
00000100
00000001
00001000
,
00000010
00010000
00001000
00011000
,
01000000
00001000
00100000
00001000
,
01000000
01000000
00010000
10000000
,
00100000
01000000
00001000
00000000
,
00000100
00000010
00001000
00000001
,
00000000
00000000
00000000
00000100
00010000
00000000
00000000
00000000
,
00000000
00000000
00000000
00000000
;

//---------------dance-double - ----------------
#NOTES:
     dance-double:
     :
     Medium:
     8:
     0.310068,0.320760,0.181764,0.000000,0.000000,203.000000,186.000000,17.000000,0.000000,0.000000,0.000000,0.310068,0.320760,0.181764,0.000000,0.000000,203.000000,186.000000,17.000000,0.000000,0.000000,0.000000:
00000000
00000000
00000000
00000000
,
00000000
00000000
00000000
00000000
,
00000000
00000000
00000000
00000000
,
00000000
00000000
00000000
00000000
,
00000000
00000000
00000000
00000000
,
10000000
00000000
10000000
00100000
01000000
00001000
00100000
00001000
,
00010000
00000000
00010000
00000000
00000010
00001000
00000001
00000100
,
00000000
00000010
00001000
00000001
,
00000100
00000000
00000000
00000000
00010000
00001000
01000000
00010000
,
10000000
00000000
10000000
00100000
01000000
00001000
00010000
00001000
,
00000000
00000000
00010000
00001010
,
00000001
00000000
00000100
00000000
00000010
00001000
00000100
00010000
,
00001000
00000000
01001000
00110000
,
10000000
00100000
01000000
00010000
01000000
00000000
00011000
00000000
,
00000010
00010000
00001000
01000000
00010000
00000000
10010000
00000000
,
01000000
00001000
00010000
00000010
00000100
00000000
00001001
00000000
,
00000010
00010000
00000100
00010000
00000010
00000000
00010010
00000000
,
00001000
01000000
00100000
00000000
01000000
00010000
00100000
00001000
,
00010000
00000000
00010010
00000000
00001000
00000000
00001100
00000001
,
00001000
00000010
00010000
00000000
00001000
01000000
00100000
00000000
,
10000000
00100000
01000000
00010000
10000000
00010000
01000000
00001000
,
00101000
00000000
00000010
00001000
,
00000100
00001000
00000010
00000100
00000001
00001000
00000010
00000000
,
00010000
00001000
01000000
00000000
00001000
00010000
00000010
00000000
,
00010000
00000000
00001000
00000000
00100000
00000000
01000000
10000000
,
00010000
01000000
00001000
00000000
00100000
00010000
10000000
00000000
,
00100000
01000000
00001000
00010000
00000010
00001000
00000001
00000000
,
00000100
00000010
00001000
00000001
00000100
00000010
00010000
00000000
,
00000010
00001000
00000100
00010000
00001000
00000000
00110000
00000000
,
10000000
01000000
00100000
00010000
00100000
00000000
00011000
00000000
,
00000100
00010000
00001000
00100000
00010000
00000000
10010000
00000000
,
00100000
00001000
00010000
00000100
00000010
00000000
00001001
00000000
,
00000100
00010000
00000010
00010000
00000100
00000000
00010100
00000000
,
00001000
00100000
01000000
00000000
00100000
00010000
01000000
00001000
,
00010000
00000000
00010100
00000000
00001000
00000000
00001010
00000001
,
00001000
00000100
00010000
00000000
00001000
00100000
01000000
00000000
,
10000000
01000000
00100000
00010000
10000000
00000000
00010000
00000000
,
00000000
00000000
00000000
01000000
01000000
00000000
00000000
00000000
,
00000000
00000000
00000000
00000000
;

//---------------dance-double - ----------------
#NOTES:
     dance-double:
     :
     Hard:
     12:
     0.374219,0.400949,0.010692,0.000000,0.053460,245.000000,244.000000,1.000000,0.000000,0.000000,0.000000,0.374219,0.400949,0.010692,0.000000,0.053460,245.000000,244.000000,1.000000,0.000000,0.000000,0.000000:
00000000
00000000
00000000
00000000
,
00000000
00000000
00000000
00000000
,
00000000
00000000
00000000
00000000
,
00000000
00000000
00000000
00000000
,
00000000
00000000
00000000
00000000
,
00000000
01000000
00001000
00010000
00000010
00000000
00000100
00000001
,
00001000
00000010
00010000
00000100
00010000
00001000
01000000
00100000
,
00000000
10000000
10000000
10000000
00100000
01000000
00001000
00010000
,
00000010
00000000
00000010
00001000
00000001
00000100
00000010
00001000
,
00000100
00000000
00010000
00001000
00100000
00010000
10000000
01000000
,
00100000
00000000
00100000
00001000
01000000
00010000
00100000
00001000
,
00010000
00000010
00001000
00000001
00000100
00000000
00000100
00000010
,
00001000
00000001
00000100
00000010
00010000
00000000
00011000
00000000
,
01000000
00001000
00010000
00001000
00100000
00001000
00010000
00001000
,
01000000
00000000
01000000
00100000
10000000
00010000
00100000
01000000
,
00010000
00000010
00001000
00000001
00000100
00000000
00000100
00000010
,
00010000
00000100
00010000
00000010
00001000
00000001
00000100
00000010
,
00010000
00001000
01000000
00100000
10000000
01000000
00100000
00001000
,
00010000
00001000
00000010
00001000
00010000
00000100
00001000
00000001
,
00000100
00000010
00010000
00001000
00100000
00001000
01000000
00010000
,
10000000
00000000
10000000
00100000
01000000
00010000
10000000
00100000
,
01000000
00000000
01000000
00001000
00100000
00000000
00100000
00001000
,
00010000
00000010
00001000
00000001
00000100
00000010
00001000
00000000
,
00000100
00010000
00001000
00100000
00010000
10000000
00100000
01000000
,
00010000
00000000
10000000
00000000
00100000
01000000
00100000
01000000
00010000
00000000
01000000
00000000
00001000
00000000
00100000
00000000
,
00001000
00010000
00000100
00000000
00000010
00000001
00001000
00000000
,
00000010
00001000
00000100
00010000
00001000
01000000
00010000
00100000
00010000
00000000
10000000
00000000
00100000
00000000
00000000
00000000
,
00001000
00010000
01000000
00000000
00100000
10000000
00010000
00000000
,
01000000
00010000
00100000
00001000
00010000
00000010
00001000
00000100
00001000
00000000
00000001
00000000
00000100
00000000
00000000
00000000
,
00000010
00010000
00001000
00010000
00000100
00010000
00001000
00010000
,
00000100
00000000
00000100
00000010
00000001
00001000
00000010
00000100
,
00001000
00100000
00010000
10000000
01000000
00000000
01000000
00100000
,
00001000
01000000
00001000
00100000
00010000
10000000
01000000
00100000
,
00001000
00010000
00000100
00000010
00000001
00000100
00000010
00010000
,
00001000
00010000
00100000
00010000
00001000
01000000
00010000
10000000
,
01000000
00100000
00001000
00010000
00000010
00010000
00000100
00001000
,
00000001
00000000
00000001
00000010
00000100
00001000
00000001
00000010
,
00000000
00000000
00000000
00010000
00001000
00000000
00000000
00000000
,
00000000
00000000
00000000
00000000
;

//---------------dance-couple - ----------------
#NOTES:
     dance-couple:
     :
     Medium:
     9:
     0.215367,0.581377,0.096228,0.000000,0.074844,141.000000,132.000000,9.000000,0.000000,0.000000,0.000000,0.215367,0.581377,0.096228,0.000000,0.074844,141.000000,132.000000,9.000000,0.000000,0.000000,0.000000:
00000000
00000000
00000000
00000000
,
00000000
00000000
00000000
00000000
,
00000000
00000000
00000000
00000000
,
00000000
00000000
00000000
00000000
,
00000000
00000000
00000000
00000000
,
00000000
00001000
00000000
00000010
00000100
00000001
00001000
00000010
,
00000000
00000100
00000000
00000100
00000001
00001000
00000001
00000100
,
00000000
10000000
00000000
00100000
01000000
00010000
10000000
00100000
,
00000000
01000000
00000000
01000000
00010000
10000000
00010000
01000000
,
00000000
00000010
00000000
00001000
00000000
00000001
00000100
00000010
,
00000000
00100000
00000000
10000000
00000000
00010000
01000000
00100000
,
00000000
01000100
00000000
00100010
00000000
10001000
00010001
01000100
,
00100010
10001000
00100010
10001000
00010001
00000000
10011001
00000000
,
00100000
00000000
01000000
00000000
00010000
01000000
00010001
01000000
,
00100000
10000000
01010001
11000001
,
00010000
00000000
10000000
00000000
00100000
10000000
00100001
10000000
,
00010000
01000000
00110001
10100001
,
00000100
00000000
00000010
00000000
00001000
00000010
10001000
00000010
,
00000100
00000001
10001010
10000011
,
00001000
00000000
00000001
00000000
00000100
00000001
10000100
00000001
,
00001000
00000010
10001100
10000101
,
00011000
00000000
00011000
00000000
10000001
00000000
00100010
01000100
,
00011000
10000001
00011000
10000001
00100010
01000100
00011000
10000001
,
00000100
00000100
00000100
00000100
,
00100000
00100000
00100000
00100000
,
00001000
00000010
00001000
00000010
00001000
00000100
00001000
00000100
00001000
00000010
00001000
00000010
00001000
00000001
00001000
00000001
,
00000010
00000100
00000010
00000001
00000010
00000100
00000010
00000001
00001000
00000010
00000100
00000001
00001000
00000000
00000000
00000000
,
00010000
00100000
00010000
00100000
00010000
01000000
00010000
01000000
00010000
00100000
00010000
00100000
00010000
10000000
00010000
10000000
,
00100000
01000000
00100000
10000000
00100000
01000000
00100000
10000000
00010000
00100000
01000000
10000000
00010000
00000000
00000000
00000000
,
00000010
00000000
01000100
00000000
00000001
00000100
01000001
00000100
,
00000010
01001000
00000101
01001100
,
00000001
00000000
01001000
00000000
00000010
00001000
01000010
00001000
,
00000001
01000100
01000011
01001010
,
01000000
00000000
00100100
00000000
10000000
00100000
10000100
00100000
,
01000000
00010100
10100000
00110100
,
10000000
00000000
00010100
00000000
01000000
00010000
01000100
00010000
,
10000000
00100100
11000100
01010100
,
10001000
00000000
00000000
00010001
01000100
00000000
00000000
00000000
;

//---------------dance-solo - ----------------
#NOTES:
     dance-solo:
     :
     Easy:
     6:
     0.186346,0.240570,0.032076,0.000000,0.000000,122.000000,119.000000,3.000000,0.000000,0.000000,0.000000,0.186346,0.240570,0.032076,0.000000,0.000000,122.000000,119.000000,3.000000,0.000000,0.000000,0.000000:
000000
000000
000000
000000
,
000000
000000
000000
000000
,
000000
000000
000000
000000
,
000000
000000
000000
000000
,
000000
000000
000000
000000
,
000000
010000
000000
000001
,
000000
100000
000000
000010
,
000000
001000
000001
100000
,
000100
000000
001000
000010
,
100000
000001
000000
010000
,
000100
001000
000010
100000
,
000001
000000
010000
001000
,
100000
000010
001000
001100
,
000001
000000
100000
000100
,
001000
001000
000010
100000
,
000001
000001
010000
000100
,
001000
000100
100000
100001
,
001000
000001
000100
000001
,
001000
001000
000100
100000
,
000001
001000
000100
000000
,
100000
000100
001000
000001
,
010000
000000
000100
001000
,
000010
100000
000001
001000
,
000100
000000
000100
000000
100000
000001
100000
000010
,
100000
000000
000100
100001
,
001000
000000
001000
001000
000010
000000
000010
000000
,
100000
000100
001000
000001
,
001000
000010
100000
000010
,
001000
000001
010000
000001
,
100000
000000
000100
001000
,
000001
000001
001000
000100
,
100000
100000
000100
001000
,
000001
010000
000010
100000
,
000100
001000
000001
100000
,
000100
000100
100000
000001
,
001000
000100
100000
000000
,
000010
001000
000001
010000
,
000000
000000
000000
001000
100000
000000
000000
000000
;

//---------------dance-solo - ----------------
#NOTES:
     dance-solo:
     :
     Medium:
     9:
     0.310068,0.320760,0.181764,0.000000,0.000000,203.000000,186.000000,17.000000,0.000000,0.000000,0.000000,0.310068,0.320760,0.181764,0.000000,0.000000,203.000000,186.000000,17.000000,0.000000,0.000000,0.000000:
000000
000000
000000
000000
,
000000
000000
000000
000000
,
000000
000000
000000
000000
,
000000
000000
000000
000000
,
000000
000000
000000
000000
,
100000
000000
100000
000100
001000
000010
001000
000010
,
100000
000000
100000
000000
000001
001000
000100
010000
,
000000
000001
001000
000100
,
100000
000000
000000
000000
000010
001000
000001
100000
,
000100
000000
000100
001000
000010
100000
001000
100000
,
000000
000000
000001
001001
,
000010
000000
100000
000000
000100
001000
000001
010000
,
001000
000000
100010
100100
,
001000
000010
100000
000001
100000
000000
001100
000000
,
000010
001000
000100
100000
000001
000000
010001
000000
,
100000
000100
001000
000001
001000
000000
100001
000000
,
000100
001000
000010
001000
000001
000000
010001
000000
,
000100
100000
001000
000000
001000
100000
000100
001000
,
000010
000000
100010
000000
010000
000000
010001
000001
,
100000
000100
001000
000000
000001
000100
001000
000000
,
100000
000100
001000
000001
010000
000001
010000
000100
,
100100
000000
000001
001000
,
000010
100000
000001
001000
000010
010000
000100
000000
,
100000
000001
001000
000000
001000
000001
100000
000000
,
000010
000000
001000
000000
000100
000000
100000
000001
,
001000
000100
010000
000000
000001
100000
000010
000000
,
001000
000010
100000
000100
001000
000001
100000
000000
,
000100
001000
000010
001000
000001
100000
000100
000000
,
010000
000001
100000
000100
010000
000000
010001
000000
,
100000
000100
001000
000001
001000
000000
100001
000000
,
000100
001000
000010
001000
000001
000000
100001
000000
,
001000
000010
100000
000010
001000
000000
011000
000000
,
000100
000001
100000
000001
001000
000000
001010
000000
,
000001
100000
000100
000000
000100
001000
000001
100000
,
000010
000000
001010
000000
000001
000000
010001
010000
,
001000
100000
000100
000000
001000
000010
100000
000000
,
000001
000100
001000
100000
000010
000000
001000
000000
,
000000
000000
000000
000001
000001
000000
000000
000000
;

//---------------dance-solo - ----------------
#NOTES:
     dance-solo:
     :
     Hard:
     11:
     0.377274,0.400949,0.010692,0.000000,0.053460,247.000000,246.000000,1.000000,0.000000,0.000000,0.000000,0.377274,0.400949,0.010692,0.000000,0.053460,247.000000,246.000000,1.000000,0.000000,0.000000,0.000000:
000000
000000
000000
000000
,
000000
000000
000000
000000
,
000000
000000
000000
000000
,
000000
000000
000000
000000
,
000000
000000
000000
000000
,
000000
010000
000100
001000
000010
001000
000001
100000
,
000100
001000
000010
100000
000001
010000
000100
001000
,
000000
000010
000010
000010
001000
000001
100000
000100
,
001000
000000
001000
000010
100000
000001
010000
000100
,
100000
000000
001000
010000
000001
100000
000010
001000
,
000100
000000
000100
000001
001000
000100
010000
000001
,
100000
000100
001000
000010
100000
000000
100000
000001
,
010000
000100
001000
000010
100000
000000
100001
000000
,
001000
000010
001000
010000
001000
000010
001000
010000
,
100000
000000
100000
000010
001000
000001
010000
000100
,
100000
000010
001000
000001
010000
000000
010000
001000
,
100000
000010
100000
000001
001000
000010
010000
000100
,
100000
000001
001000
000010
010000
000001
100000
000100
,
001000
000001
010000
000001
100000
000001
001000
000100
,
100000
000010
100000
000001
010000
001000
100000
000100
,
001000
000000
001000
000010
100000
000001
010000
000100
,
010000
000000
010000
000001
100000
000000
100000
000010
,
001000
000001
010000
000100
100000
000010
001000
000000
,
000001
010000
000100
100000
000010
001000
000001
010000
,
000100
000000
001000
000000
000001
100000
000001
100000
000010
000000
001000
000000
000001
000000
001000
000000
,
000100
010000
000001
000000
100000
000010
001000
000000
,
000001
100000
000001
010000
001000
000100
001000
010000
000010
000000
100000
000000
000001
000000
000000
000000
,
000100
000010
100000
000000
000001
010000
001000
000000
,
100000
000001
100000
000010
001000
000100
001000
000010
010000
000000
000001
000000
100000
000000
000000
000000
,
000100
001000
000010
001000
000100
001000
000010
001000
,
000001
000000
000001
010000
000100
100000
000010
001000
,
000001
100000
000010
001000
000100
010000
000001
000100
,
000001
010000
000100
100000
001000
010000
000001
001000
,
000010
100000
000100
010000
000001
001000
000010
100000
,
000100
100000
000010
100000
000001
001000
000100
010000
,
000001
100000
000100
001000
000010
010000
000001
001000
,
000100
000000
000100
100000
001000
000100
000001
010000
,
000000
000000
000000
000100
001000
000000
000000
000000
;

//---------------dance-single - ----------------
#NOTES:
     dance-single:
     :
     Challenge:
     13:
     0.626245,0.643658,0.363528,0.128304,0.753785,410.000000,376.000000,34.000000,12.000000,0.000000,0.000000,0.626245,0.643658,0.363528,0.128304,0.753785,410.000000,376.000000,34.000000,12.000000,0.000000,0.000000:
0000
0000
0000
0000
,
0000
0000
0000
0000
,
0000
0000
0000
0000
,
2002
0003
3020
2030
,
3001
0010
0100
1000
0010
0000
0010
0000
1000
0100
0001
0000
1001
0000
0000
0000
,
0001
0000
0010
0000
0100
0000
1000
0000
0010
0100
0001
0000
1000
0000
0100
0000
,
0010
0000
0001
0000
0100
0000
0010
0000
1000
0100
0010
0000
0001
0000
1000
0000
,
0001
0000
0010
0000
0100
0000
1000
0000
0010
1000
0100
0000
1000
0000
0001
0000
,
0100
0000
0010
0000
1000
0000
0100
0000
0010
0001
0100
0000
0001
0000
1000
0000
,
0010
0000
1000
0000
0001
0000
0010
0000
0001
0100
0010
0000
1000
0000
0100
0000
,
0010
0000
0100
0000
1000
0000
0010
0000
1000
0001
0100
0000
0010
0000
1000
0000
,
0100
0000
0010
0000
0001
0000
0100
0000
0010
1000
0100
0000
0010
0000
0100
0000
,
1000
0000
0001
0100
0010
0000
1000
0000
2100
0000
0001
0000
3200
0000
0300
0000
,
1100
0000
0101
0000
1001
0000
0010
0100
0000
1000
0001
0100
0000
0010
0000
1000
,
0100
0010
0001
0000
0101
0000
0101
0000
0001
0010
0100
0000
0010
0100
1000
0000
,
1010
0000
0110
0000
0101
0000
0001
1000
0000
1000
0010
0100
0000
0001
0000
0010
,
0001
0100
0010
0000
1010
0000
1010
0000
1000
0001
0100
0000
0001
0010
0100
0000
,
0011
0000
0110
0000
1100
0000
0001
0100
0000
0010
1000
0100
0000
1000
0000
0001
,
1000
0100
1000
0000
0110
0000
0110
0000
0010
0100
1000
0000
0001
1000
0010
0000
,
0110
0000
0101
0000
0011
0000
0001
1000
0000
1000
0100
0010
0000
0010
0000
0001
,
0100
0010
1000
0000
0001
0000
0001
0000
0011
0000
0001
0000
0101
0000
1001
0000
,
0020
0000
0000
0000
1000
0000
0000
0000
0001
0000
0000
0130
0001
0010
0100
1000
,
0020
0000
1030
0002
0100
0000
0000
0000
1003
0001
1000
0100
0010
0001
0100
0010
,
1000
0100
0001
0100
1000
0000
0001
0100
1000
0100
0001
0000
1000
0100
0010
0002
,
0000
1003
0001
0100
0010
0100
0001
0020
0000
0031
0100
0010
1000
0100
0001
0000
,
1000
0100
0001
0100
1000
0100
0001
0100
1000
0010
0001
0010
1000
0010
0001
0010
,
1000
0100
0001
0100
1000
0010
0001
0010
1000
0001
0100
0000
0110
0000
0000
0000
,
0001
0010
1000
0010
0001
0100
1000
0100
0001
0010
0100
1000
1001
0000
0000
0000
,
0010
0000
0000
1000
0000
0000
0100
0000
0000
0010
0000
0000
0001
0000
0000
0100
0000
0000
0001
0000
0000
1000
0000
0000
0010
0000
0000
0000
0010
0000
0000
0000
0010
0000
0000
0000
1001
0000
0000
0000
0000
0000
0000
0000
0000
0000
0000
0000
,
1100
1000
0100
0010
0001
0100
0010
1000
0000
0001
0100
0010
0000
1001
0000
0010
,
1000
0100
0010
0000
0001
0100
0001
0000
1000
0100
0010
0001
0100
0010
1000
0000
,
0001
1000
0001
0010
0100
1000
0010
0100
0000
0001
0010
0001
0000
0101
0000
1000
,
0001
1000
0100
0000
1000
0010
1000
0000
0001
0010
0100
1000
0010
1000
0100
0000
,
1000
0001
0010
0100
0010
0100
1000
0001
0000
0100
0010
1000
0000
1100
0000
0001
,
0100
0010
0100
0000
0001
1000
0001
0000
0010
0001
0010
0100
0010
1000
0010
0000
,
0001
0100
0010
1000
0001
1000
0100
0010
0000
0001
1000
0001
0000
0110
0000
0010
,
1000
0100
0010
0000
0100
0010
0001
0000
0010
1000
0100
0010
0002
0000
0000
0000
,
1003
0001
0100
0001
0000
0001
1000
0000
1001
0000
0110
0000
0000
0000
0000
0000
;

//---------------dance-solo - ----------------
#NOTES:
     dance-solo:
     :
     Beginner:
     2:
     0.119139,0.140332,0.032076,0.032076,0.000000,78.000000,75.000000,3.000000,3.000000,0.000000,0.000000,0.119139,0.140332,0.032076,0.032076,0.000000,78.000000,75.000000,3.000000,3.000000,0.000000,0.000000:
000000
000000
000000
000000
,
000000
000000
000000
000000
,
000000
000000
000000
000000
,
000000
000000
000000
000000
,
000000
000000
000000
000000
,
010000
000000
000010
000000
,
010000
000000
001000
000000
,
010000
000000
000010
000000
,
001000
000000
001000
000000
,
000010
000000
010000
000000
,
001000
000000
010000
000000
,
001000
000000
000010
000000
,
010000
000000
010010
000000
,
000010
000010
000010
000000
,
010000
000000
010000
000000
,
001000
001000
001000
000000
,
010000
000000
000010
000000
,
010000
010000
010000
000000
,
000010
000000
001000
000000
,
000010
000010
000010
000000
,
010000
000000
000010
000000
,
020020
000000
030030
000000
,
010000
020000
030000
000000
,
000010
000000
010000
000000
,
001000
001000
001000
000000
,
010000
010000
000000
000010
,
000000
001000
000000
001000
,
000000
000010
000000
010000
,
000000
001000
001000
000000
,
001000
001000
001000
000000
,
010000
000000
000010
000000
,
010000
010000
010000
000000
,
001000
000000
010000
000000
,
000010
000010
000010
000000
,
010000
000000
000010
000000
,
010000
010000
010000
000000
,
001000
000000
010000
000000
,
000010
000000
010010
000000
;

//---------------dance-solo - ----------------
#NOTES:
     dance-solo:
     :
     Challenge:
     14:
     0.626245,0.663772,0.769823,0.106920,0.625481,410.000000,338.000000,72.000000,10.000000,0.000000,0.000000,0.626245,0.663772,0.769823,0.106920,0.625481,410.000000,338.000000,72.000000,10.000000,0.000000,0.000000:
// measure 0
000000
000000
000000
000000
,  // measure 1
000000
000000
000000
000000
,  // measure 2
000000
000000
000000
000000
,  // measure 3
200020
300000
000230
000302
,  // measure 4
010003
001000
010000
001000
000100
000000
000100
000000
000001
100000
000001
000000
000101
000000
000000
000000
,  // measure 5
001000
000100
010000
000010
000110
001100
101000
010001
,  // measure 6
100000
000100
001000
000010
000110
001100
011000
100100
,  // measure 7
001000
000001
000100
001000
011000
010010
001010
100100
,  // measure 8
000001
100000
000010
000100
000101
001001
100001
010100
,  // measure 9
000100
010000
001000
100000
101000
011000
010010
001100
,  // measure 10
000001
000100
000001
001000
001010
100010
110000
000110
,  // measure 11
001000
000001
010000
000010
100010
101000
011000
100001
,  // measure 12
000001
000000
001000
000100
010000
000000
000010
000000
100000
000001
100000
000000
100001
000000
000000
000000
,  // measure 13
010010
000000
001100
000000
100000
000100
001000
000001
000000
100000
001000
010000
000000
000010
000000
000100
,  // measure 14
000001
001000
000100
000000
100000
000010
010000
000000
100100
000000
000000
000000
001001
000000
000000
000000
,  // measure 15
000110
000000
011000
000000
000010
010000
000100
001000
000000
000001
000100
000010
000000
100000
000000
001000
,  // measure 16
010000
000100
001000
000000
000001
100000
000010
000000
001010
000000
000000
000000
010100
000000
000000
000000
,  // measure 17
101000
000000
001001
000000
000001
000100
001000
100000
000000
010000
100000
000100
000000
001000
000000
000010
,  // measure 18
000100
000010
010000
000000
001000
100000
000001
000000
010001
000000
000000
000000
100010
000000
000000
000000
,  // measure 19
011000
000000
000110
000000
100000
000001
000100
000010
000000
010000
001000
100000
000000
000100
000000
001000
,  // measure 20
000001
000100
000010
000000
010000
001000
100000
000000
100200
000000
001300
000000
001100
000000
001001
000000
,  // measure 21
100002
000000
000000
000000
010000
000000
000000
000000
000010
000000
000000
000103
000001
001000
000010
010000
,  // measure 22
002000
000000
103000
000200
000000
001300
000002
000000
000000
000103
000010
010000
000010
001000
000100
100000
,  // measure 23
001000
010000
000100
001000
000001
000000
000100
000010
010000
001000
100000
000000
000100
001000
000010
020000
,  // measure 24
000000
031000
010000
000100
001000
000010
100000
000001
000000
000001
010000
000000
010010
000000
100001
000000
,  // measure 25
100000
001000
000001
001000
100000
001000
000001
001000
100000
000100
000001
000100
100000
000100
000001
000100
,  // measure 26
100000
001000
000001
001000
100000
000100
000001
000100
010000
000010
001000
000000
010010
000000
000000
000000
,  // measure 27
000010
000100
010000
000100
000010
001000
010000
001000
000010
100000
000100
001000
001001
000000
000000
000000
,  // measure 28
000001
000000
000000
000010
000000
000000
000001
000000
000000
000010
000000
000000
100000
000000
000000
010000
000000
000000
100000
000000
000000
010000
000000
000000
000100
000000
000000
000000
000100
000000
000000
000000
000100
000000
000000
000000
100001
000000
000000
000000
000000
000000
000000
000000
000000
000000
000000
000000
,  // measure 29
101000
000000
010100
000000
000100
001000
000010
000100
000000
000001
010000
001000
000000
100000
000000
000010
,  // measure 30
000100
000010
001000
000000
000001
100000
010000
000000
100010
000000
000000
000000
001100
000000
000000
000000
,  // measure 31
100100
000000
010010
000000
100000
001000
010000
000001
000000
000100
000010
010000
000000
001000
000000
100000
,  // measure 32
000001
100000
001000
000000
010000
000010
000100
000000
000101
000000
000000
000000
101000
000000
000000
000000
,  // measure 33
010100
000000
001001
000000
000010
010000
001000
100000
000000
000100
001000
000001
000000
000100
000000
000010
,  // measure 34
000100
001000
100000
000000
010000
000001
000010
000000
000011
000000
000000
000000
110000
000000
000000
000000
,  // measure 35
101000
000000
000110
000000
001000
000010
000100
001000
000000
010000
000001
100000
000000
000010
000000
100000
,  // measure 36
001000
010000
000010
000000
000100
000001
100000
000000
100001
000000
000000
000000
001100
000000
000000
000000
,  // measure 37
100000
001000
100000
000001
000000
000001
001000
000000
001100
000000
010010
000000
000000
000000
000000
000000
;
