#TITLE:MY SUMMER LOVE (TOMMY'S SMILE MIX);
#SUBTITLE:;
#ARTIST:mitsu-O! with GEILA;
#TITLETRANSLIT:;
#SUBTITLETRANSLIT:;
#ARTISTTRANSLIT:;
#GENRE:;
#CREDIT:;
#BANNER:MY SUMMER LOVE (TOMMY'S SMILE MIX)-bn.png;
#BACKGROUND:MY SUMMER LOVE (TOMMY'S SMILE MIX)-bg.png;
#LYRICSPATH:;
#CDTITLE:;
#MUSIC:MY SUMMER LOVE (TOMMY'S SMILE MIX).ogg;
#OFFSET:0.000000;
#SAMPLESTART:40.766998;
#SAMPLELENGTH:20.000000;
#SELECTABLE:YES;
#DISPLAYBPM:100.000000;
#BPMS:0.000000=100.278999
,4.000000=100.081001
;
#STOPS:
;
#BGCHANGES:;
#KEYSOUNDS:;
#ATTACKS:;

//---------------dance-single - ----------------
#NOTES:
     dance-single:
     :
     Hard:
     12:
     0.435924,0.452271,0.255868,0.104243,0.213224,322.000000,295.000000,27.000000,11.000000,0.000000,0.000000,0.435924,0.452271,0.255868,0.104243,0.213224,322.000000,295.000000,27.000000,11.000000,0.000000,0.000000:
0000
0000
0000
0000
,
0000
0000
0000
0000
,
0000
0000
0000
0000
,
0000
0000
0010
0000
0000
0000
0001
0000
0000
1000
0100
1000
0000
0000
0001
0000
,
0000
0000
0100
0000
0000
0010
1000
0010
0000
0100
0001
0100
0000
0001
1000
0001
,
0000
0000
0010
0000
0000
0000
1100
0000
0000
0010
0001
0010
0000
0000
0100
0000
,
0000
0000
1001
0000
0000
0010
1000
0100
0000
0000
0010
0000
0000
0000
0100
0000
,
0000
0000
0001
0000
0000
0000
0110
0000
0000
1000
0001
1000
0000
0000
0010
0000
,
1000
0000
0001
0100
0001
1000
0000
0010
0000
0100
0001
0000
1000
0000
0001
0000
,
1000
0001
0100
0001
0010
0100
0010
0100
,
1000
0001
0010
0100
1000
0001
0100
0010
,
1000
1000
0001
0010
0100
0010
0001
1000
,
0001
0001
0010
0100
1000
0010
0100
0001
,
0010
0010
1010
0001
0100
0100
0101
1000
,
0001
0010
0100
1010
0100
0001
1010
0100
,
1000
0001
0110
1000
0100
0010
0001
0110
,
1000
0000
0001
0100
0001
0000
1000
0000
0110
0000
0000
0000
0110
0000
0000
0000
,
1000
0000
0001
0000
0100
0000
0010
0100
0000
0000
0001
0000
1000
0000
0010
0000
,
1000
0100
0010
0100
1001
0000
1001
0000
,
0001
0000
1000
0000
0100
0000
0010
0100
0000
0000
1000
0000
0001
0000
0010
0000
,
1000
0010
0100
1000
0011
0000
1100
0000
,
0010
0000
1000
0000
0100
0000
0001
0100
0000
0000
0110
0000
0001
0000
0100
0000
,
0010
1000
0001
0100
1010
0000
0101
0000
,
0010
0000
0100
0000
0001
0000
1000
0100
0000
0000
1000
0000
0010
0000
0100
0000
,
0010
1000
0100
0010
1001
0000
0110
0001
,
2000
0010
0010
3010
0002
0100
0100
0103
,
0020
1000
0100
1030
0200
0010
0301
0000
,
2000
0010
0001
3010
0002
1000
0103
1000
,
2000
0010
3020
0100
0230
0001
0301
0000
,
1000
0010
1000
0100
1000
0000
0001
0000
0000
0010
0001
0100
0001
0000
1000
0000
,
0010
0100
0010
0100
0010
0000
1000
0100
0000
0001
0100
0000
0010
0000
0000
0000
,
0001
0100
0001
1000
0010
0000
0010
0100
0000
0001
1000
0100
0010
0000
0000
0000
,
1000
0000
0000
0001
0000
0000
0100
0000
0000
0001
0000
0000
0010
0000
0000
0000
0000
0000
0100
0000
0000
1000
0000
0000
0001
0000
0000
0000
1000
0000
0000
0000
0010
0000
0000
0000
0100
0000
0000
0000
0000
0000
0000
0000
0000
0000
0000
0000
,
0001
0000
0100
0000
0010
0000
1000
0100
0000
0000
0010
0000
0100
0000
0001
0000
,
1000
0001
0010
0100
1001
0000
1001
0000
,
0010
0000
0100
0000
0001
0000
0010
0100
0000
0000
1000
0000
0001
0000
0010
0000
,
0100
0010
0001
1000
0110
0000
0110
0000
,
0001
0000
0100
0000
1000
0000
0100
0001
0000
0000
1100
0000
0001
0000
0100
0000
,
0010
0100
0001
1000
0110
0000
0110
0000
,
1000
0000
0100
0000
0001
0000
0100
1000
0000
0000
0001
0000
0100
0000
0010
0000
,
1000
0001
0010
0100
2000
0000
0002
0000
,
0000
0000
0003
0001
3001
0000
0000
0000
,
0000
0000
0000
0000
;

//---------------dance-double - ----------------
#NOTES:
     dance-double:
     :
     Hard:
     11:
     0.415617,0.471935,0.227439,0.056860,0.208485,307.000000,283.000000,24.000000,6.000000,0.000000,0.000000,0.415617,0.471935,0.227439,0.056860,0.208485,307.000000,283.000000,24.000000,6.000000,0.000000,0.000000:
00000000
00000000
00000000
00000000
,
00000000
00000000
00000000
00000000
,
00000000
00000000
00000000
00000000
,
00000000
00000000
01000000
00000000
00000000
00000000
00100000
00000000
00000000
00010000
00001000
00010000
00000000
00000000
00001000
00000000
,
00000000
00000000
00000100
00000000
00000000
00000001
00000100
00000001
00000000
00000010
00000001
00000010
00000000
00000100
00000010
00000100
,
00000000
00000000
00001000
00000000
00000000
00000000
00000001
00000000
00000000
00000100
00000001
00000100
00000000
00000000
00001000
00000000
,
00000000
00000000
00010000
00000000
00000000
00100000
10000000
00100000
00000000
00000000
01000000
00000000
00000000
00000000
00100000
00000000
,
00000000
00000000
01000000
00000000
00000000
00000000
00010000
00000000
00000000
01000000
00100000
01000000
00000000
00000000
00100000
00000000
,
00010000
00000000
00001000
00010000
00001000
00000100
00000000
00000001
00000000
00000010
00000100
00000000
00001000
00000000
00000001
00000000
,
00000100
00000010
00000100
00001000
00010000
01000000
10000000
00100000
,
00000000
00100000
10000000
01000000
00100000
00010000
10000000
01000000
,
01000000
10000000
00010000
00100000
01000000
00010000
00001000
00000100
,
00000001
00000010
00000100
00001000
00000001
00000100
00001000
00010000
,
00100000
01000000
00010000
00100000
01000000
00010000
00001000
00000100
,
00000010
00001000
00000100
00000010
00001000
00010000
00100000
00010000
,
00001000
00000100
00001000
00010000
01000000
10000000
00100000
00010000
,
00001000
00000100
00000001
00000010
00001001
00000000
00001001
00000000
,
00000010
00000000
00001000
00000000
00010000
00000000
00100000
01000000
00000000
00000000
00100000
00000000
10000000
00000000
01000000
00000000
,
00010000
01000000
00010000
00001000
00011000
00000000
00011000
00000000
,
00100000
00000000
00010000
00000000
00001000
00000000
00000010
00000100
00000000
00000000
00000010
00000000
00000001
00000000
00000100
00000000
,
00001000
00000100
00001000
00010000
00011000
00000000
00011000
00000000
,
00100000
00000000
00010000
00000000
10000000
00000000
01000000
10000000
00000000
00000000
01010000
00000000
10000000
00000000
01000000
00000000
,
00010000
00001000
00000100
00001000
00010100
00000000
01001000
00000000
,
00010000
00000000
00001000
00000000
00000100
00000000
00001000
00000100
00000000
00000000
00000001
00000000
00000010
00000000
00000100
00000000
,
00000010
00001000
00010000
00001000
00101000
00000000
00010010
00000100
,
00000002
00001000
00000000
00001000
00000000
00001000
00001003
00000000
,
00002000
00010000
00000000
00010000
00000000
00010000
00013000
00000000
,
00020000
10000000
00000000
10000000
00000000
10000000
10030000
00000000
,
20000000
01000000
00000000
00100000
00000000
00010000
30010000
00000000
,
00100000
10000000
00100000
10000000
00100000
00000000
01000000
00000000
00000000
00010000
01000000
00010000
01000000
00000000
00010000
00000000
,
10000000
00010000
10000000
00010000
10000000
00000000
01000000
00010000
00000000
00001000
00000100
00000000
00000001
00000000
00000000
00000000
,
00001000
00000100
00001000
00000100
00001000
00000000
00000001
00000100
00000000
00000010
00000100
00000010
00000100
00000000
00000000
00000000
,
00000001
00000000
00000000
00001000
00000000
00000000
00000001
00000000
00000000
00000100
00000000
00000000
00000001
00000000
00000000
00000000
00000000
00000000
00000100
00000000
00000000
00000001
00000000
00000000
00000100
00000000
00000000
00000000
00001000
00000000
00000000
00000000
00010000
00000000
00000000
00000000
01000000
00000000
00000000
00000000
00000000
00000000
00000000
00000000
00000000
00000000
00000000
00000000
,
00110000
00000000
10000000
00000000
01000000
00000000
00010000
00001000
00000000
00000000
00000100
00000000
00000001
00000000
00000010
00000000
,
00000001
00001000
00000100
00000010
00001100
00000000
00010010
00000000
,
00001100
00000000
00000010
00000000
00000001
00000000
00000100
00001000
00000000
00000000
00010000
00000000
01000000
00000000
10000000
00000000
,
00100000
01000000
00010000
10000000
01010000
00000000
00101000
00000000
,
01010000
00000000
00100000
00000000
01000000
00000000
00010000
00001000
00000000
00000000
00000110
00000000
00000001
00000000
00000100
00000000
,
00000010
00001000
00000001
00000100
00001010
00000000
00010100
00000000
,
00001010
00000000
00000001
00000000
00000100
00000000
00001000
00010000
00000000
00000000
01000000
00000000
10000000
00000000
00100000
00000000
,
10000000
00010000
10000000
01000000
00110000
00000000
02002000
00000000
,
00000000
00000000
03000000
01000000
00013000
00000000
00000000
00000000
,
00000000
00000000
00000000
00000000
;

//---------------dance-single - ----------------
#NOTES:
     dance-single:
     :
     Medium:
     9:
     0.328974,0.373615,0.189532,0.018953,0.000000,243.000000,223.000000,20.000000,2.000000,0.000000,0.000000,0.328974,0.373615,0.189532,0.018953,0.000000,243.000000,223.000000,20.000000,2.000000,0.000000,0.000000:
0000
0000
0000
0000
,
0000
0000
0000
0000
,
0000
0000
0000
0000
,
0000
1000
0000
0001
0000
0010
0000
0100
,
0000
1000
0000
0010
0000
0100
0000
0001
,
0000
0010
0000
0001
0000
1000
0000
0100
,
0000
1000
0000
0001
0000
0100
0000
0010
,
0000
0100
0000
0001
0000
1000
0000
0010
,
1000
1000
0100
0100
0001
0001
0010
0010
,
0000
1000
0001
0010
0100
0000
1000
0001
,
0000
0000
0000
0010
0001
1000
0001
0100
,
0000
0100
0010
1000
0100
0000
1000
0001
,
0000
0000
0010
0001
1000
0000
1000
0100
,
0000
1000
0010
0100
0001
0010
0100
1000
,
0000
0000
0000
0001
1000
0010
1000
0100
,
0000
0100
1000
0010
0100
0000
0001
0010
,
0000
0001
1000
0000
1001
0000
0110
0000
,
1000
0001
1000
0010
0100
0001
0010
0000
,
0001
0100
0010
1000
1100
0000
0101
0000
,
0001
0010
0001
1000
0100
0010
0100
0000
,
1000
0010
0100
0001
0011
0000
1010
0000
,
0001
1000
0100
1000
0010
0100
0001
0000
,
0010
0001
1000
0100
1100
0000
0011
0000
,
0010
0001
0100
0001
0100
0010
1000
0000
,
0100
1000
0001
0100
0010
0000
1000
0001
,
0000
0100
0000
0010
0000
1000
0000
0001
,
0000
0010
0000
0100
0000
1000
0000
0001
,
0000
1000
0000
0010
0000
0100
0000
0001
,
0000
1000
0000
0001
0000
0100
0000
0010
,
1000
0001
1000
0100
0000
0100
0010
0001
,
0100
0010
0100
0001
0010
0100
1000
0000
,
1000
0010
0100
0010
1000
0001
0101
0000
,
0001
1000
0010
0100
0110
0110
0110
0000
,
0001
1000
0001
0100
0010
1000
0100
0000
,
1000
0010
0100
0001
0101
0000
1010
0000
,
1000
0001
0010
0100
0010
0001
1000
0000
,
0010
0100
0001
1000
1100
0000
1010
0000
,
0010
1000
0100
0010
0001
1000
0001
0000
,
0001
1000
0100
0010
0011
0000
0101
0000
,
0100
0010
0100
0001
0010
0001
1000
0000
,
1000
0010
0100
0001
1001
0000
0220
0000
,
0000
0000
0300
1000
1030
0000
0000
0000
;

//---------------dance-single - ----------------
#NOTES:
     dance-single:
     :
     Easy:
     5:
     0.226085,0.255631,0.208485,0.018953,0.000000,167.000000,145.000000,22.000000,2.000000,0.000000,0.000000,0.226085,0.255631,0.208485,0.018953,0.000000,167.000000,145.000000,22.000000,2.000000,0.000000,0.000000:
0000
0000
0000
0000
,
0000
0000
0000
0000
,
0000
0000
0000
0000
,
1000
0001
1000
0001
,
0100
0010
0100
0010
,
1001
0010
1000
0100
,
0010
0001
1000
0001
,
1000
0010
0100
0001
,
1000
0100
0010
0001
,
1001
0100
0001
1000
,
0010
0100
0001
1000
,
0001
1000
0010
0100
,
0010
1000
0100
0010
,
0001
0100
0001
1000
,
0100
0010
0100
0010
,
0001
0100
0010
1000
,
0100
1000
1001
0110
,
1000
0001
0100
0010
,
1000
0100
0110
0110
,
0001
0100
0001
1000
,
0010
0100
1001
1001
,
0001
1000
0001
0100
,
0010
1000
0110
0110
,
1000
0001
0010
0100
,
1000
0010
1000
0001
,
0000
0100
0000
0010
,
0000
1000
0000
0001
,
0000
1000
0000
0100
,
0000
0010
0000
0001
,
1000
0010
0100
0010
,
1000
0001
0100
1001
,
0001
1000
0100
1001
,
1000
0010
0110
1001
,
0010
1000
0100
0010
,
0001
1000
1001
1001
,
0010
0100
0001
0010
,
0100
1000
0110
0110
,
0001
0100
0010
0100
,
0010
1000
1001
1001
,
0001
0010
0001
0100
,
1000
0001
0110
2002
,
0000
0003
3010
0000
;

//---------------dance-single - ----------------
#NOTES:
     dance-single:
     :
     Beginner:
     2:
     0.112365,0.137648,0.028430,0.000000,0.000000,83.000000,80.000000,3.000000,0.000000,0.000000,0.000000,0.112365,0.137648,0.028430,0.000000,0.000000,83.000000,80.000000,3.000000,0.000000,0.000000,0.000000:
0000
0000
0000
0000
,
0000
0000
0000
0000
,
0000
0000
0000
0000
,
1000
0000
0000
0000
,
0001
0000
0000
0000
,
1001
0000
0000
0000
,
0100
0000
0000
0000
,
0010
0000
0000
0000
,
1000
0000
0001
0000
,
0100
0000
0010
0000
,
0100
0000
0010
0000
,
1000
0000
0001
0000
,
1000
0000
0100
0000
,
1000
0000
0010
0000
,
0100
0000
0001
0000
,
0010
0000
0100
0000
,
1000
0000
1001
0000
,
0001
0001
0001
0000
,
0100
0000
0010
0000
,
1000
1000
1000
0000
,
0010
0000
0100
0000
,
0010
0010
0010
0000
,
1000
0000
0001
0000
,
0100
0100
0100
0000
,
0001
0000
1000
0000
,
0001
0000
0000
0000
,
0010
0000
0000
0000
,
0100
0000
0000
0000
,
1000
0000
0000
0000
,
0010
0010
0010
0000
,
1000
1000
1000
0000
,
0001
0001
0001
0000
,
0100
0100
0100
0000
,
0001
0001
0001
0000
,
1000
0000
0010
0000
,
0100
0100
0100
0000
,
0010
0000
1000
0000
,
0010
0010
0010
0000
,
0100
0000
0001
0000
,
1000
1000
1000
0000
,
0001
0000
0100
0000
,
0000
0000
1001
0000
;

//---------------dance-single - ----------------
#NOTES:
     dance-single:
     :
     Challenge:
     13:
     0.590257,0.631142,0.322205,0.000000,0.710746,436.000000,402.000000,34.000000,0.000000,0.000000,0.000000,0.590257,0.631142,0.322205,0.000000,0.710746,436.000000,402.000000,34.000000,0.000000,0.000000,0.000000:
0000
0000
0000
0000
,
0000
0000
0000
0000
,
0000
0000
0000
0000
,
1000
0000
1100
0000
0001
0000
0101
0000
1000
0010
0100
0010
0000
1000
0001
0000
,
0100
0000
1001
0000
0010
0100
0010
1000
0000
1000
0001
0100
0000
0001
0010
0100
,
1100
0000
1001
0000
0101
0000
0110
0000
0010
1000
0010
0100
0000
0001
1000
0000
,
0010
0000
0010
0000
0010
1000
0001
1000
0000
0001
0100
0001
0000
1000
0001
0100
,
0010
0000
0010
0000
0010
0100
0001
0100
0000
0001
1000
0001
0000
1000
0100
0000
,
1001
0000
0010
0100
0001
0010
0100
1000
0010
0100
0001
0000
1000
0001
1000
0000
,
1001
0000
0010
0000
0100
0000
0001
0000
1000
0100
1000
0000
0010
0000
0100
0000
,
0001
0000
0010
0000
0001
0000
0100
0000
0010
1000
0010
0000
1000
0000
0100
0000
,
1000
0000
0001
0000
0010
0000
0100
0000
1000
0010
1000
0000
0001
0000
0100
0000
,
0001
0000
0010
0000
0001
0000
1000
0000
0010
0100
0010
0000
1000
0000
0001
0000
,
0100
0000
0010
0000
1000
0000
0001
0000
0010
0100
1000
0000
0010
0000
0100
0000
,
0001
0000
0010
0000
0100
0000
0010
0000
0001
1000
0100
0000
1000
0000
0010
0000
,
0100
0000
0001
0000
0010
0000
0100
0000
1000
0010
0100
0000
0001
0000
1000
0000
,
0010
0000
0100
0001
0100
0010
1000
0000
1100
0000
0000
0000
0011
0000
0000
0000
,
1000
0000
1000
0000
1000
0010
0100
0001
0000
0010
0100
1000
0000
0010
0000
0100
,
0001
0010
0001
0000
1000
0100
1000
0000
1010
0000
0000
0000
0101
0000
0000
0000
,
0010
0000
0010
0000
0010
1000
0001
1000
0000
0100
0010
0001
0000
1000
0000
0001
,
0100
0010
0100
0000
0001
1000
0001
0000
0011
0000
0000
0000
1100
0000
0000
0000
,
0001
0000
0001
0000
0001
1000
0100
0010
0000
0010
0100
0010
0000
0001
0000
1000
,
0010
1000
0010
0000
0100
0001
0100
0000
0110
0000
0000
0000
1001
0000
0000
0000
,
0100
0000
0100
0000
0100
0010
1000
0001
0000
0010
0001
1000
0000
0001
0000
0100
,
0010
1000
0001
0000
0100
0010
1000
0000
1001
0000
0100
0000
0101
0000
1100
0000
,
0001
0010
0001
0010
0001
0000
0101
0000
0000
0100
0010
1000
0010
0000
1010
0000
,
1000
0100
1000
0100
0010
0000
0001
1000
0000
0001
0100
0000
0110
0000
0000
0000
,
0010
0100
0010
0100
0001
0000
1000
0001
0000
0001
1000
0010
0110
0000
0000
0000
,
0100
0000
0000
0001
0000
0000
1000
0000
0000
0001
0000
0000
0100
0000
0000
0000
0000
0000
0010
0000
0000
0100
0000
0000
0001
0000
0000
0000
0010
0000
0000
0000
0100
0000
0000
0000
1000
0000
0000
0000
0000
0000
0000
0000
0000
0000
0000
0000
,
0001
0100
0001
0100
1000
0100
1000
0100
0001
0100
0001
0100
1000
0100
1000
0100
,
0001
0100
1000
0100
0001
0100
1000
0100
0001
0100
1000
0100
0001
1000
0100
0000
,
1000
0010
1000
0010
0001
0010
0001
0010
1000
0010
0001
0010
1000
0010
0100
0000
,
0001
0000
0000
0100
0000
0000
1000
0000
0000
0100
0000
0000
0001
0000
0000
0010
0000
0000
1000
0000
0000
0010
0000
0000
0001
0000
0000
0000
0001
0000
0000
0000
0001
0000
0000
0000
0001
0000
0000
0000
0000
0000
0000
0000
0000
0000
0000
0000
,
0100
0000
0100
0000
0100
0001
1000
0001
0000
0010
0001
1000
0000
0010
0000
1000
,
0100
0010
0001
0000
0100
0010
1000
0000
1100
0000
0000
0000
0101
0000
0000
0000
,
0010
0000
0010
0000
0010
0001
0100
0001
0000
1000
0100
1000
0000
0001
0000
1000
,
0001
0100
0010
0000
1000
0001
0100
0000
1010
0000
0000
0000
0011
0000
0000
0000
,
1000
0000
1000
0000
1000
0010
0100
0010
0000
0100
0001
0010
0000
0001
0000
0100
,
0001
0010
0100
0000
1000
0001
0100
0000
0110
0000
0000
0000
1001
0000
0000
0000
,
0001
0000
0001
0000
0001
1000
0100
0010
0000
0010
0100
0010
0000
0001
0000
1000
,
0010
0100
0001
0000
0010
0100
1000
0000
1010
0000
0000
0000
1100
0000
0000
0000
,
0001
1000
0001
1000
0000
0010
0100
0000
0110
0000
1001
0000
0000
0000
0000
0000
;

//---------------dance-double - ----------------
#NOTES:
     dance-double:
     :
     Easy:
     6:
     0.205778,0.216304,0.161102,0.000000,0.000000,152.000000,135.000000,17.000000,0.000000,0.000000,0.000000,0.205778,0.216304,0.161102,0.000000,0.000000,152.000000,135.000000,17.000000,0.000000,0.000000,0.000000:
00000000
00000000
00000000
00000000
,
00000000
00000000
00000000
00000000
,
00000000
00000000
00000000
00000000
,
10000000
00010000
10000000
00100000
,
01000000
00001000
00010000
00000100
,
00001000
00000010
00000100
00000001
,
00000010
00000100
00001000
00000010
,
00001000
00000100
00010000
00001000
,
01000000
00100000
10000000
00010000
,
00100000
00010000
01000000
00100000
,
10000000
00000000
00010000
01000000
,
00001000
00010000
00000010
00000100
,
00000001
00000000
00001000
00000010
,
00000100
00000010
00010000
00000100
,
00001000
00000000
00000100
00010000
,
00001000
01000000
00100000
10000000
,
00010000
00000000
01100000
01100000
,
00010000
01000000
00100000
00000000
,
01000000
00001000
00011000
00011000
,
00010000
00000010
00001000
00000000
,
00000010
00000100
00000110
00000110
,
00000001
00000010
00000100
00000000
,
00001000
00000100
00001001
00001001
,
00000001
00001000
00000100
00000000
,
00010000
00001000
01000000
00100000
,
10000000
01000000
00000000
10000000
,
00000000
00010000
00000000
00100000
,
00000000
00001000
00000000
00100000
,
00000000
00001000
00000000
00010000
,
00000010
00000010
00001000
00001000
,
00000001
00000010
00000001
00000100
,
00000010
00001000
00000100
00000100
,
00010000
00001000
01000000
01000000
,
00100000
10000000
00010000
00000000
,
01000000
00010000
10010000
10010000
,
01000000
00001000
00010000
00000000
,
00000100
00001000
00001001
00001001
,
00000001
00000100
00000010
00000000
,
00010000
00001000
00011000
00011000
,
00010000
00000100
00001000
00000000
,
00000100
00010000
00011000
00011000
,
00100000
00000000
01100000
00000000
;

//---------------dance-double - ----------------
#NOTES:
     dance-double:
     :
     Medium:
     9:
     0.289713,0.314623,0.018953,0.189532,0.000000,214.000000,212.000000,2.000000,20.000000,0.000000,0.000000,0.289713,0.314623,0.018953,0.189532,0.000000,214.000000,212.000000,2.000000,20.000000,0.000000,0.000000:
00000000
00000000
00000000
00000000
,
00000000
00000000
00000000
00000000
,
00000000
00000000
00000000
00000000
,
00000000
00001000
00000000
00010000
00000000
00000010
00000000
00000100
,
00000000
00000001
00000000
00000010
00000000
00000001
00000000
00001000
,
00000000
00000100
00000000
00010000
00000000
00001000
00000000
00100000
,
00000000
00010000
00000000
01000000
00000000
00100000
00000000
10000000
,
00000000
00100000
00000000
01000000
00000000
00001000
00000000
00010000
,
00000010
00000010
00000010
00000000
00000100
00000100
00000100
00000000
,
00000001
00000010
00000001
00001000
00000010
00000000
00001000
00000200
,
00000000
00000000
00000000
00010300
00001000
00100000
00010000
01000000
,
00000000
00100000
10000000
00010000
00100000
00000000
00010000
02000000
,
00000000
00000000
03100000
01000000
00010000
00000000
10000000
00100000
,
00000000
10000000
00100000
01000000
00001000
00010000
00001000
00200000
,
00000000
00000000
00000000
00301000
00010000
00000010
00001000
00000100
,
00000000
00001000
00000001
00000010
00000001
00000100
00000010
00002000
,
00000000
00000100
00003100
00000000
00001100
00000000
00000101
00000000
,
00001000
00000100
00010000
00001000
01000000
00000000
00000000
00000000
,
00100000
10000000
01000000
00100000
00020000
00000000
20030000
00000000
,
30100000
10000000
00010000
00100000
00001000
00000000
00000000
00000000
,
00010000
00000100
00001000
00000010
00000200
00000000
00000302
00000000
,
00000013
00000001
00001000
00000010
00010000
00000100
00001000
00000000
,
00000010
00010000
00001000
01000000
00200000
00000000
20300000
00000000
,
30010000
00100000
00001000
01000000
00100000
00000000
00000000
00000000
,
10000000
00010000
00100000
00010000
02000000
00000000
03010000
10000000
,
00000000
00100000
00000000
10000000
00000000
00010000
00000000
01000000
,
00000000
00001000
00000000
00010000
00000000
00000010
00000000
00000100
,
00000000
00000001
00000000
00000010
00000000
00000001
00000000
00000100
,
00000000
00000010
00000000
00001000
00000000
00000100
00000100
00000000
,
00010000
00001000
00010000
00000100
00000000
00001000
00000010
00000100
,
00000001
00000010
00000001
00001000
00000100
00010000
00001000
00000000
,
01000000
00100000
10000000
00010000
00100000
01000000
10000000
00000000
,
00010000
01000000
00001000
00100000
00010000
10000000
01000000
00000000
,
10000000
00010000
00100000
00001000
00010000
00000000
00000000
00000000
,
00000100
00001000
00000010
00000100
00000002
00000000
00002003
00000000
,
00003100
00000010
00000001
00001000
00000100
00000000
00000000
00000000
,
00010000
00001000
00100000
00010000
02000000
00000000
03200000
00000000
,
01300000
00001000
00100000
00010000
01000000
00100000
10000000
00000000
,
00010000
00100000
00001000
00010000
00000200
00000000
00002300
00000000
,
00003010
00001000
00000100
00010000
00001000
00000000
00000000
00000000
,
01000000
00100000
10000000
00010000
00200000
00000000
00320000
00000000
,
20030000
00000000
00000000
00010000
30010000
00000000
00000000
00000000
;

//---------------dance-double - ----------------
#NOTES:
     dance-double:
     :
     Challenge:
     13:
     0.574012,0.631142,0.284298,0.018953,0.677577,424.000000,394.000000,30.000000,2.000000,0.000000,0.000000,0.574012,0.631142,0.284298,0.018953,0.677577,424.000000,394.000000,30.000000,2.000000,0.000000,0.000000:
// measure 0
00000000
00000000
00000000
00000000
,  // measure 1
00000000
00000000
00000000
00000000
,  // measure 2
00000000
00000000
00000000
00000000
,  // measure 3
00000010
00000000
00001001
00000000
00000010
00000000
00001001
00000000
00000001
00000100
00000010
00001000
00000000
00001000
00000100
00000000
,  // measure 4
00010000
00000000
00011000
00000000
00001000
01000000
00100000
01000000
00000000
00010000
10000000
00010000
00000000
10000000
00100000
01000000
,  // measure 5
01010000
00000000
10100000
00000000
11000000
00000000
00110000
00000000
00100000
00001000
00010000
00001000
00000000
00010000
00000010
00000000
,  // measure 6
00000100
00000000
00001001
00000000
00000001
00000010
00000001
00000100
00000000
00000010
00001000
00000100
00000000
00010000
00001000
01000000
,  // measure 7
00100000
00000000
01010000
00000000
01000000
00010000
10000000
01000000
00000000
10000000
00100000
01000000
00000000
00001000
00010000
00000100
,  // measure 8
00001000
00000000
00000010
00000100
00000001
00000010
00000100
00001000
00000000
00001000
00000010
00000100
00000001
00001000
00000100
00000000
,  // measure 9
00010000
00000000
00001000
00000000
01000000
00000000
00100000
00000000
10000000
01000000
10000000
00000000
00100000
00000000
01000000
00000000
,  // measure 10
00010000
00000000
00100000
00000000
00001000
00000000
01000000
00000000
00010000
00100000
00010000
00000000
01000000
00000000
00001000
00000000
,  // measure 11
00010000
00000000
00000100
00000000
00000010
00000000
00000001
00000000
00001000
00000010
00001000
00000000
00000100
00000000
00010000
00000000
,  // measure 12
00001000
00000000
00010000
00000000
00000010
00000000
00000100
00000000
00000001
00000010
00000001
00000000
00001000
00000000
00000100
00000000
,  // measure 13
00010000
00000000
00001000
00000000
00100000
00000000
00010000
00000000
10000000
00100000
01000000
00000000
00010000
00000000
10000000
00000000
,  // measure 14
01000000
00000000
00100000
00000000
00001000
00000000
00010000
00000000
00001000
01000000
00100000
00000000
10000000
00000000
00010000
00000000
,  // measure 15
00100000
00000000
00001000
00000000
00010000
00000000
00000010
00000000
00001000
00000001
00000010
00000000
00000100
00000000
00001000
00000000
,  // measure 16
00000010
00000000
00010000
00001000
00010000
00000000
00000100
00000000
00001100
00000000
00000000
00000000
01010000
00000000
00000000
00000000
,  // measure 17
00100000
00000000
00100000
00000000
00100000
00000000
10000000
01000000
00000000
10000000
00100000
01000000
00000000
00010000
00000000
10000000
,  // measure 18
00100000
01000000
00010000
00000000
00100000
00001000
00010000
00000000
00010100
00000000
00000000
00000000
01001000
00000000
00000000
00000000
,  // measure 19
00001000
00000000
00010000
00000000
00000010
00000000
00001000
00000100
00000000
00001000
00000010
00000100
00000000
00000001
00000000
00000010
,  // measure 20
00000001
00001000
00000100
00000000
00010000
00001000
00100000
00000000
00110000
00000000
00000000
00000000
11000000
00000000
00000000
00000000
,  // measure 21
00010000
00000000
10000000
00000000
00100000
00000000
01000000
00001000
00000000
00010000
00001000
00100000
00000000
00000010
00000000
00000100
,  // measure 22
00000010
00010000
00001000
00000000
00100000
00010000
01000000
00000000
01100000
00000000
00000000
00000000
10010000
00000000
00000000
00000000
,  // measure 23
10000000
00000000
00010000
00000000
01000000
00000000
00001000
00010000
00000000
00000100
00001000
00000010
00000000
00000100
00000000
00000001
,  // measure 24
00001000
00000100
00000010
00000000
00000001
00001000
00000100
00000000
00001001
00000000
00000100
00000000
00001010
00000000
00000101
00000000
,  // measure 25
00010000
00001000
00010000
00001000
01000000
00000000
00100000
00000000
00000000
10000000
00100000
10000000
01000000
00000000
00100000
00000000
,  // measure 26
00010000
01000000
00100000
01000000
00010000
00000000
00100000
00001000
00000000
00001000
01000000
00000000
00020000
00000000
00000000
00000000
,  // measure 27
10030000
01000000
10000000
00100000
01000000
00000000
00010000
00100000
00000000
00100000
00001000
00010000
00002000
00000000
00000000
00000000
,  // measure 28
00013000
00000000
00000000
00000010
00000000
00000000
00001000
00000000
00000000
00000010
00000000
00000000
00000100
00000000
00000000
00000000
00000000
00000000
00000001
00000000
00000000
00001000
00000000
00000000
00000010
00000000
00000000
00000000
00000100
00000000
00000000
00000000
00000001
00000000
00000000
00000000
00001000
00000000
00000000
00000000
00000000
00000000
00000000
00000000
00000000
00000000
00000000
00000000
,  // measure 29
00000100
00001000
00000100
00001000
00000100
00010000
00000100
00010000
00001000
00100000
00001000
00100000
00010000
01000000
00010000
01000000
,  // measure 30
00100000
10000000
01000000
10000000
00100000
01000000
00010000
01000000
00100000
10000000
01000000
00100000
00010000
01000000
00100000
00000000
,  // measure 31
10000000
00010000
10000000
00100000
01000000
00001000
00100000
00010000
01000000
00001000
00010000
00000100
00001000
00000010
00000100
00000000
,  // measure 32
00000001
00000000
00000000
00000010
00000000
00000000
00000001
00000000
00000000
00001000
00000000
00000000
00000100
00000000
00000000
00010000
00000000
00000000
00001000
00000000
00000000
01000000
00000000
00000000
00100000
00000000
00000000
00000000
00100000
00000000
00000000
00000000
00100000
00000000
00000000
00000000
00100000
00000000
00000000
00000000
00000000
00000000
00000000
00000000
00000000
00000000
00000000
00000000
,  // measure 33
10000000
00000000
00010000
00000000
00100000
00000000
00001000
01000000
00000000
00001000
00010000
00000010
00000000
00000100
00000000
00000010
,  // measure 34
00001000
00000100
00010000
00000000
00000010
00000100
00000001
00000000
00000011
00000000
00000000
00000000
00001100
00000000
00000000
00000000
,  // measure 35
00000100
00000000
00010000
00000000
00001000
00000000
01000000
00100000
00000000
10000000
00010000
00100000
00000000
00001000
00000000
01000000
,  // measure 36
00010000
00100000
00001000
00000000
00010000
00000010
00001000
00000000
00001100
00000000
00000000
00000000
00000101
00000000
00000000
00000000
,  // measure 37
00001000
00000000
00000100
00000000
00000010
00000000
00000001
00000100
00000000
00000010
00010000
00001000
00000000
01000000
00000000
00010000
,  // measure 38
10000000
00010000
00100000
00000000
01000000
00100000
00010000
00000000
10010000
00000000
00000000
00000000
01100000
00000000
00000000
00000000
,  // measure 39
00010000
00000000
00100000
00000000
00001000
00000000
00010000
00000010
00000000
00001000
00000100
00000010
00000000
00000001
00000000
00001000
,  // measure 40
00000100
00000010
00000001
00000000
00001000
00000010
00010000
00000000
00011000
00000000
00000000
00000000
01001000
00000000
00000000
00000000
,  // measure 41
00100000
01000000
00100000
01000000
00000000
00010000
10000000
00000000
11000000
00000000
01010000
00000000
00000000
00000000
00000000
00000000
;
