#VERSION:0.83;
#TITLE:MY DJ;
#SUBTITLE:;
#ARTIST:ASLETICS;
#TITLETRANSLIT:;
#SUBTITLETRANSLIT:;
#ARTISTTRANSLIT:;
#GENRE:;
#ORIGIN:;
#CREDIT:;
#BANNER:MY DJ-bn.png;
#BACKGROUND:MY DJ-bg.png;
#PREVIEWVID:;
#JACKET:MY DJ-jacket.png;
#CDIMAGE:;
#DISCIMAGE:MY DJ.png;
#LYRICSPATH:;
#CDTITLE:;
#MUSIC:MY DJ.ogg;
#OFFSET:0.444444;
#SAMPLESTART:19.555555;
#SAMPLELENGTH:20.000000;
#SELECTABLE:YES;
#DISPLAYBPM:120.000000;
#BPMS:0.000=120.000;
#STOPS:;
#DELAYS:;
#WARPS:;
#TIMESIGNATURES:0.000=4=4;
#TICKCOUNTS:0.000=4;
#COMBOS:0.000=1;
#SPEEDS:0.000=1.000=0.000=0;
#SCROLLS:0.000=1.000;
#FAKES:;
#LABELS:0.000=Song Start;
#BGCHANGES:;
#KEYSOUNDS:;
#ATTACKS:
;

//---------------dance-single - ----------------
#NOTEDATA:;
#CHARTNAME:;
#STEPSTYPE:dance-single;
#DESCRIPTION:;
#CHARTSTYLE:;
#DIFFICULTY:Hard;
#METER:13;
#RADARVALUES:0.672120,0.649856,0.575036,0.078414,0.437811,360.000000,316.000000,44.000000,6.000000,0.000000,0.000000,0.000000,0.000000,0.000000,0.672120,0.649856,0.575036,0.078414,0.437811,360.000000,316.000000,44.000000,6.000000,0.000000,0.000000,0.000000,0.000000,0.000000;
#CREDIT:;
#DISPLAYBPM:120.000000;
#NOTES:
// measure 0
0000
0000
0000
0000
,  // measure 1
0000
0000
0000
0000
,  // measure 2
1001
0000
0000
0000
0101
0000
0000
0001
1000
0000
0100
0000
0010
0000
0001
0000
,  // measure 3
0100
0000
0010
0000
1000
0000
0000
0000
0001
0010
0001
0010
0001
0000
0100
0000
,  // measure 4
0010
0000
0000
0000
1010
0000
0000
1000
0100
0000
0010
0000
0001
0000
0100
0000
,  // measure 5
0010
1000
0010
1000
0010
1000
0010
1000
0010
0000
0100
0000
0001
0000
1000
0000
,  // measure 6
1100
0000
0000
0000
0011
0000
0000
0010
0001
0000
1000
0000
0010
0000
0100
0001
,  // measure 7
0100
0001
0100
0001
0100
0000
0000
0000
0101
0000
1001
0000
0110
0000
0010
0000
,  // measure 8
1000
0001
0000
0000
0010
0001
0000
0001
0100
0000
0010
0000
1000
0000
0001
0000
,  // measure 9
0011
0000
0110
0000
1100
0000
0000
0000
1000
0001
1000
0001
1000
0001
1000
0001
,  // measure 10
0010
0000
0000
0000
0001
1000
0000
1000
0010
0000
0100
0000
0001
0000
0000
0000
,  // measure 11
1000
0100
1000
0100
1000
0000
0000
0000
1010
0000
1001
0000
0011
0000
0001
0000
,  // measure 12
1000
0000
0010
0100
0010
0100
0000
0001
1000
0000
0010
0000
0100
0000
0001
0000
,  // measure 13
0011
0101
0110
0010
1010
0001
1001
1000
,  // measure 14
1100
0000
0000
0000
1000
0001
0000
0001
0100
0000
0010
0000
1000
0000
0001
0100
,  // measure 15
0001
0100
0001
0100
0001
0000
0000
0000
1001
0000
1100
0000
0101
0000
0001
0000
,  // measure 16
1000
0000
0001
0000
0100
0010
0000
0100
0010
0000
0100
0010
0000
0100
0010
0000
,  // measure 17
1010
1100
1001
0001
0011
0110
1100
0001
,  // measure 18
0101
0100
0001
0100
1000
0100
0001
0100
,  // measure 19
1000
0100
0010
0100
1000
0100
0001
0010
,  // measure 20
0100
0010
0001
0010
1000
0010
0100
0010
,  // measure 21
1000
0010
0001
0010
0100
1000
0010
0100
,  // measure 22
0010
0001
0010
1000
0010
0100
0010
0001
,  // measure 23
0010
1000
0100
0001
0100
0010
0100
0001
,  // measure 24
0100
1000
0100
0010
0100
1000
0001
0100
,  // measure 25
0220
0000
0000
0330
,  // measure 26
1001
0000
0010
0000
1000
0000
0001
0100
0001
0100
0001
0000
0010
0000
0100
0000
,  // measure 27
1000
0000
0001
0000
0100
0000
0010
1000
0010
1000
0010
0000
0100
0000
0001
0000
,  // measure 28
1000
0000
0001
0000
0010
0000
0100
0010
0100
0010
0100
0000
1000
0000
0001
0000
,  // measure 29
0100
0000
0001
0000
0010
0000
0001
0000
1000
0100
0010
0000
0011
0000
0000
0000
,  // measure 30
0001
1000
0001
1000
0001
0000
0101
0000
0010
0000
1000
0000
0001
0100
0010
0000
,  // measure 31
1000
0000
0001
0000
1001
0000
0100
0000
0010
0000
0110
0000
0100
0001
0010
0000
,  // measure 32
0001
0100
0001
0100
0001
0000
1001
0000
1000
0000
0010
0000
1000
0001
0010
0000
,  // measure 33
0100
0000
1000
0000
1010
0000
0000
0000
0010
0100
0010
0000
2000
0000
0000
0000
,  // measure 34
3010
0100
0010
0100
0010
0000
1000
0001
0000
0010
0100
0000
1000
0001
0010
0000
,  // measure 35
0001
0100
0001
0100
0001
0000
0000
0000
1000
0010
1000
0010
1000
0100
0010
0000
,  // measure 36
0001
1000
0001
1000
0001
0000
0000
0011
0000
0000
1100
0000
0000
1010
0000
0000
,  // measure 37
1001
0000
1001
0000
1001
0000
2000
0000
0000
0000
3002
0000
0000
0023
0000
0000
,  // measure 38
0000
0031
1000
0001
0000
0000
0000
0000
0000
0000
0000
0000
;

//---------------dance-single - ----------------
#NOTEDATA:;
#CHARTNAME:;
#STEPSTYPE:dance-single;
#DESCRIPTION:;
#CHARTSTYLE:;
#DIFFICULTY:Medium;
#METER:9;
#RADARVALUES:0.474218,0.499889,0.326725,0.156828,0.084948,254.000000,229.000000,25.000000,12.000000,0.000000,0.000000,0.000000,0.000000,0.000000,0.474218,0.499889,0.326725,0.156828,0.084948,254.000000,229.000000,25.000000,12.000000,0.000000,0.000000,0.000000,0.000000,0.000000;
#CREDIT:;
#DISPLAYBPM:120.000000;
#NOTES:
0000
0000
0000
0000
,
0000
0000
0000
0000
,
1001
0000
0000
0000
0101
0000
0000
0001
1000
0000
0100
0000
0000
0000
1000
0000
,
0010
0100
0001
0000
1000
0001
0010
0100
,
1000
0000
0000
0000
1100
0000
0000
0010
0100
0000
0001
0000
0000
0000
1000
0000
,
0010
1000
0100
0000
0010
0001
1000
0001
,
0100
0000
0000
0000
0110
0000
0000
0010
1000
0000
0001
0000
0000
0000
0010
0000
,
0100
1000
0001
0000
0101
0101
0101
0000
,
0010
0000
0000
0000
1001
0000
0000
1000
0100
0000
0010
0000
0000
0000
0000
0000
,
0011
0000
0011
0000
0011
0000
0000
0000
1000
0001
1000
0001
1000
0000
0010
0000
,
0100
0000
0000
0000
1010
0000
0000
1000
0001
0000
0010
0000
0100
0000
0000
0000
,
1000
0100
0010
0000
1100
1100
1100
0000
,
0001
0000
0000
0000
0011
0000
0000
0001
0100
0000
0010
0000
1000
0000
0000
0000
,
1001
1001
1001
0000
0010
0100
0001
1000
,
0100
0000
0000
0000
0110
0000
0000
0001
1000
0000
0010
0000
0100
0000
0000
0000
,
0001
0010
1000
0000
0110
0110
0110
0000
,
0001
0000
2000
0000
0000
3020
0000
0000
0230
0000
0000
0302
0000
0000
1003
0000
,
0000
0000
0010
0100
0010
0000
0000
0000
2000
0000
0000
3002
0000
0000
0103
0000
,
0001
0010
0001
0000
1000
0010
1000
0000
,
0001
0100
0001
0000
1000
0100
1000
0000
,
0010
0100
0010
0000
0100
0010
0100
0000
,
0001
1000
0001
0000
1000
0001
1000
0000
,
0001
0010
0100
0000
1000
0010
0100
0000
,
0001
1000
0010
0000
1000
0001
0100
0000
,
0001
0100
0010
0000
1000
0001
0100
0000
,
0220
0000
0000
0330
,
0001
1000
0010
1000
0100
0010
0001
0000
,
0100
0001
0010
0100
0010
0001
1000
0000
,
0001
1000
0010
0100
0001
1000
0100
0000
,
1000
0001
0100
0000
0001
0010
0200
0000
,
1300
0010
1000
0001
0010
0100
1000
0001
,
0010
0001
0100
0000
0001
1000
0020
0000
,
0130
1000
0010
0100
0001
0010
0100
1000
,
0010
1000
0200
0000
0001
0001
1300
0000
,
0001
1000
0010
0100
0001
0010
1000
0000
,
0001
1000
0010
1000
0100
0010
0001
0000
,
1000
0010
0100
0001
0010
0100
1000
0001
,
0100
0100
0200
0000
1000
1000
0301
0000
,
0000
0100
1001
0000
0000
0000
0000
0000
;

//---------------dance-single - ----------------
#NOTEDATA:;
#CHARTNAME:;
#STEPSTYPE:dance-single;
#DESCRIPTION:;
#CHARTSTYLE:;
#DIFFICULTY:Easy;
#METER:8;
#RADARVALUES:0.356597,0.374917,0.130690,0.013069,0.006534,191.000000,181.000000,10.000000,1.000000,0.000000,0.000000,0.000000,0.000000,0.000000,0.356597,0.374917,0.130690,0.013069,0.006534,191.000000,181.000000,10.000000,1.000000,0.000000,0.000000,0.000000,0.000000,0.000000;
#CREDIT:;
#DISPLAYBPM:120.000000;
#NOTES:
0000
0000
0000
0000
,
0000
0000
0000
0000
,
0010
0000
1001
0000
0001
1000
0100
0000
,
0010
0001
0100
1000
,
0001
0000
0110
0000
0100
0010
1000
0000
,
0100
1000
0010
0001
,
0100
0000
0101
0000
0010
1000
0001
0000
,
0010
0000
0100
0000
1000
0001
1000
0000
,
0001
0000
1100
0000
0100
1000
0010
0000
,
1000
1000
1000
0000
0001
0100
0001
0100
,
0010
0000
1001
0000
1000
0001
0100
0000
,
0010
1000
0010
0000
0100
0100
0100
0000
,
0001
0000
0011
0000
0010
0100
1000
0000
,
0001
0001
0001
0000
0100
0010
0000
0100
,
0010
0000
1010
0000
1000
0100
0001
0000
,
0010
0000
0100
0000
0010
0010
0010
0000
,
0001
0000
0110
0000
1000
0100
0010
0000
,
0001
0100
0001
0000
1000
1000
1000
0000
,
0001
0010
1000
0010
,
0001
0100
1000
0100
,
0010
0100
1000
0100
,
0010
0001
0100
0001
,
1000
0001
0010
0100
,
1000
0010
0100
0001
,
1000
0100
0010
0001
,
0100
0100
0100
0100
,
0001
0000
0010
0000
0001
1000
0100
0000
,
1000
0000
0010
0000
0100
0001
1000
0000
,
0100
0000
0010
0000
0001
1000
0010
0000
,
0100
0010
1000
0000
0100
0010
0001
0000
,
1000
0001
0100
0000
0010
0000
0100
0000
,
0001
0010
0001
0000
1000
0100
0010
0000
,
0001
0000
1000
0000
0100
1000
0010
0000
,
0100
0000
0010
0000
1000
0100
0001
0000
,
1000
0100
0010
0000
0100
0010
0001
0000
,
0100
0001
1000
0000
0010
1000
0100
0000
,
1000
1010
0001
0011
,
0100
0000
0010
0000
2000
0000
0001
0000
0000
0000
0001
0000
0000
3001
0000
0000
,
0000
0100
0010
0000
0000
0000
0000
0000
;

//---------------dance-single - ----------------
#NOTEDATA:;
#CHARTNAME:;
#STEPSTYPE:dance-single;
#DESCRIPTION:;
#CHARTSTYLE:;
#DIFFICULTY:Beginner;
#METER:4;
#RADARVALUES:0.175498,0.174961,0.026138,0.000000,0.000000,94.000000,92.000000,2.000000,0.000000,0.000000,0.000000,0.000000,0.000000,0.000000,0.175498,0.174961,0.026138,0.000000,0.000000,94.000000,92.000000,2.000000,0.000000,0.000000,0.000000,0.000000,0.000000,0.000000;
#CREDIT:;
#DISPLAYBPM:120.000000;
#NOTES:
0000
0000
0000
0000
,
0000
0000
0000
0000
,
1000
1000
1000
0000
,
0001
0000
0100
0000
,
0010
0010
0010
0000
,
1000
0000
0001
0000
,
0100
0100
0100
0000
,
0010
0000
1000
0000
,
0001
0001
0001
0000
,
0010
0000
0100
0000
,
1000
1000
1000
0000
,
0001
0001
0001
0000
,
0100
0100
0100
0000
,
0010
0010
0010
0000
,
1000
1000
1000
0000
,
0100
0100
0100
0000
,
0010
0010
0010
0000
,
0001
0001
0001
0000
,
0100
0000
0100
0000
,
0010
0000
0010
0000
,
1000
0000
1000
0000
,
0001
0000
0001
0000
,
0010
0000
0001
0000
,
1000
0000
0010
0000
,
0100
0000
0010
0000
,
1001
0000
0000
0000
,
0001
0001
0001
0000
,
1000
1000
1000
0000
,
0100
0100
0100
0000
,
0010
0010
0010
0000
,
0001
0000
1000
0000
,
0001
0001
0001
0000
,
0100
0000
0010
0000
,
1000
1000
1000
0000
,
0010
0000
0010
0000
,
0100
0000
0100
0000
,
0001
0001
0001
0000
,
0010
0010
0010
0000
,
0000
1001
0000
0000
;

//---------------dance-single - ----------------
#NOTEDATA:;
#CHARTNAME:;
#STEPSTYPE:dance-single;
#DESCRIPTION:;
#CHARTSTYLE:;
#DIFFICULTY:Challenge;
#METER:15;
#RADARVALUES:0.787873,0.774828,0.431277,0.013069,0.888691,422.000000,389.000000,33.000000,1.000000,0.000000,0.000000,0.000000,0.000000,0.000000,0.787873,0.774828,0.431277,0.013069,0.888691,422.000000,389.000000,33.000000,1.000000,0.000000,0.000000,0.000000,0.000000,0.000000;
#CREDIT:;
#DISPLAYBPM:120.000000;
#NOTES:
0000
0000
0000
0000
,
0000
0000
0000
0000
,
0010
0000
0010
0000
0010
0000
1000
0001
1000
0100
0010
0001
0000
0000
0100
0000
,
0001
0000
0101
0000
0101
0000
0000
0000
1000
0010
1000
0010
0100
0000
0001
0000
,
0010
0000
0000
0000
0001
0000
1000
0100
0010
0100
1000
0010
0000
0100
0001
0000
,
0010
0001
0010
0001
1000
0010
1000
0010
1000
0100
0010
0000
0001
0000
0001
0000
,
0001
1000
0010
1000
0001
0100
0000
0010
1000
0000
1001
0000
0000
0000
0100
0010
,
0001
0100
0010
1000
0010
0000
0000
0000
1010
0000
0011
0000
1100
0000
0001
0000
,
1000
0010
0000
0000
1000
0010
0000
0100
0001
0000
0010
0100
0010
0001
0100
0010
,
1000
0000
1000
0000
2000
0000
0000
0000
3010
1000
0010
0100
0001
0010
0100
1000
,
0010
0000
0100
0001
0100
0001
0000
0010
0100
0000
1000
0001
0010
0000
0000
0000
,
0001
1000
0010
1000
0100
0000
0000
0000
1100
0000
0011
0000
0101
0000
0010
0000
,
1000
0000
0010
0100
0010
1000
0000
0001
1000
0000
0010
0000
0100
0000
0000
0000
,
0101
0011
0110
0100
1100
1010
0001
1100
,
1001
0000
0110
0000
1000
0010
1000
0100
0010
0001
0100
0000
0000
0000
0001
1000
,
0010
0100
0001
0010
0100
1000
0000
0001
0100
0000
0100
0000
0100
0000
0110
0000
,
0010
0000
1000
0000
0001
0100
0000
0010
1000
0000
0100
0010
0000
0001
1000
0000
,
0001
0000
0010
0100
0010
0001
0100
0010
1000
0000
0100
1000
0000
1000
0001
0000
,
0010
0000
0001
0100
1000
0000
1000
0000
0010
0100
0001
0000
0011
0000
0000
0000
,
1000
0010
0000
0100
0010
0000
1000
0001
0010
0100
1000
0000
1010
0000
0000
0000
,
0001
0000
0010
0100
1000
0000
1000
0000
0010
1000
0100
0000
0110
0000
0000
0000
,
0010
0100
1000
0010
0100
0000
0000
0000
0101
0000
1010
0000
0011
0000
0000
0000
,
0001
0000
1000
0010
0100
0000
0100
0000
0010
1000
0100
0000
0010
0000
0001
0000
,
0100
0000
0010
1000
0001
0000
0010
0000
0100
1000
0001
0000
1001
0000
0000
0000
,
0010
0000
0100
0000
1000
0000
0010
0000
1000
0001
0100
0000
0001
0000
0000
0000
,
0010
0001
0000
0001
0100
0000
0010
0000
1010
0000
1001
0000
0101
0000
0000
0000
,
0010
0000
1000
0000
0100
0000
0010
0100
1000
0001
1000
0000
0001
0010
0100
0000
,
1000
0000
0010
0100
0001
0010
0100
1000
0010
1000
0001
0000
0010
0100
1000
0000
,
0010
0000
1000
0000
0001
0010
0001
0100
0001
1000
0010
0000
1000
0001
0100
0010
,
1000
0100
0010
0001
1000
0000
0000
0000
0100
0001
0010
0000
0011
0000
0000
0000
,
1000
0001
1000
0001
0010
0100
0010
0100
0010
0001
0100
0000
0010
1000
0100
0000
,
1000
0010
1000
0010
0100
0001
0100
0001
0010
0100
1000
0000
0001
1000
0010
0000
,
0100
0001
0010
0001
1000
0010
1000
0100
1000
0001
0100
0000
0010
1000
0100
0000
,
0010
0001
0100
0001
1000
0000
0010
0000
0100
0001
1000
0000
1100
0000
0000
0000
,
0010
0001
0100
0001
0010
0100
1000
0010
1000
0100
1000
0000
0001
0010
0100
0000
,
0010
0001
1000
0001
1000
0010
0100
0001
1000
0100
1000
0000
0010
0100
0001
0000
,
0010
0001
0010
0001
1000
0010
1000
0010
0100
0001
0100
0001
1000
0100
1000
0100
,
1000
0010
0100
0001
1000
0000
1010
0000
0000
0000
1001
0000
0000
0011
0000
0000
,
0000
0001
0001
0001
0000
0000
0000
0000
0000
0000
0000
0000
;
