#TITLE:MR.C.C.;
#SUBTITLE:;
#ARTIST:N.R.B.;
#TITLETRANSLIT:;
#SUBTITLETRANSLIT:;
#ARTISTTRANSLIT:;
#GENRE:;
#CREDIT:;
#BANNER:MR.C.C.-bn.png;
#BACKGROUND:MR.C.C.-bg.png;
#LYRICSPATH:;
#CDTITLE:;
#MUSIC:MR.C.C..ogg;
#OFFSET:0.000000;
#SAMPLESTART:55.200001;
#SAMPLELENGTH:20.000000;
#SELECTABLE:YES;
#DISPLAYBPM:200.000000;
#BPMS:0.000000=200.000000
;
#STOPS:
;
#BGCHANGES:;
#KEYSOUNDS:;
#ATTACKS:;

//---------------dance-single - ----------------
#NOTES:
     dance-single:
     :
     Hard:
     13:
     0.761638,0.701121,0.524407,0.327754,0.027313,488.000000,440.000000,48.000000,30.000000,0.000000,0.000000,0.761638,0.701121,0.524407,0.327754,0.027313,488.000000,440.000000,48.000000,30.000000,0.000000,0.000000:
0000
0000
0000
0000
,
0000
0000
0000
0000
,
0000
0000
0000
0000
,
0000
0000
0000
0000
,
0000
0010
1000
0100
0001
0100
1000
0010
,
0000
1000
0100
0001
0100
0010
0001
1000
,
0000
0010
0001
0010
1000
0001
1000
0100
,
0000
1000
0100
0010
0001
0100
0010
1000
,
0001
0010
0100
0010
1000
0010
0100
0010
,
0001
0100
0010
0100
1000
0100
0010
0100
,
0000
0001
1000
0100
0001
0100
1000
0010
,
0000
0010
1000
0001
0010
0100
1000
0001
,
0000
0100
0010
1000
0100
0001
0100
0010
,
0000
0001
1000
0001
0100
1000
0100
0010
,
0001
0010
0100
0010
1000
0010
0100
0010
,
0001
0100
0010
0100
1000
0100
0010
0100
,
1000
0100
0010
0100
0001
0100
0010
1000
,
0100
0001
0100
0010
0100
1000
0010
0100
,
0000
0001
0010
0100
0010
1000
0010
0001
,
0100
0010
0100
0001
0000
1000
0100
0001
,
0000
0010
1000
0010
0001
0100
0010
1000
,
0100
0001
0100
1000
0000
0010
1000
0001
,
0000
0010
0001
1000
0200
0000
0310
0002
,
0000
2003
0000
3020
0000
1030
0100
0001
,
0000
0010
0100
1000
0002
0000
1003
0020
,
0000
2030
0000
3200
0000
1300
0001
0100
,
0000
0001
0010
1000
0010
0001
0100
0010
,
0000
0100
0010
0001
0010
1000
0001
0100
,
0000
0001
1000
0001
0010
1000
0010
0100
,
0000
1000
0010
0100
1000
0100
0001
0010
,
0000
0010
0001
1000
0001
0100
0010
1000
,
0100
0010
0001
0101
0000
1100
0000
1000
,
0020
0000
0130
0000
1001
0002
1000
0000
,
0013
0000
0001
0011
0000
1010
0000
0000
,
0001
0000
0010
0000
1000
0000
0001
0000
0100
0000
1000
0000
0000
0000
0000
0010
,
1000
0000
0100
0000
0000
0000
0010
0000
0000
0000
0110
0000
0000
0000
0000
0001
,
1000
0001
0000
0011
0000
1100
0000
0001
,
1000
0000
0010
0000
0100
0000
0001
0000
0000
0000
1010
0000
0000
0000
0000
0010
,
1000
0000
0100
0000
0001
0000
1000
0000
0010
0000
0001
0000
0000
0000
0000
0100
,
0010
0000
1000
0000
0000
0000
0001
0000
0000
0000
0101
0000
0000
0000
0000
0100
,
0001
0010
0000
0110
0000
0001
1000
0100
,
0010
0000
0100
0000
1001
0000
0000
0001
,
1001
0000
1000
0020
0000
0230
0000
0301
,
0011
0000
0001
1000
0000
1100
0000
0010
,
0110
0000
0100
0002
0000
2003
0000
3010
,
1010
0000
0001
0101
0000
1000
0010
0100
,
0001
0010
1000
0010
0001
1000
0100
0000
,
1100
0000
0110
0000
0011
0001
0000
1000
,
0001
0100
1000
0100
0001
1000
0010
0000
,
1010
0000
1001
0000
0202
0000
0303
0010
,
1000
0100
0001
0100
1000
0001
0100
0000
,
0101
1100
2020
3030
,
0000
0001
0010
0100
2000
0000
3010
0100
,
0000
0110
0000
0000
1001
0000
0001
0011
,
0000
1000
0100
0010
0001
0100
0010
2000
,
0000
3001
0000
0000
0011
0000
0001
0101
,
0000
1000
0100
0001
0000
0010
0100
1000
,
0000
0001
1000
1001
0000
1010
0000
0000
,
0010
1000
0001
0100
0000
0001
0010
1000
,
0000
0001
0010
1100
0000
0110
0000
0000
,
0000
0001
0100
1000
0100
0001
0010
0100
,
0000
1000
0100
0010
1000
0010
0001
0100
,
0000
0001
1000
0100
0001
0100
0010
0001
,
0000
0001
1000
0100
1000
0010
0100
0001
,
1000
0010
0100
0010
0001
0010
0100
0010
,
1000
0100
0010
0100
0001
0100
0010
0100
,
1000
0001
0100
0000
0110
0000
0110
0000
,
0002
0000
0013
0100
0000
2200
3300
0000
,
0010
1000
0001
0000
0101
0000
0101
0000
,
0020
0000
1030
0100
0000
0022
0033
0000
,
0001
0100
1000
0000
1100
0000
1100
0000
,
0002
0000
0013
0100
0000
0110
0000
0000
,
0010
1000
0100
0001
0100
0010
1000
0010
,
0001
0100
1000
0100
0001
0010
0100
1000
,
0002
0000
0103
0000
0110
2000
3010
0000
,
0102
1003
1001
0000
;

//---------------dance-single - ----------------
#NOTES:
     dance-single:
     :
     Medium:
     10:
     0.575911,0.618636,0.480706,0.316829,0.000000,369.000000,325.000000,44.000000,29.000000,0.000000,0.000000,0.575911,0.618636,0.480706,0.316829,0.000000,369.000000,325.000000,44.000000,29.000000,0.000000,0.000000:
0000
0000
0000
0000
,
0000
0000
0000
0000
,
0000
0000
0000
0000
,
0000
0000
0000
0000
,
0000
0010
0100
0000
0001
1000
0000
0010
,
0000
1000
0001
0000
0010
0100
1000
0000
,
0000
0001
0010
0000
0001
1000
0000
0100
,
0000
1000
0001
0000
0100
0010
0100
0000
,
0001
0000
0010
0000
1000
0100
0001
0000
,
1000
0000
0010
0000
0001
0100
1000
0000
,
0000
0001
1000
0000
0001
0010
0000
0100
,
0000
0100
0010
0000
0001
1000
0001
0000
,
0000
0001
1000
0000
0100
0010
0000
0010
,
0000
0010
0001
0000
1000
0100
1000
0000
,
0010
0000
1000
0000
0100
0010
0001
0000
,
0100
0000
0010
0000
1000
0001
0010
0000
,
0100
0000
1000
0000
0010
0001
1000
0000
,
0001
0000
1000
0000
0001
0010
0100
1000
,
0000
0001
0010
0100
1000
0000
0001
0000
,
1000
0010
0100
0002
0000
0023
0000
0230
,
0000
1300
0001
0000
0010
0001
1000
0000
,
0100
0010
0100
0010
0000
0001
1000
0000
,
1001
0000
0010
0000
0100
0000
1000
0002
,
0000
2003
0000
3002
0000
0013
0100
0000
,
0110
0000
0001
0000
1000
0000
0010
0200
,
0000
0302
0000
2003
0000
3001
0010
0100
,
0000
1000
0001
0000
1000
0010
0000
0100
,
0000
0100
0001
0000
0010
0100
1000
0000
,
0000
0001
0010
0000
0010
0100
0000
1000
,
0000
0010
1000
0000
0100
1000
0001
0000
,
0000
0001
1000
0000
0010
0100
0001
0000
,
1000
0100
0010
0002
0000
1003
0000
0000
,
1100
0000
0011
0000
2000
0020
3000
0000
,
0130
0000
0000
0101
0000
1010
0000
0000
,
0001
0010
0001
0000
1000
0010
0000
0000
,
1000
0100
0000
0011
0000
0000
0000
0000
,
0001
1000
0000
1001
0000
1100
0000
0000
,
0010
0100
0001
1000
0000
0000
0000
0000
,
0010
1000
0010
0000
0100
0001
0000
0000
,
0010
0001
0000
0101
0000
0000
0000
0000
,
1000
0001
0000
0110
0000
0001
1000
0010
,
0100
0000
1010
0000
,
0001
0000
1000
0020
0000
0130
0000
0000
,
0001
0000
0010
0100
0000
1000
0000
0000
,
0010
0000
1000
0002
0000
0103
0000
0000
,
0010
0000
0100
0001
0000
1000
0100
0000
,
0001
0010
1000
0000
1100
0000
1100
0000
,
0011
0110
2200
3300
,
0010
1000
0100
0000
0011
0000
0011
0000
,
1100
0110
0022
0033
,
0001
0100
0010
0000
1001
0000
1001
0000
,
0011
0101
2002
3003
,
0000
1000
0100
0010
0001
0000
0000
0002
,
0000
0200
0000
0000
0000
0000
0303
0000
,
0000
0001
1000
0010
0100
0000
0001
2000
,
0000
0200
0000
0000
0000
3300
0000
1100
,
0000
0001
0000
0101
0000
0010
0000
1010
,
0000
1000
0000
1100
0000
0101
0000
0000
,
1000
0001
0010
0100
0000
1000
0000
0010
,
0000
0100
0000
0110
0000
1001
0000
0000
,
0000
0001
1000
0000
0010
1000
0000
0100
,
0000
1000
0001
0000
0010
0001
0100
0000
,
0000
0001
0010
0000
0001
1000
0000
0100
,
0000
1000
0010
0000
0001
1000
0100
0000
,
0010
0000
0100
0000
0001
0010
0100
1000
,
0001
0000
1000
0000
0001
0100
0010
1000
,
0100
0010
0001
0000
0101
0000
0101
0000
,
2000
0000
3001
1000
0000
0000
0000
0000
,
0001
0010
1000
0000
1010
0000
1010
0000
,
0200
0000
0301
0100
0000
0000
0000
0000
,
0010
1000
0100
0000
0110
0000
0110
0000
,
0002
0000
0013
0001
0000
0000
0000
0000
,
0000
0100
0010
0000
1000
0100
0001
0000
,
0010
0100
1000
0000
0010
0100
0001
0000
,
1010
0000
0101
0000
0002
0020
0033
0000
,
0110
0000
1001
0000
;

//---------------dance-single - ----------------
#NOTES:
     dance-single:
     :
     Easy:
     6:
     0.368333,0.412424,0.098326,0.240353,0.000000,236.000000,227.000000,9.000000,22.000000,0.000000,0.000000,0.368333,0.412424,0.098326,0.240353,0.000000,236.000000,227.000000,9.000000,22.000000,0.000000,0.000000:
0000
0000
0000
0000
,
0000
0000
0000
0000
,
0000
0000
0000
0000
,
0000
0000
0000
0000
,
0000
0010
1000
0001
,
0000
0010
0100
1000
,
0000
0001
0100
1000
,
0000
0001
0100
0010
,
1000
1000
1000
1000
,
0001
0001
0001
0001
,
0000
0010
0001
0100
,
0000
1000
0010
0001
,
0000
1000
0100
0010
,
0000
0001
1000
0100
,
1000
1000
1000
1000
,
0001
0001
0001
0001
,
0100
0100
0100
0100
,
0010
0010
0010
0010
,
0000
1000
0100
0010
,
0001
0100
0010
1000
,
0000
0001
0010
0001
,
0100
0010
1000
0100
,
0000
1001
0010
0100
,
1000
0010
0100
0001
,
0000
0110
0001
1000
,
0010
1000
0001
0100
,
0000
0001
0010
0100
,
0000
0010
0001
1000
,
0000
0100
1000
0001
,
0000
0010
1000
0100
,
0000
0001
1000
0001
,
0010
0100
2000
3000
,
0010
0100
0002
0003
,
0200
0300
0020
0030
,
1000
0001
1000
0000
,
0010
0100
0010
0000
,
0010
1000
0010
0100
,
0001
1000
0001
0000
,
0100
0010
0100
0000
,
1000
0001
1000
0000
,
0001
0010
0100
1000
,
1001
0000
0110
0000
,
0001
0000
0001
0000
,
1000
0000
1000
0000
,
0010
0000
0010
0000
,
0100
0000
0100
0000
,
0001
0001
1000
1000
,
0010
0100
0200
0300
,
0001
0001
0010
0010
,
0100
1000
2000
3000
,
0001
0001
0100
0100
,
1000
0010
0020
0030
,
1001
1000
0100
0010
,
0002
0003
2000
3000
,
0110
0001
1000
0010
,
0200
0300
0020
0030
,
2000
3000
0002
0003
,
0200
0300
1001
0000
,
0020
0030
2000
3000
,
0200
0300
0110
0000
,
0000
0001
0010
0100
,
0000
1000
0001
0100
,
0000
0010
1000
0100
,
0000
0010
0001
1000
,
0010
0010
0010
0010
,
0100
0100
0100
0100
,
1000
1000
0001
0001
,
0010
0001
0200
0300
,
1000
1000
0100
0100
,
0001
0100
0020
0030
,
1000
1000
0010
0010
,
1000
0100
0002
0003
,
0010
0001
1000
0100
,
1000
0010
0100
0001
,
0010
0100
2000
3000
,
0002
0003
1001
0000
;

//---------------dance-single - ----------------
#NOTES:
     dance-single:
     :
     Beginner:
     3:
     0.177924,0.247454,0.032775,0.262203,0.000000,114.000000,111.000000,3.000000,24.000000,0.000000,0.000000,0.177924,0.247454,0.032775,0.262203,0.000000,114.000000,111.000000,3.000000,24.000000,0.000000,0.000000:
0000
0000
0000
0000
,
0000
0000
0000
0000
,
0000
0000
0000
0000
,
0000
0000
0000
0000
,
0000
0000
0010
0000
,
1000
0000
0100
0000
,
0000
0000
0010
0000
,
0001
0000
0100
0000
,
2000
0000
3000
0000
,
0002
0000
0003
0000
,
0000
0000
0010
0000
,
0001
0000
0100
0000
,
0000
0000
0010
0000
,
1000
0000
0100
0000
,
2000
0000
3000
0000
,
0002
0000
0003
0000
,
0200
0000
0300
0000
,
0020
0000
0030
0000
,
0000
0000
1000
0000
,
0010
0000
0100
0000
,
0001
0000
1000
0000
,
0001
0000
0010
0000
,
0002
0000
0003
0000
,
0200
0000
0300
0000
,
0020
0000
0030
0000
,
2000
0000
3000
0000
,
0000
0000
0010
0000
,
1000
0000
0100
0000
,
0000
0000
0010
0000
,
0001
0000
0100
0000
,
0000
0000
0001
0000
,
0010
0000
0001
0000
,
0100
0000
0010
0000
,
1000
0000
1001
0000
,
0001
0000
0001
0000
,
0010
0000
0000
0000
,
0001
0000
1000
0000
,
0010
0000
0000
0000
,
1000
0000
1000
0000
,
0100
0000
0000
0000
,
1000
0000
0010
0000
,
0100
0000
0110
0000
,
0002
0000
0003
0000
,
0020
0000
0030
0000
,
0200
0000
0300
0000
,
2000
0000
3000
0000
,
0001
0000
1000
0000
,
0010
0010
0010
0000
,
1000
0000
0001
0000
,
0100
0100
0100
0000
,
0001
0000
1000
0000
,
0100
0100
0100
0000
,
0020
0000
0000
0000
,
0030
0000
0001
0000
,
0200
0000
0000
0000
,
0300
0000
0010
0000
,
2000
0000
3000
0000
,
0200
0000
0300
0000
,
0020
0000
0030
0000
,
0002
0000
0003
0000
,
0000
0000
1000
0000
,
0100
0000
0001
0000
,
0000
0000
1000
0000
,
0010
0000
0001
0000
,
0200
0000
0300
0000
,
0020
0000
0030
0000
,
0100
0000
0010
0000
,
1000
1000
1000
0000
,
0010
0000
0100
0000
,
0001
0001
0001
0000
,
0010
0000
0100
0000
,
1000
1000
1000
0000
,
0002
0000
0003
0000
,
2000
0000
3000
0000
,
0010
0000
0010
0000
,
0100
0000
1001
0000
;

//---------------dance-single - ----------------
#NOTES:
     dance-single:
     :
     Challenge:
     14:
     0.928637,0.866091,0.830311,0.589958,0.169340,595.000000,519.000000,76.000000,54.000000,0.000000,0.000000,0.928637,0.866091,0.830311,0.589958,0.169340,595.000000,519.000000,76.000000,54.000000,0.000000,0.000000:
// measure 0
0000
0000
0000
0000
,  // measure 1
0000
0000
0000
0000
,  // measure 2
0000
0000
0000
0000
,  // measure 3
0000
0000
0000
0000
,  // measure 4
0010
1000
0100
0010
1000
0010
0001
0100
,  // measure 5
0010
0000
0100
0000
1000
0000
0100
0000
0001
0010
0001
0010
0001
0000
1000
0000
,  // measure 6
0100
0010
0001
0100
1000
0100
0010
1000
,  // measure 7
0100
0000
0010
0000
1000
0000
0010
0000
0001
0100
0001
0100
0001
0000
1000
0000
,  // measure 8
0100
0010
1000
0010
0001
0100
1000
0100
,  // measure 9
0010
0001
0010
0100
1000
0100
0001
0010
,  // measure 10
0100
0010
0001
0100
1000
0100
0001
0010
,  // measure 11
0100
0000
0001
0000
0100
0000
0010
0000
0001
1000
0001
1000
0001
0000
0100
0000
,  // measure 12
1000
0100
0001
0010
0100
0001
0100
1000
,  // measure 13
0010
0000
0100
0000
1000
0000
0100
0000
0001
0010
0001
0010
0001
0000
1000
0000
,  // measure 14
0100
0001
0100
0010
1000
0010
0001
0100
,  // measure 15
0010
0001
0010
1000
0100
0001
0100
0010
,  // measure 16
1000
0010
0001
0010
1000
0010
0100
0001
,  // measure 17
0100
1000
0010
0100
1000
0100
0001
1000
,  // measure 18
0010
1000
0100
0010
1000
0010
0001
0100
,  // measure 19
1000
0100
0001
1000
0100
0010
0001
0010
,  // measure 20
1000
0010
0100
0010
0001
1000
0010
0100
,  // measure 21
1000
0100
0010
1000
0100
0001
0100
0010
,  // measure 22
0011
0001
1000
0010
0100
0000
1010
0001
,  // measure 23
0000
1100
0000
0101
0000
1000
0010
0001
,  // measure 24
1001
0010
1000
0001
0100
0000
0110
0002
,  // measure 25
0000
2003
0000
3001
0100
1000
0100
0001
,  // measure 26
0010
1000
0010
0001
0100
0010
0001
0010
,  // measure 27
1000
0000
0100
0000
0010
0000
1000
0000
0010
0001
0010
0001
0010
0000
0100
0000
,  // measure 28
0001
0100
0010
1000
0010
0001
0100
1000
,  // measure 29
0100
0000
0010
0000
1000
0000
0001
0000
0100
0010
0100
0010
0100
0000
1000
0000
,  // measure 30
0100
0001
0010
0100
0010
1000
0010
0100
,  // measure 31
1000
0001
0100
0202
0303
2200
3300
0010
,  // measure 32
0110
0100
0001
0000
0011
2000
3010
0000
,  // measure 33
1100
0000
0001
0000
0100
0000
0220
0000
0330
0000
2002
0000
3003
0000
1000
0010
,  // measure 34
0100
0000
1000
0000
0100
0000
0010
0000
0100
0000
0001
0000
1000
0000
0001
0010
,  // measure 35
0100
0000
0001
0000
0100
0000
1000
0000
0000
0000
2020
0000
3030
0000
0001
1000
,  // measure 36
0100
0010
0001
0022
0033
2200
3300
0001
,  // measure 37
0010
0000
1000
0000
0010
0000
0001
0000
0000
0000
0220
0000
0330
0000
0010
0001
,  // measure 38
1000
0000
0010
0000
0001
0000
1000
0000
0100
0000
0001
0000
0010
0000
0100
1000
,  // measure 39
0001
0000
0100
0000
0010
0000
1000
0000
0000
0000
2002
0000
3003
0000
0010
1000
,  // measure 40
0001
0010
0100
2000
0000
0001
3001
0100
,  // measure 41
0110
0000
0010
0000
0202
0000
0303
1000
,  // measure 42
1001
0000
0100
0110
0000
0011
0000
0010
,  // measure 43
1100
0000
0001
0101
0000
0110
0000
0001
,  // measure 44
1010
0000
1000
1100
0000
0011
0000
0100
,  // measure 45
1001
0000
0010
0110
0000
1000
0011
0100
,  // measure 46
0001
0010
1000
0010
0100
1000
0001
0000
,  // measure 47
0010
0001
0000
0000
1000
0100
0000
0000
0001
1000
0000
0000
0010
0000
0100
0000
,  // measure 48
1000
0100
0001
0100
0010
1000
0001
0000
,  // measure 49
0010
0100
0000
0000
1000
0001
0000
0000
0100
0001
0000
0000
1000
0000
0010
0000
,  // measure 50
0100
1000
0100
0010
0100
0001
0100
0000
,  // measure 51
0001
0100
0000
0000
1000
0010
0000
0000
0100
0010
0000
0000
1000
0000
0000
0000
,  // measure 52
1100
0001
0001
0010
0200
1300
0010
1010
,  // measure 53
0000
2200
3300
0000
1001
0100
0010
0202
,  // measure 54
0303
0110
0001
0100
0010
1000
0100
1010
,  // measure 55
0000
2002
3003
0000
0011
1000
0100
2020
,  // measure 56
3030
1100
0100
0220
0330
0011
0001
0202
,  // measure 57
0303
1010
0100
2002
3003
2200
3300
0000
,  // measure 58
0011
0100
0010
0202
0303
1001
0010
2200
,  // measure 59
3300
1010
0001
0220
0330
2002
3003
0000
,  // measure 60
0010
0001
0010
1000
0100
0001
0100
0010
,  // measure 61
1000
0000
0010
0000
0100
0000
0001
0000
0100
1000
0100
1000
0100
0000
0010
0000
,  // measure 62
0001
0100
0010
0001
0010
1000
0100
0001
,  // measure 63
0100
0000
0010
0000
1000
0000
0010
0000
0001
1000
0001
1000
0001
0000
0100
0000
,  // measure 64
0110
0001
0010
1000
0010
0100
0010
0001
,  // measure 65
1001
0100
1000
0100
0010
0100
0001
0100
,  // measure 66
0101
1000
0001
0000
0011
0100
0010
0000
,  // measure 67
1001
0010
1000
0100
0000
0021
0000
0031
,  // measure 68
1100
0001
0100
0000
0110
1000
0010
0000
,  // measure 69
1100
0001
0010
0100
0000
2001
0000
3010
,  // measure 70
0101
0001
0010
0000
1100
1000
0100
0000
,  // measure 71
0110
0001
1000
0010
0000
0201
0000
0310
,  // measure 72
1010
1000
0100
0001
0100
0010
1000
0010
,  // measure 73
0100
0001
0100
1000
0010
0001
0010
1000
,  // measure 74
1100
0000
0011
0000
0101
2000
3100
0000
,  // measure 75
1020
0130
1001
0000
;
