#TITLE:MOBO★MOGA;
#SUBTITLE:;
#ARTIST:Orange Lounge;
#TITLETRANSLIT:MOBO MOGA;
#SUBTITLETRANSLIT:;
#ARTISTTRANSLIT:;
#GENRE:;
#CREDIT:;
#BANNER:MOBO MOGA-bn.png;
#BACKGROUND:MOBO MOGA-bg.png;
#LYRICSPATH:;
#CDTITLE:;
#MUSIC:MOBO MOGA.ogg;
#OFFSET:0.000000;
#SAMPLESTART:28.964001;
#SAMPLELENGTH:20.000000;
#SELECTABLE:YES;
#BPMS:0.000000=172.000000
;
#STOPS:
;
#BGCHANGES:;
#KEYSOUNDS:;
#ATTACKS:;

//---------------dance-single - ----------------
#NOTES:
     dance-single:
     :
     Beginner:
     2:
     0.152828,0.410872,0.188096,0.000000,0.000000,91.000000,75.000000,16.000000,0.000000,0.000000,0.000000,0.152828,0.410872,0.188096,0.000000,0.000000,91.000000,75.000000,16.000000,0.000000,0.000000,0.000000:
0000
0000
0000
0000
,
0000
0000
0000
0000
,
0000
0000
0000
0000
,
0000
0000
0000
0000
,
0000
0000
0000
0000
,
0100
0100
0000
0000
,
0000
0000
0000
0000
,
1000
1000
0000
0000
,
0000
0000
0000
0000
,
0010
0010
0000
0000
,
0000
0000
0000
0000
,
1001
0000
0000
0000
,
0000
0000
0000
0000
,
0010
0010
0000
0000
,
0000
0000
0000
0000
,
0001
0001
0000
0000
,
0000
0000
0000
0000
,
0100
0100
0000
0000
,
0000
0000
0000
0000
,
1001
0000
1001
0000
,
1001
0000
0000
0000
,
0010
0000
0000
0000
,
0001
0000
0001
0000
,
0100
0000
0000
0000
,
1000
0000
1000
0000
,
0100
0000
0000
0000
,
0001
0000
0001
0000
,
0100
0000
0000
0000
,
1000
0000
1000
0000
,
0010
0000
0000
0000
,
0010
0000
0000
0000
,
0001
0000
0000
0000
,
0001
0000
0000
0000
,
0100
0000
0000
0000
,
0100
0000
0000
0000
,
1000
0000
1000
0000
,
1000
0000
0000
0000
,
0110
0000
0000
0000
,
0100
0100
0000
0000
,
0100
0100
0000
0000
,
0100
0100
0000
0000
,
0110
0000
0000
0000
,
0010
0010
0000
0000
,
0010
0010
0000
0000
,
0010
0010
0000
0000
,
0110
0000
0000
0000
,
0100
0100
0000
0000
,
0100
0100
0000
0000
,
0100
0100
0000
0000
,
0110
0000
0000
0000
,
0010
0010
0000
0000
,
0010
0010
0000
0000
,
0010
0010
0000
0000
,
1001
0000
0000
1001
,
1001
0000
1001
1001
,
1001
0000
0000
0000
,
0000
0000
0000
0000
,
0110
0000
0110
0000
,
0100
0100
0000
0000
,
0000
0000
0000
0000
;

//---------------dance-single - ----------------
#NOTES:
     dance-single:
     :
     Easy:
     4:
     0.201531,0.279793,0.152828,0.058780,0.000000,120.000000,107.000000,13.000000,5.000000,0.000000,0.000000,0.201531,0.279793,0.152828,0.058780,0.000000,120.000000,107.000000,13.000000,5.000000,0.000000,0.000000:
0000
0000
0000
0000
,
0000
0000
0000
0000
,
0000
0000
0000
0000
,
0000
0000
0000
0000
,
0000
0000
0000
0000
,
0010
0000
0000
0000
,
0010
0000
0000
0000
,
0100
0000
0000
0000
,
0100
0000
0000
0000
,
0001
0000
0001
0000
,
1000
0000
1000
0000
,
0020
0000
0000
0000
,
0000
0000
0000
0030
,
0001
1000
0000
0100
,
0000
0100
0000
0100
,
1000
0001
0000
0010
,
0000
0010
0000
0010
,
0001
1000
0000
0100
,
0000
0100
0000
0100
,
0010
0000
0100
0000
,
1001
0000
0000
0000
,
1000
0000
0000
1000
,
0001
0000
0000
0001
,
0010
0000
0000
0010
,
0100
0000
0000
0100
,
0000
0010
0000
1001
,
0000
0100
0000
1001
,
0000
0001
0000
0110
,
0000
1000
0000
0110
,
0000
0001
1000
0001
,
0000
0100
0000
0100
,
0000
0010
0100
0010
,
0000
1000
0000
1000
,
0000
0010
1000
0010
,
0000
0001
0000
0001
,
1000
0000
0001
0000
,
0110
0000
0000
0000
,
0001
0000
0001
1000
,
0100
0000
0010
0000
,
0100
0000
0100
1000
,
0010
0000
0100
0000
,
0010
0000
0010
0001
,
1000
0000
0001
0000
,
1000
0000
1000
0100
,
0001
0000
1000
0000
,
0001
0000
0001
0010
,
0100
0000
0010
0000
,
0100
0000
0100
0001
,
0010
0000
0100
0000
,
0010
0000
0010
0100
,
1000
0000
0001
0000
,
1000
0000
1000
0010
,
0001
0000
0000
0000
,
1001
0000
0000
0110
,
0000
0000
1001
0000
,
0000
0220
0000
0000
,
0000
0000
0000
0330
,
1001
0000
0110
0000
,
0000
2002
0000
0000
,
0000
0000
3003
0000
,
0000
0000
0000
0000
;

//---------------dance-single - ----------------
#NOTES:
     dance-single:
     :
     Medium:
     8:
     0.344283,0.523509,0.176340,0.164584,0.000000,205.000000,190.000000,15.000000,14.000000,0.000000,0.000000,0.344283,0.523509,0.176340,0.164584,0.000000,205.000000,190.000000,15.000000,14.000000,0.000000,0.000000:
0000
0000
0000
0000
,
0000
0000
0000
0000
,
0000
0000
0000
0000
,
0000
0000
0000
0000
,
0000
0000
0000
0000
,
0010
0000
0010
0000
1000
0100
0000
0010
,
0000
0010
0000
0001
0000
0100
0000
0000
,
0010
0000
0010
0000
1000
0100
0000
0010
,
0000
0010
0000
0001
0000
0100
0000
0000
,
0020
0000
0000
0000
0030
0100
0000
0001
,
0000
0100
0000
1000
0000
0010
0000
0000
,
0220
0000
0000
0000
,
0000
0000
0000
0330
,
2000
0000
0000
0000
0000
3001
0000
0010
,
0000
0010
0000
0100
0000
0100
0000
0000
,
0002
0000
0000
0000
0000
1003
0000
0010
,
0000
0010
0000
0100
0000
0100
0000
0000
,
2000
0000
0000
0000
0000
3001
0000
0010
,
0000
0010
0000
0100
0000
0100
0000
0000
,
1001
0000
0110
0000
,
2002
0000
0000
3003
,
0010
0000
0100
0000
0001
0100
0000
1000
,
0000
0000
0010
0000
0001
1000
0000
0000
,
0010
0000
0100
0000
1000
0100
0000
0001
,
0000
0000
0010
0000
1000
0001
0000
0000
,
0010
0000
0100
0000
0001
0100
0000
1000
,
0000
0000
0010
0000
0001
1000
0000
0000
,
0010
0000
0100
0000
1000
0100
0000
0001
,
0000
0000
0010
0000
1000
0001
0000
0000
,
0010
1000
0100
0000
0001
0000
0100
0000
,
1000
0010
0001
1001
,
0010
0001
0100
0000
1000
0000
0100
0000
,
0001
0010
1000
1001
,
0010
1000
0100
0000
0001
0000
0100
0000
,
1000
0010
0001
1001
,
1100
0000
0011
0000
,
2002
0000
0000
3003
,
0010
0000
0100
0000
0001
0100
0000
0000
,
0010
0000
0100
0000
1000
0100
0000
0000
,
0010
0000
0100
0000
0001
0100
0000
0000
,
0010
0000
0100
0000
1000
0100
0000
0000
,
0010
0000
0100
0000
0000
0000
0001
1000
,
0000
0010
0100
0000
1000
0000
0001
0000
,
0010
0000
0100
0000
0000
0010
0000
0000
,
1000
0000
0001
0000
1000
0001
0100
0000
,
0001
0000
1000
0000
0001
0100
0000
0000
,
1000
0000
0001
0000
1000
0100
0000
0000
,
0001
0000
1000
0000
0001
0100
0000
0000
,
1000
0000
0001
0000
1000
0100
0000
0000
,
0001
0000
1000
0000
0000
0000
0001
0100
,
0000
1000
0100
0000
0001
0000
1000
0000
,
0010
0000
0001
0010
0100
1000
0001
0010
,
0100
0000
0000
1001
0000
0000
0000
0000
,
0010
0001
0010
0001
0100
0000
0010
1000
,
0010
1000
0100
0000
0010
0001
0010
0001
,
0100
0220
0000
0000
,
0000
0000
0000
0330
,
1001
0000
0110
0000
,
0000
2002
0000
0000
,
0000
0000
0000
3003
0000
0000
0000
0000
;

//---------------dance-single - ----------------
#NOTES:
     dance-single:
     :
     Hard:
     10:
     0.424895,0.523509,0.235120,0.329168,0.000000,253.000000,233.000000,20.000000,28.000000,0.000000,0.000000,0.424895,0.523509,0.235120,0.329168,0.000000,253.000000,233.000000,20.000000,28.000000,0.000000,0.000000:
0000
0000
0000
0000
,
0000
0000
0000
0000
,
0000
0000
0000
0000
,
0000
0000
0000
0000
,
0000
0000
0000
0000
,
0010
0000
0100
0000
1000
0100
0000
0001
,
0000
0010
0000
1000
0000
0100
0000
0000
,
0010
0000
0100
0000
0001
0100
0000
1000
,
0000
0010
0000
0001
0000
0100
0000
0000
,
0020
0000
0000
0000
1030
0100
0000
0001
,
0000
0010
0000
0100
0000
1000
0000
0000
,
2002
0000
0000
0000
,
0000
0000
0000
3003
,
0020
0000
0030
1000
0001
0100
0000
0001
,
1000
0100
0000
1000
0001
0100
0000
0000
,
0020
0000
0030
0001
1000
0100
0000
1000
,
0001
0100
0000
0001
1000
0100
0000
0000
,
0020
0000
0030
1000
0001
0100
0000
0001
,
1000
0100
0000
1000
0001
0100
0000
0000
,
2020
3030
0202
0303
,
2002
0000
0000
3003
,
0100
0000
0001
1000
0010
0100
0001
0000
,
0100
0000
0001
0100
1000
0100
0001
0000
,
0010
0000
0001
0010
0100
1000
0001
0000
,
0010
0000
0001
1000
0100
1000
0010
0000
,
0100
0000
1000
0001
0010
0100
1000
0000
,
0100
0000
1000
0100
0001
0100
1000
0000
,
0010
0000
1000
0010
0100
0001
1000
0000
,
0010
0000
1000
0001
0100
0001
0010
0000
,
0100
0000
0100
0001
1000
0000
1000
0000
,
0010
0000
1000
0100
0010
0001
0000
0000
,
0100
0000
0100
1000
0001
0000
0001
0000
,
0010
0000
0001
0010
0100
1000
0000
0000
,
0100
0000
0100
0001
1000
0000
1000
0000
,
0010
0000
1000
0010
0100
0001
0000
0000
,
0220
0330
2002
3003
,
0220
0000
0000
0330
,
0001
0000
1000
0100
0000
0001
0010
0100
,
1000
0000
0110
0000
0000
0110
0000
0000
,
1000
0000
0001
0100
0000
1000
0100
0010
,
0001
0000
0100
0000
1000
0100
0001
0000
,
1000
0000
0100
0010
0000
0000
1000
0001
,
0000
0010
0100
0000
1100
0000
0011
0000
,
1000
0000
0001
0000
0100
0010
0000
0000
,
0100
0000
0100
0000
0001
1000
0100
0000
,
1000
0000
0001
0100
0000
1000
0100
0010
,
0001
0000
1001
0000
0000
1001
0000
0000
,
0001
0000
1000
0100
0000
0001
0100
0010
,
1000
0000
0100
0000
0001
0100
1000
0000
,
0001
0000
0100
0010
0000
0000
0001
1000
,
0000
0010
0100
0000
0101
0000
1010
0000
,
0100
0000
0001
0010
0100
1000
0001
0010
,
0100
0000
0000
2002
0000
0000
3003
0000
,
0010
0001
0100
1000
0010
0000
0010
1000
,
0100
0001
0010
0000
0010
0001
0100
1000
,
0010
0220
0000
0000
,
0000
0000
0000
0330
,
2002
3003
0220
0330
,
0000
2002
0000
0000
,
0000
0000
0000
3003
0000
0000
0000
0000
;

//---------------dance-double - ----------------
#NOTES:
     dance-double:
     :
     Easy:
     4:
     0.201531,0.279793,0.152828,0.047024,0.000000,120.000000,107.000000,13.000000,4.000000,0.000000,0.000000,0.201531,0.279793,0.152828,0.047024,0.000000,120.000000,107.000000,13.000000,4.000000,0.000000,0.000000:
00000000
00000000
00000000
00000000
,
00000000
00000000
00000000
00000000
,
00000000
00000000
00000000
00000000
,
00000000
00000000
00000000
00000000
,
00000000
00000000
00000000
00000000
,
00000100
00000000
00000000
00000000
,
00010000
00000000
00000000
00000000
,
00001000
00000000
00000000
00000000
,
01000000
00000000
00000000
00000000
,
00100000
00000000
00010000
00000000
,
00001000
00000000
00000010
00000000
,
00000200
00000000
00000000
00000000
,
00000000
00000000
00000000
00000300
,
00001000
00000001
00000000
00000100
,
00000000
00001000
00000000
00010000
,
00100000
10000000
00000000
01000000
,
00000000
00100000
00000000
01000000
,
00010000
00001000
00000000
00000010
,
00000000
00000001
00000000
00000100
,
00001001
00000000
00000110
00000000
,
00001001
00000000
00000000
00000000
,
00000001
00000000
00000000
00000001
,
00001000
00000000
00000000
00001000
,
00010000
00000000
00000000
00010000
,
10000000
00000000
00000000
10000000
,
01000000
00000000
00000000
01000000
,
00010000
00000000
00000000
00010000
,
00001000
00000000
00000000
00001000
,
00000100
00000000
00000000
00000100
,
00000000
00000100
00001000
00010000
,
00000000
00100000
00000000
10010000
,
00000000
01000000
00010000
00001000
,
00000000
00000010
00000000
00001001
,
00000000
00000100
00001000
00010000
,
00000000
00100000
00000000
00100000
,
10010000
00000000
01100000
00000000
,
10010000
00000000
00000000
00000000
,
00100000
00000000
10000000
01000000
,
00010000
00000000
00001000
00000000
,
00000010
00000000
00000001
00000100
,
00001000
00000000
00010000
00000000
,
01000000
00000000
10000000
01000000
,
00010000
00000000
00001000
00000000
,
00000100
00000000
00000001
00000100
,
00001000
00000000
00010000
00000000
,
00100000
00000000
01000000
00100000
,
00010000
00000000
00001000
00000000
,
00000010
00000000
00000100
00000010
,
00001000
00000000
00010000
00000000
,
01000000
00000000
00100000
01000000
,
00010000
00000000
00001000
00000000
,
00000100
00000000
00000010
00000100
,
00001001
00000000
00000000
00000000
,
00001001
00000000
00000000
00011000
,
00000000
00000000
10010000
00000000
,
00000000
02000000
00000000
00000000
,
00000000
00000000
00000000
03000000
,
00010000
00000000
00001000
00000000
,
00000000
00022000
00000000
00000000
,
00000000
00000000
00033000
00000000
,
00000000
00000000
00000000
00000000
;

//---------------dance-double - ----------------
#NOTES:
     dance-double:
     :
     Medium:
     8:
     0.337565,0.523509,0.129316,0.152828,0.000000,201.000000,190.000000,11.000000,13.000000,0.000000,0.000000,0.337565,0.523509,0.129316,0.152828,0.000000,201.000000,190.000000,11.000000,13.000000,0.000000,0.000000:
00000000
00000000
00000000
00000000
,
00000000
00000000
00000000
00000000
,
00000000
00000000
00000000
00000000
,
00000000
00000000
00000000
00000000
,
00000000
00000000
00000000
00000000
,
00100000
00000000
00100000
00000000
10000000
01000000
00000000
00010000
,
00000000
00001000
00000000
00000100
00000000
00000001
00000000
00000000
,
00000010
00000000
00000010
00000000
00000001
00000100
00000000
00001000
,
00000000
00010000
00000000
01000000
00000000
10000000
00000000
00000000
,
02200000
00000000
00000000
03300000
00000000
01000000
00000000
00100000
,
00000000
00010000
00000000
00001000
00000000
00000100
00000000
00000000
,
00000020
00000000
00000000
00000000
,
00000000
00000000
00000000
00000030
,
00000002
00000000
00000000
00000000
00000000
00001003
00000000
00000100
,
00000000
00001000
00000000
00010000
00000000
01000000
00000000
00000000
,
20000000
00000000
00000000
00000000
00000000
30010000
00000000
01000000
,
00000000
00010000
00000000
00001000
00000000
00000100
00000000
00000000
,
00000002
00000000
00000000
00000000
00000000
00001003
00000000
00000010
,
00000000
00001000
00000000
00010000
00000000
00100000
00000000
00000000
,
10010000
00000000
00011000
00000000
,
00002002
00000000
00000000
00003003
,
00000010
00000000
00000100
00000000
00001000
00010000
00000000
01000000
,
00000000
00000000
10000000
00000000
00010000
01000000
00000000
00000000
,
00100000
00000000
01000000
00000000
00010000
00001000
00000000
00000100
,
00000000
00000000
00000001
00000000
00001000
00000100
00000000
00000000
,
00000010
00000000
00000100
00000000
00001000
00010000
00000000
01000000
,
00000000
00000000
10000000
00000000
00010000
01000000
00000000
00000000
,
00100000
00000000
01000000
00000000
00010000
00001000
00000000
00000100
,
00000000
00000000
00000001
00000000
00001000
00000100
00000000
00000000
,
00000010
00000001
00000100
00000000
00000010
00000000
00000100
00000000
,
00001000
00010000
01000000
10000000
,
00100000
10000000
01000000
00000000
00100000
00000000
01000000
00000000
,
00010000
00001000
00000100
00000001
,
00000010
00000001
00000100
00000000
00000010
00000000
00000100
00000000
,
00001000
00010000
01000000
10000000
,
10010000
00000000
00011000
00000000
,
00002002
00000000
00000000
00003003
,
00000010
00000000
00000100
00000000
00000001
00000100
00000000
00000000
,
00001000
00000000
00010000
00000000
01000000
10000000
00000000
00000000
,
00100000
00000000
01000000
00000000
10000000
01000000
00000000
00000000
,
00010000
00000000
00001000
00000000
00000100
00000001
00000000
00000000
,
00000010
00000000
00001000
00000000
00000000
00010000
00001000
00000000
,
00000000
00010000
00001000
00000000
00010000
00000000
00100000
00000000
,
01000000
00000000
00100000
00000000
00000000
10000000
00000000
00000000
,
00010000
00000000
01000000
00000000
00100000
10000000
01000000
00000000
,
00100000
00000000
01000000
00000000
10000000
01000000
00000000
00000000
,
00010000
00000000
00001000
00000000
00000100
00000001
00000000
00000000
,
00000010
00000000
00000100
00000000
00000001
00000100
00000000
00000000
,
00001000
00000000
00010000
00000000
01000000
10000000
00000000
00000000
,
00100000
00000000
00010000
00000000
00000000
00001000
00010000
00000000
,
00000000
00001000
00010000
00000000
00001000
00000000
00000010
00000000
,
00000100
00000000
00000010
00000001
00000100
00001000
00010000
01000000
,
10000000
00000000
00000000
00011000
00000000
00000000
00000000
00000000
,
00000010
00001000
00000010
00010000
00001000
00000000
00100000
00010000
,
00100000
00001000
00010000
00000000
00000010
00001000
00000010
00010000
,
00001000
02000000
00000000
00000000
,
00000000
00000000
00000000
03000000
,
10010000
00000000
00011000
00000000
,
00000000
00002002
00000000
00000000
,
00000000
00000000
00000000
00003003
00000000
00000000
00000000
00000000
;

//---------------dance-double - ----------------
#NOTES:
     dance-double:
     :
     Hard:
     10:
     0.419857,0.523509,0.199852,0.305656,0.000000,250.000000,233.000000,17.000000,26.000000,0.000000,0.000000,0.419857,0.523509,0.199852,0.305656,0.000000,250.000000,233.000000,17.000000,26.000000,0.000000,0.000000:
00000000
00000000
00000000
00000000
,
00000000
00000000
00000000
00000000
,
00000000
00000000
00000000
00000000
,
00000000
00000000
00000000
00000000
,
00000000
00000000
00000000
00000000
,
10000000
00000000
00010000
00000000
00100000
01000000
00000000
00010000
,
00000000
00001000
00000000
00000100
00000000
00000001
00000000
00000000
,
00000001
00000000
00001000
00000000
00000010
00000100
00000000
00001000
,
00000000
00010000
00000000
01000000
00000000
10000000
00000000
00000000
,
00200000
00000000
00000000
00000000
10300000
01000000
00000000
00010000
,
00000000
00001000
00000000
00000100
00000000
00000001
00000000
00000000
,
00000020
00000000
00000000
00000000
,
00000000
00000000
00000000
00000030
,
00000002
00000000
00000003
00000100
00001000
00010000
00000000
00001000
,
00010000
01000000
00000000
00010000
01000000
10000000
00000000
00000000
,
20000000
00000000
30000000
01000000
00010000
00001000
00000000
00010000
,
00001000
00000100
00000000
00001000
00000100
00000001
00000000
00000000
,
00000002
00000000
00000003
00000100
00001000
00010000
00000000
00001000
,
00010000
01000000
00000000
00010000
01000000
10000000
00000000
00000000
,
20200000
30300000
00022000
00033000
,
00000202
00000000
00000000
00000303
,
00000010
00000000
00000001
00001000
00000100
00000001
00000100
00000000
,
00000010
00000000
00000001
00000100
00001000
00010000
00100000
00000000
,
00010000
00000000
00001000
00000100
00001000
00010000
01000000
00000000
,
00100000
00000000
00010000
01000000
00010000
10000000
01000000
00000000
,
00100000
00000000
10000000
00010000
01000000
10000000
01000000
00000000
,
00100000
00000000
10000000
01000000
00010000
00001000
00000010
00000000
,
00001000
00000000
00010000
01000000
00010000
00001000
00000100
00000000
,
00000010
00000000
00000001
00000100
00000001
00001000
00000100
00000000
,
00000010
00000000
00000010
00001000
00000100
00000000
00000001
00000000
,
00000100
00000000
00000010
00000001
00000100
00001000
00000000
00000000
,
00000100
00000000
00000100
00001000
00010000
00000000
01000000
00000000
,
00100000
00000000
00001000
00000100
00001000
00010000
00000000
00000000
,
00100000
00000000
00100000
10000000
01000000
00000000
00100000
00000000
,
01000000
00000000
00100000
00010000
01000000
10000000
00000000
00000000
,
22000000
33000000
00022000
00033000
,
00000022
00000000
00000000
00000033
,
00000100
00000000
00001000
00000100
00000000
00000001
00000010
00000100
,
00001000
00000000
00000001
00000000
00000000
00011000
00000000
00000000
,
01000000
00000000
00010000
01000000
00000000
10000000
01000000
00100000
,
00010000
00000000
10000000
00000000
01000000
00010000
00001000
00000000
,
00010000
00000000
01000000
00100000
00000000
00000000
00001000
00010000
,
00000000
00000010
00000100
00000000
00001001
00000000
00000110
00000000
,
00000001
00000000
00001000
00000000
00000001
00000100
00000000
00000000
,
00001000
00000000
00010000
00000000
01000000
10000000
00100000
00000000
,
01000000
00000000
00010000
01000000
00000000
10000000
01000000
00100000
,
00010000
00000000
10000000
00000000
00000000
00011000
00000000
00000000
,
00000100
00000000
00001000
00000100
00000000
00000001
00000010
00000100
,
00001000
00000000
00000001
00000000
00000100
00001000
00010000
00000000
,
00001000
00000000
00000100
00000010
00000000
00000000
00010000
00001000
,
00000000
00100000
01000000
00000000
10010000
00000000
01100000
00000000
,
10010000
00000000
00100000
10000000
01000000
00010000
00001000
00000100
,
00000001
00000000
00000000
00022000
00000000
00000000
00033000
00000000
,
00000100
00000001
00000010
00001000
00010000
00000000
01000000
10000000
,
00100000
00010000
00001000
00000000
00000100
00000001
00000010
00001000
,
00010000
02000000
00000000
00000000
,
00000000
00000000
00000000
03000000
,
20200000
30300000
00022000
00033000
,
00000000
00000202
00000000
00000000
,
00000000
00000000
00000000
00000303
00000000
00000000
00000000
00000000
;

//---------------dance-single - ----------------
#NOTES:
     dance-single:
     :
     Challenge:
     13:
     0.691924,0.737542,0.728872,0.211608,0.182218,412.000000,350.000000,62.000000,18.000000,0.000000,0.000000,0.691924,0.737542,0.728872,0.211608,0.182218,412.000000,350.000000,62.000000,18.000000,0.000000,0.000000:
// measure 0
0000
0000
0000
0000
,  // measure 1
0000
0000
0000
0000
,  // measure 2
0000
0000
0000
0000
,  // measure 3
0000
0000
0000
0000
,  // measure 4
0000
0000
0000
0000
,  // measure 5
2010
0000
3002
0000
0103
0010
1000
0001
,  // measure 6
0000
0011
0000
1100
0000
0001
1000
0000
,  // measure 7
0201
0000
0320
0000
1030
0100
0010
0001
,  // measure 8
0000
1001
0000
0110
0000
1000
0100
0000
,  // measure 9
2100
0000
3020
0000
0130
0001
1000
0001
,  // measure 10
0000
0011
0000
1001
0000
0010
0100
0000
,  // measure 11
0110
0000
0000
0010
1000
0000
0001
0000
0000
0101
0000
0000
1010
0000
0000
0000
,  // measure 12
0020
0000
0000
2030
0000
0000
3002
0000
0000
2003
0000
0000
3010
0100
0010
0000
,  // measure 13
1010
0000
0000
0000
0101
0000
0000
0001
1000
0000
0100
0000
0010
0000
0001
0000
,  // measure 14
0010
0001
1000
0010
1000
0100
0010
0000
,  // measure 15
0011
0000
0000
0000
1100
0000
0000
1000
0010
0000
1000
0000
0100
0000
0010
0000
,  // measure 16
0001
0100
0010
1000
0001
1000
0100
0000
,  // measure 17
1001
0000
0000
0000
0110
0000
0000
0010
0100
0000
0001
0000
1000
0000
0100
0000
,  // measure 18
1000
0010
1000
0001
0010
0100
1000
0000
,  // measure 19
0102
1000
1003
0000
2100
0001
3001
0000
,  // measure 20
1001
0000
0000
0010
1000
0000
0100
0000
0000
1000
0000
0010
0100
0000
0000
0000
,  // measure 21
0110
0000
0010
0000
1000
0000
0001
0000
1000
0100
1000
0000
0010
0000
0000
0000
,  // measure 22
0100
0000
0001
0000
0010
0000
0001
0000
1000
0010
1000
0000
0100
0000
0000
0000
,  // measure 23
0010
0000
0100
0000
1000
0000
0010
0000
0100
0001
0100
0000
0010
0000
0000
0000
,  // measure 24
1000
0000
0001
0000
0010
0000
0001
0000
0100
0010
0100
0000
0001
0000
0000
0000
,  // measure 25
0010
0000
0001
0000
1000
0000
0001
0000
1000
0100
1000
0000
0010
0000
0000
0000
,  // measure 26
0100
0000
0001
0000
0010
0000
0100
0000
1000
0010
1000
0000
0001
0000
0000
0000
,  // measure 27
0010
0000
0001
0000
1000
0000
0001
0000
0100
0010
0100
0000
0001
0000
0000
0000
,  // measure 28
0100
0000
0010
0000
1000
0000
0100
0000
1000
0001
1000
0000
0010
0000
0000
0000
,  // measure 29
1001
0100
0010
1000
1001
0100
0010
0001
,  // measure 30
0000
1000
0100
0000
1100
0000
0101
0000
,  // measure 31
0110
0001
0100
0010
0110
1000
0100
0010
,  // measure 32
0000
0001
1000
0000
1010
0000
0011
0000
,  // measure 33
1001
0001
1000
0100
0110
0010
0001
0100
,  // measure 34
0000
0001
1000
0000
1100
0000
0011
0000
,  // measure 35
2001
0100
3100
0000
1002
0100
0103
0000
,  // measure 36
1010
0000
0000
0000
0000
0000
0000
0000
0001
1000
0001
1000
0001
0000
0100
0000
,  // measure 37
0101
0000
1000
0010
0100
0001
1000
0000
,  // measure 38
0010
0000
0000
0000
1000
0000
0000
0001
1000
0000
0100
0000
0010
0000
0000
0000
,  // measure 39
0011
0000
0000
0000
1100
0000
0000
0010
1000
0000
0001
0000
0100
0000
0000
0000
,  // measure 40
0001
0100
1000
0010
1000
0001
0100
0000
,  // measure 41
1001
0000
0010
1000
0100
0010
0001
1000
,  // measure 42
0000
0100
1000
0000
1100
0010
0100
0000
,  // measure 43
1010
0000
0000
0000
0101
0000
0000
0001
1000
0000
0100
0000
0010
0000
0000
0000
,  // measure 44
0011
0000
0110
0000
1000
0010
0100
0001
,  // measure 45
1000
0000
0010
0000
0100
0000
0001
1000
0001
0000
0010
0000
0100
0000
0000
0000
,  // measure 46
1000
0000
0000
0000
0001
0000
0000
1000
0010
0000
0100
0000
0001
0000
0000
0000
,  // measure 47
0011
0000
0000
0000
0101
0000
0000
0010
0100
0000
0001
0000
1000
0000
0000
0000
,  // measure 48
1010
0001
1000
0000
0001
0100
0010
1000
,  // measure 49
0100
1000
0010
0100
0000
0001
1000
0001
,  // measure 50
0000
0010
0100
0000
1100
1000
0001
0000
,  // measure 51
0010
0000
0001
1000
0010
1000
0100
0010
,  // measure 52
0011
0001
1000
2200
0000
0000
3300
0000
,  // measure 53
1010
1000
0001
0100
0101
0000
0110
0010
,  // measure 54
0100
0001
1001
0000
1100
1000
0010
0100
,  // measure 55
0110
0000
0000
0000
1001
0000
0000
0010
0100
0000
0001
0000
0000
1000
0100
0000
,  // measure 56
0010
0000
0000
0001
1000
0000
0010
0000
0000
0100
0001
0000
1000
0000
0100
0000
,  // measure 57
1001
1000
0010
0100
0110
0010
0100
0001
,  // measure 58
1000
0100
0022
0000
0000
0000
0000
0000
,  // measure 59
0000
0000
0000
0033
;
