#VERSION:0.83;
#TITLE:MIDNIGHT SPECIAL;
#SUBTITLE:;
#ARTIST:Love machineguns;
#TITLETRANSLIT:;
#SUBTITLETRANSLIT:;
#ARTISTTRANSLIT:;
#GENRE:;
#ORIGIN:;
#CREDIT:;
#BANNER:MIDNIGHT SPECIAL-bn.png;
#BACKGROUND:MIDNIGHT SPECIAL-bg.png;
#PREVIEWVID:;
#JACKET:MIDNIGHT SPECIAL-jacket.png;
#CDIMAGE:;
#DISCIMAGE:;
#LYRICSPATH:;
#CDTITLE:;
#MUSIC:MIDNIGHT SPECIAL.ogg;
#OFFSET:0.000000;
#SAMPLESTART:41.067001;
#SAMPLELENGTH:20.000000;
#SELECTABLE:YES;
#DISPLAYBPM:181.000000:187.000000;
#BPMS:0.000=181.000,
4.000=180.720,
8.000=182.010,
156.000=186.900,
184.000=182.300,
192.000=182.000;
#STOPS:;
#DELAYS:;
#WARPS:;
#TIMESIGNATURES:0.000=4=4;
#TICKCOUNTS:0.000=4;
#COMBOS:0.000=1;
#SPEEDS:0.000=1.000=0.000=0;
#SCROLLS:0.000=1.000;
#FAKES:;
#LABELS:0.000=Song Start;
#BGCHANGES:0.000=MIDNIGHT SPECIAL.avi=1.000=0=0=0=StretchNoLoop====,
99999=-nosongbg-=1.000=0=0=0 // don't automatically add -songbackground-
;
#KEYSOUNDS:;
#ATTACKS:
;

//---------------dance-single - ----------------
#NOTEDATA:;
#CHARTNAME:;
#STEPSTYPE:dance-single;
#DESCRIPTION:;
#CHARTSTYLE:;
#DIFFICULTY:Beginner;
#METER:3;
#RADARVALUES:0.178357,0.213898,0.012240,0.159123,0.000000,102.000000,101.000000,1.000000,13.000000,0.000000,0.000000,0.000000,0.000000,0.000000,0.178357,0.213898,0.012240,0.159123,0.000000,102.000000,101.000000,1.000000,13.000000,0.000000,0.000000,0.000000,0.000000,0.000000;
#CREDIT:;
#DISPLAYBPM:182.000000;
#NOTES:
0000
0000
0000
0000
,
0000
0000
0000
0000
,
0000
0000
0000
0000
,
0000
0000
0000
0000
,
0010
0000
0000
1000
,
0000
0000
1000
0000
,
0000
0000
0000
0000
,
0001
0000
0100
0000
,
0100
0000
1000
0000
,
0100
0000
0001
0000
,
0001
0000
0010
0000
,
1000
0000
0010
0000
,
0010
0000
0001
0000
,
0010
0000
1000
0000
,
0100
0100
0100
0000
,
0000
0010
0000
1000
,
0000
0001
0000
0001
,
0000
0100
0000
1000
,
0000
0010
0000
0010
,
0000
0100
0000
0001
,
0000
1000
0000
1000
,
0000
0010
0000
0001
,
0000
0100
0100
0100
,
0200
0000
0300
0000
,
0020
0000
0030
0000
,
0002
0000
0003
0000
,
1000
1000
1000
1000
,
2000
0000
3000
0000
,
0002
0000
0003
0000
,
0200
0000
0300
0000
,
0010
0010
0010
0010
,
0020
0000
0000
0030
,
0000
1000
0000
1000
,
0000
0100
0000
0001
,
0000
0100
0000
0100
,
0000
0010
0000
1000
,
0000
0001
0000
0001
,
0000
0100
0000
1000
,
0000
0010
0000
0010
,
0000
0001
0000
1000
,
0000
1000
1000
0000
,
0000
0010
0010
0000
,
0000
0100
0100
0000
,
0000
0001
0001
0000
,
0000
0100
0100
0000
,
0000
0010
0010
0000
,
2002
0000
0000
0000
,
0000
0000
0000
3003
,
0000
1000
0000
0010
,
0000
0001
0000
0100
,
0000
0001
0000
0010
,
0000
1000
0000
0100
,
0000
0010
0000
1000
,
0000
0100
0000
0001
,
0000
0100
0000
1000
,
2000
3000
0000
0002
,
0003
0000
0020
0030
,
0000
0200
0300
0000
,
0001
0001
0000
0000
,
0000
0000
0000
0000
;

//---------------dance-single - ----------------
#NOTEDATA:;
#CHARTNAME:;
#STEPSTYPE:dance-single;
#DESCRIPTION:;
#CHARTSTYLE:;
#DIFFICULTY:Easy;
#METER:7;
#RADARVALUES:0.325240,0.534744,0.514089,0.306005,0.000000,186.000000,144.000000,42.000000,25.000000,0.000000,0.000000,0.000000,0.000000,0.000000,0.325240,0.534744,0.514089,0.306005,0.000000,186.000000,144.000000,42.000000,25.000000,0.000000,0.000000,0.000000,0.000000,0.000000;
#CREDIT:;
#DISPLAYBPM:182.000000;
#NOTES:
0000
0000
0000
0000
,
0000
0000
0000
0000
,
0000
0000
0000
0000
,
0000
0000
0000
0000
,
1000
0000
0000
0100
0000
0000
0001
0000
,
0000
0100
0000
0000
2002
0000
0000
0000
,
0000
0000
0000
3003
,
0010
0001
0100
0000
,
0010
1000
0100
0000
,
0001
1000
0001
0000
,
1000
0001
0100
0100
,
1100
0000
0101
0000
,
1001
0000
0110
0000
,
1100
0000
0101
0000
,
1001
0110
1001
0000
,
0000
1000
0000
1000
,
0000
0001
0000
0001
,
0000
0010
0000
1000
,
0000
0002
0000
2003
,
0000
3001
0000
1000
,
0000
0100
0000
0001
,
0000
0010
0000
1000
,
0000
0002
0000
0003
,
2000
0000
3200
0000
,
0320
0000
0032
0000
,
2003
0000
3020
0000
,
0032
0000
2003
0000
,
3002
0000
0023
0000
,
0230
0000
0302
0000
,
2003
0000
3200
0000
,
0300
1001
0110
0000
,
2002
0000
0000
3003
,
0010
0010
1000
1000
,
0100
0100
0001
0001
,
0100
1000
0100
1000
,
0101
0101
1100
1100
,
0010
0010
0001
0001
,
0100
0100
1000
1000
,
0100
0001
0100
0001
,
1100
1100
0101
0101
,
0010
0101
0010
1100
,
0001
1001
1000
1001
,
0010
1001
0100
2002
,
3003
0001
0100
1000
,
1000
1100
0001
0101
,
0010
1100
0010
0101
,
2002
0000
0000
0000
,
0000
0000
0000
3003
,
0100
1000
0010
0000
,
0100
0001
0010
0000
,
1000
0001
1000
0000
,
0001
1000
0010
0010
,
0011
0000
1010
0000
,
1001
0000
0110
0000
,
0011
0000
1010
0000
,
1000
0000
0000
0001
0000
0000
0100
0000
,
0000
0010
0000
0000
1000
0000
0000
0001
,
0000
0000
0101
0000
0000
1010
0000
0000
,
1001
1001
0000
0000
,
0000
0000
0000
0000
;

//---------------dance-single - ----------------
#NOTEDATA:;
#CHARTNAME:;
#STEPSTYPE:dance-single;
#DESCRIPTION:;
#CHARTSTYLE:;
#DIFFICULTY:Medium;
#METER:9;
#RADARVALUES:0.487859,0.571617,0.526329,0.195843,0.018360,279.000000,236.000000,43.000000,16.000000,0.000000,0.000000,0.000000,0.000000,0.000000,0.487859,0.571617,0.526329,0.195843,0.018360,279.000000,236.000000,43.000000,16.000000,0.000000,0.000000,0.000000,0.000000,0.000000;
#CREDIT:;
#DISPLAYBPM:182.000000;
#NOTES:
0000
0000
0000
0000
,
0000
0000
0000
0000
,
0000
0000
0000
0000
,
0000
0000
0000
0000
,
0100
0000
0000
0010
0000
0000
0100
0000
,
0000
0010
0000
0000
1000
0001
1000
0001
,
0000
0001
1000
1000
,
0001
0010
1000
0000
2200
0000
0000
3300
,
0000
1100
0000
0100
0010
0001
1000
0000
,
1000
0100
0001
0000
2000
0000
0000
3000
,
0000
1000
0000
1000
0100
0001
0100
0000
,
1000
0010
0001
0000
0202
0000
0000
0303
,
0000
0101
0000
0100
0010
1000
0001
0000
,
0001
0100
1000
0000
2000
0000
3000
0000
,
0001
1000
0002
0003
,
0000
1000
0000
0010
0000
0001
0000
0100
,
0000
1000
0000
0010
0000
0001
0000
0010
,
0000
1000
0000
0100
0000
0001
0000
0100
,
0000
1000
0100
0001
0000
0001
0100
1000
,
0000
1000
0000
0100
0000
0001
0000
0100
,
0000
1000
0000
0010
0000
0001
0000
0010
,
0000
1000
0000
0010
0000
0001
0000
0010
,
0000
0000
0000
0000
1001
0000
0000
0000
0001
0000
0000
0100
0000
0000
0001
0000
,
1000
0000
1000
0000
1010
0000
1000
0001
,
1000
0100
1000
0000
1001
0000
0100
0000
,
0101
0001
1001
1000
,
1100
0000
0000
1000
0000
0000
1000
0000
0001
0000
1000
0000
,
1001
0000
1000
0000
1100
0000
1000
0001
,
1000
0010
1000
0000
1001
0000
1000
0000
,
1010
1001
1100
1001
,
0001
1000
1000
0001
1000
1000
0001
1000
,
0000
0010
0001
0100
1000
0100
0001
0010
,
0001
0000
1000
0100
0001
0000
0100
0000
,
1001
0000
1000
0100
0001
0000
0100
0000
,
1001
0000
0001
0100
1000
0000
1001
0000
,
1000
1001
0001
1001
,
1000
0000
0001
0010
1000
0000
0010
0000
,
1001
0000
1000
0010
0001
0000
0010
0000
,
1001
0000
1000
0010
0001
0000
0010
0000
,
1001
0110
1001
0110
,
0000
1000
0000
1001
0000
0001
0000
0101
,
0000
0100
0000
1100
0000
1000
0010
1000
,
0000
1000
0000
1001
0000
0001
0000
0101
,
0000
0100
0000
1100
0000
1000
0100
1000
,
0000
1000
0000
1001
0000
0001
0000
0101
,
0000
0100
0000
1100
0000
1000
0000
1000
,
0002
0000
0000
0000
,
0003
0020
0000
0000
0000
0000
0030
0000
,
0001
0010
1000
0000
2200
0000
0000
3300
,
0000
1100
0000
0100
0010
0001
1000
0000
,
1000
0100
0001
0000
2000
0000
0000
3000
,
0000
1000
0000
1000
0100
0001
0100
0000
,
1000
0010
0001
0000
0202
0000
0000
0303
,
0000
0101
0000
0100
0010
1000
0001
0000
,
0001
0100
1000
0000
2002
0000
3003
0000
,
0010
0000
0000
0001
0000
0000
0100
0000
,
0000
0001
0000
0000
1000
0000
0000
0010
,
0000
0000
1000
0000
0000
0100
0000
0000
,
1000
0001
1000
1001
0000
0000
0000
0000
;

//---------------dance-single - ----------------
#NOTEDATA:;
#CHARTNAME:;
#STEPSTYPE:dance-single;
#DESCRIPTION:;
#CHARTSTYLE:;
#DIFFICULTY:Hard;
#METER:10;
#RADARVALUES:0.549060,0.750248,0.575289,0.195843,0.012240,314.000000,267.000000,47.000000,16.000000,0.000000,0.000000,0.000000,0.000000,0.000000,0.549060,0.750248,0.575289,0.195843,0.012240,314.000000,267.000000,47.000000,16.000000,0.000000,0.000000,0.000000,0.000000,0.000000;
#CREDIT:;
#DISPLAYBPM:182.000000:187.000000;
#NOTES:
0000
0000
0000
0000
,
0000
0000
0000
0000
,
0000
0000
0000
0000
,
0000
0000
0000
0000
,
0101
0000
0000
0110
0000
0000
0011
0000
,
0000
1100
0000
0000
0010
0001
0010
0001
,
0010
0001
1100
0000
,
0010
1000
0010
1000
0002
0000
0003
0000
,
0000
0110
0000
0001
0100
0001
0100
0000
,
1000
0001
1000
0001
0020
0000
0030
0000
,
0000
1100
0000
0010
0100
0010
0100
0000
,
0010
1000
0001
0100
0002
0000
0003
0000
,
0000
1010
0000
0010
0100
0010
0100
0000
,
1000
0001
1000
0100
1000
0000
0000
0000
,
0001
1000
1000
0001
0100
0000
0000
0000
,
0100
0001
0010
0000
0100
0000
1000
0000
,
0100
1000
0010
0000
0100
0000
0001
0000
,
1000
0010
1000
0000
0001
0000
0001
0000
,
0000
0010
0010
0100
0000
0100
0010
0010
,
1000
0001
1000
0010
,
1000
0100
0001
0000
1000
0000
0010
0000
,
0001
0100
1000
0000
0001
0000
1000
0000
,
0000
0000
0001
0000
0100
0000
0010
0000
0100
0000
0000
0001
0000
0000
0100
0000
,
0010
0110
0100
0101
,
0001
0000
1001
0000
0001
1000
0001
0000
,
1000
1010
0010
0110
,
0001
0100
0000
0010
0000
1000
0010
0100
,
0010
1010
1000
1100
,
0100
0101
0001
1001
,
0100
0101
0100
0110
,
1000
0010
0100
0001
1000
0001
0010
0100
,
0000
0001
0010
0100
1000
0001
0010
0100
,
1100
0000
0101
0000
0010
1000
0100
0000
,
0110
0000
1001
0000
0010
1000
0100
0000
,
0001
0100
0001
0000
1000
0100
1000
0000
,
0101
1010
1100
0011
,
2100
3001
0102
0013
,
2001
3100
0120
0031
,
1020
0130
0210
1300
,
0110
1001
0110
1001
,
0000
0010
0000
0100
0000
0001
0000
1000
,
0000
0100
0000
0010
0000
0001
0010
0001
,
0000
1000
0000
0001
0000
0001
0000
1000
,
0000
0000
0100
0000
0000
0000
0010
0000
0000
0000
0001
0000
1000
0100
1000
0000
,
0000
0010
0000
0100
0000
0001
0000
0100
,
0000
0010
0000
1000
0000
0100
0000
0010
,
0022
0000
0000
0033
,
0000
2200
0000
0000
3300
0000
0101
0000
,
1000
0010
0100
0001
2000
0000
3000
0000
,
0000
0110
0000
1000
0100
1000
0100
0000
,
0001
0001
0010
0100
2000
0000
3000
0000
,
0000
0101
0000
0010
0010
0100
0010
0000
,
1000
0010
0100
0010
2000
0000
3000
0000
,
0000
1010
0000
0001
1000
0001
1000
0000
,
1000
0100
1000
0001
0010
0000
0000
0000
,
0001
0100
0010
1000
0001
0100
0010
1000
,
0001
0100
0010
1000
0001
0010
0001
1000
,
0100
1000
0010
0100
0001
1000
0010
0100
,
1001
1001
0110
1001
0000
0000
0000
0000
;

//---------------dance-double - ----------------
#NOTEDATA:;
#CHARTNAME:;
#STEPSTYPE:dance-double;
#DESCRIPTION:;
#CHARTSTYLE:;
#DIFFICULTY:Easy;
#METER:7;
#RADARVALUES:0.412670,0.500165,0.563049,0.036721,0.012240,236.000000,190.000000,46.000000,3.000000,0.000000,0.000000,0.000000,0.000000,0.000000,0.412670,0.500165,0.563049,0.036721,0.012240,236.000000,190.000000,46.000000,3.000000,0.000000,0.000000,0.000000,0.000000,0.000000;
#CREDIT:;
#DISPLAYBPM:182.000000;
#NOTES:
00000000
00000000
00000000
00000000
,
00000000
00000000
00000000
00000000
,
00000000
00000000
00000000
00000000
,
00000000
00000000
00000000
00000000
,
00001000
00000000
00000000
00000010
00000000
00000000
00000100
00000000
,
00000000
00000001
00000000
00000000
00000200
00000000
00000000
00000000
,
00000301
00000001
00000001
00001001
,
00000000
00000101
00000000
00001100
,
00000000
00000101
00000000
00001100
,
00000000
00001100
00000000
00011000
,
00000000
00011000
00000000
01010000
,
00000000
01010000
00000000
11000000
,
00000000
01010000
00000000
11000000
,
10000000
01000000
00010000
00001000
,
00010000
00001000
00010000
00001000
00010000
00000000
00000000
00000000
,
00011000
00001000
00000100
00000001
,
00000100
00000001
00001000
00000010
,
00000100
00001000
00010000
00001000
,
00000000
00001000
00010000
00001000
00000000
00010000
00001000
00010000
,
00011000
00010000
01000000
10000000
,
01000000
10000000
00010000
00100000
,
01000000
00010000
00001000
00010000
,
00000000
00000000
00010000
00000000
00001000
00000000
00010000
00000000
00001000
00000000
00000000
00010000
00000000
00000000
00001000
00000000
,
00010000
00100000
00110000
00100000
,
10000000
01000000
11000000
01000000
,
00010000
00001000
00011000
00001000
,
00010000
00001000
00001000
00010000
,
00001000
00000010
00001010
00000010
,
00000001
00000100
00000101
00000100
,
00001001
00001001
00001001
00001001
,
00000100
00000000
00000000
00000010
00000000
00000000
00000100
00000000
,
00000000
00000001
00001000
00000001
00001000
00000001
00001000
00000001
,
00001000
00000001
00000100
00001000
,
00010000
00001000
00010000
01000000
,
00100000
00010000
01000000
00010000
,
10010000
10010000
10010000
10010000
,
00010000
10000000
01000000
00010000
,
00001000
00010000
00001000
00000100
,
00000010
00001000
00000100
00001000
,
00001001
00001001
00001001
00001001
,
00000001
00000010
00001000
00010000
,
00001000
00010000
01000000
10000000
,
10000000
00100000
00010000
00001000
,
00010000
00001000
00000100
00000001
,
00000001
00001000
00000001
00001001
,
00001000
00000001
00001000
00001001
,
00000002
00000000
00000000
00000000
,
00000000
00002000
00000000
00000000
00000000
00000000
00000000
00000000
00000000
00000000
00000000
00000000
00003003
00000000
00000000
00000000
,
00000000
00000101
00000000
00001100
,
00000000
00000101
00000000
00001100
,
00000000
00001100
00000000
00011000
,
00000000
00011000
00000000
01010000
,
00000000
01010000
00000000
11000000
,
00000000
01010000
00000000
11000000
,
10000000
01000000
00010000
00001000
,
00010000
00000000
00000000
01000000
00000000
00000000
10000000
00000000
,
00000000
01000000
00000000
00000000
00010000
00000000
00000000
00001000
,
00000000
00000000
00000100
00000000
00000000
00000001
00000000
00000000
,
00000100
00000010
00000100
00000010
00000000
00000000
00000000
00000000
,
00000000
00000000
00000000
00000000
;

//---------------dance-double - ----------------
#NOTEDATA:;
#CHARTNAME:;
#STEPSTYPE:dance-double;
#DESCRIPTION:;
#CHARTSTYLE:;
#DIFFICULTY:Medium;
#METER:10;
#RADARVALUES:0.507094,0.607343,0.563049,0.244804,0.030601,290.000000,244.000000,46.000000,20.000000,0.000000,0.000000,0.000000,0.000000,0.000000,0.507094,0.607343,0.563049,0.244804,0.030601,290.000000,244.000000,46.000000,20.000000,0.000000,0.000000,0.000000,0.000000,0.000000;
#CREDIT:;
#DISPLAYBPM:182.000000;
#NOTES:
00000000
00000000
00000000
00000000
,
00000000
00000000
00000000
00000000
,
00000000
00000000
00000000
00000000
,
00000000
00000000
00000000
00000000
,
01000000
00000000
00000000
00100000
00000000
00000000
01000000
00000000
,
00000000
00100000
00000000
00000000
10000000
00010000
10000000
00010000
,
00000000
00010000
10000000
10000000
,
00010000
00100000
10000000
00000000
22000000
00000000
00000000
33000000
,
00000000
11000000
00000000
01000000
00100000
00010000
10000000
00000000
,
10000000
01000000
00010000
00000000
00022000
00000000
00000000
00033000
,
00000000
00011000
00000000
00001000
00000100
00000001
00000100
00000000
,
00001000
00000010
00000001
00000000
00000202
00000000
00000000
00000303
,
00000000
00000101
00000000
00000100
00000010
00001000
00000001
00000000
,
00000001
00000100
00001000
00000000
00022000
00000000
00033000
00000000
,
00010000
00000000
00001000
00000000
00010000
00000000
00001000
00000000
00022000
00000000
00000000
00033000
00000000
00000000
00000000
00000000
,
00000000
00001000
00000000
00010000
00000000
00100000
00000000
10000000
,
00000000
00100000
00000000
00010000
00000000
00100000
00000000
10000000
,
00000000
01000000
00000000
00010000
00000000
01000000
00000000
10000000
,
00000000
10000000
01000000
00010000
00000000
00001000
00000100
00000001
,
00000000
00000001
00000000
00000100
00000000
00001000
00000000
00000100
,
00000000
00000001
00000000
00000010
00000000
00001000
00000000
00000010
,
00000000
00000001
00000000
00000010
00000000
00001000
00000000
00010000
,
00000000
00000000
00001000
00000000
00010000
00000000
00001000
00000000
00010000
00000000
00000000
01000000
00000000
00000000
10000000
00000000
,
10000000
00000000
10000000
00000000
10100000
00000000
10000000
00010000
,
10000000
01000000
10000000
00000000
10010000
00000000
01000000
00000000
,
00010000
00010000
00011000
00010000
,
00010000
00000000
00000000
00001000
00000000
00000000
00010000
00000000
00000000
00000000
00000000
00000000
00010000
00000000
00001000
00000000
00010000
00000000
00001000
00000000
00010000
00000000
00001000
00000000
,
00010000
00000000
00001000
00000000
00001100
00000000
00001000
00000001
,
00001000
00000010
00001000
00000000
00001001
00000000
00001000
00000000
,
00001010
00001001
00001100
00001001
,
00000001
00001000
00001000
00000001
00001000
00001000
00000001
00001000
,
00000000
00000010
00000001
00000100
00001000
00010000
01000000
10000000
,
00100000
00000000
10010000
00000000
10000000
01000000
00010000
00000000
,
00010000
00000000
00011000
00000000
00001000
00000100
00000001
00000000
,
00000001
00000000
00001001
00000000
00000001
00000100
00001000
00000000
,
00001000
00011000
00010000
00011000
,
00001000
00000000
00011000
00000000
00010000
00100000
10000000
00000000
,
10000000
00000000
10010000
00000000
10000000
00100000
00010000
00000000
,
00010000
00000000
00011000
00000000
00001000
00000010
00000001
00000000
,
00001001
00000110
00001001
00000110
,
00000000
00001000
00000000
00001001
00000000
00000001
00000000
00000101
,
00000000
00000100
00000000
00001100
00000000
00001000
00010000
00001000
,
00000000
00001000
00000000
00011000
00000000
00010000
00000000
01010000
,
00000000
01000000
00000000
11000000
00000000
10000000
01000000
10000000
,
00000000
10000000
00000000
10010000
00000000
00010000
00000000
01010000
,
00000000
01000000
00000000
11000000
00000000
10000000
00000000
10000000
,
00020000
00000000
00000000
00000000
,
00030000
00200000
00000000
00000000
00000000
00000000
00300000
00000000
,
00010000
00100000
10000000
00000000
22000000
00000000
00000000
33000000
,
00000000
11000000
00000000
01000000
00100000
00010000
10000000
00000000
,
10000000
01000000
00010000
00000000
00022000
00000000
00000000
00033000
,
00000000
00011000
00000000
00001000
00000100
00000001
00000100
00000000
,
00001000
00000010
00000001
00000000
00000202
00000000
00000000
00000303
,
00000000
00000101
00000000
00000100
00000010
00001000
00000001
00000000
,
00000001
00000100
00001000
00000000
00022000
00000000
00033000
00000000
,
00001000
00000000
00000000
00010000
00000000
00000000
01000000
00000000
,
00000000
00010000
00000000
00000000
00001000
00000000
00000000
00000100
,
00000000
00000000
00001000
00000000
00000000
00010000
00000000
00000000
,
00001000
00010000
00001000
00011000
00000000
00000000
00000000
00000000
,
00000000
00000000
00000000
00000000
;

//---------------dance-double - ----------------
#NOTEDATA:;
#CHARTNAME:;
#STEPSTYPE:dance-double;
#DESCRIPTION:;
#CHARTSTYLE:;
#DIFFICULTY:Hard;
#METER:12;
#RADARVALUES:0.603267,0.643070,0.869054,0.171363,0.030601,345.000000,274.000000,71.000000,14.000000,0.000000,0.000000,0.000000,0.000000,0.000000,0.603267,0.643070,0.869054,0.171363,0.030601,345.000000,274.000000,71.000000,14.000000,0.000000,0.000000,0.000000,0.000000,0.000000;
#CREDIT:;
#DISPLAYBPM:182.000000;
#NOTES:
00000000
00000000
00000000
00000000
,
00000000
00000000
00000000
00000000
,
00000000
00000000
00000000
00000000
,
00000000
00000000
00000000
00000000
,
10100000
00000000
00000000
01010000
00000000
00000000
01100000
00000000
,
00000000
10010000
00000000
00000000
10000000
00010000
10000000
00010000
,
10000000
00010000
00010000
01100000
,
00100000
01000000
00010000
10000000
22000000
00000000
33000000
00000000
,
00000000
10100000
00000000
00100000
00010000
00001000
00010000
00000000
,
00010000
00001000
00000100
00000010
00002020
00000000
00003030
00000000
,
00000000
00000101
00000000
00000100
00001000
00010000
00001000
00000000
,
00000100
00000010
00001000
00000001
00000202
00000000
00000303
00000000
,
00000000
00000011
00000000
00000010
00001000
00010000
00001000
00000000
,
00001000
00010000
01000000
00100000
00110000
00000000
00000000
00000000
,
00100000
00010000
01000000
00001000
00010000
00000000
00011000
00000000
,
00000000
00011000
00000000
00110000
00000000
10100000
00000000
11000000
,
00000000
01010000
00000000
10010000
00000000
01100000
00000000
00110000
,
00000000
11000000
00000000
10100000
00000000
01010000
00000000
10010000
,
00000000
10000000
01000000
00010000
00000000
01000000
00010000
00001000
,
00000000
00011000
00000000
00001010
00000000
00000011
00000000
00000101
,
00000000
00001100
00000000
00001001
00000000
00000110
00000000
00001010
,
00000000
00000101
00000000
00000011
00000000
00001100
00000000
00001001
,
00000000
00000000
00000001
00000000
00000100
00000000
00001000
00000000
00010000
00000000
00000000
01000000
00000000
00000000
10000000
00000000
,
00100000
00000000
01000000
00000000
01100000
00000000
10000000
00100000
,
10000000
00010000
10000000
00000000
10010000
00000000
01000000
00000000
,
00010000
00000000
00001000
00000000
00011000
00000000
00001000
00100000
,
00001000
00000000
00000000
00010000
00000000
00000000
00001000
00000000
00000000
00000000
00000000
00000000
00001000
00000000
00010000
00000000
00001000
00000000
00010000
00000000
00001000
00000000
00010000
00000000
,
00001000
00000000
00000010
00000000
00000110
00000000
00000001
00000010
,
00000001
00001000
00000001
00000000
00001001
00000000
00000100
00000000
,
00001010
00011000
00110000
00011000
,
00000000
01010000
00000000
00000000
10010000
00000000
00000000
10100000
,
00000000
10000000
01000000
00010000
00001000
00000100
00000001
00000010
,
00000011
00000000
00000010
00001000
00010000
00000010
00001000
00000000
,
00001010
00000000
00000010
00010000
00001000
00010000
00100000
00000000
,
00110000
00000000
00100000
00010000
00001000
00100000
00010000
00000000
,
01100000
00000000
10010000
00000000
10000000
00100000
00010000
00000000
,
00110000
00000000
00100000
00010000
00001000
00100000
00010000
00000000
,
00110000
00000000
00100000
00001000
00010000
00001000
00000010
00000000
,
00001010
00000000
00000010
00001000
00010000
00000010
00001000
00000000
,
00000110
00000000
00001001
00000000
00000001
00000010
00001000
00000000
,
00000000
00000010
00000000
00001000
00000000
00010000
00000000
00000010
,
00000000
00001000
00000000
00000100
00000000
00010000
00001000
00010000
,
00000000
00100000
00000000
00010000
00000000
00001000
00000000
00100000
,
00000000
00010000
00000000
01000000
00000000
00001000
00010000
00001000
,
00000000
00001100
00000000
00001000
00000000
00011000
00000000
00010000
,
00000000
00110000
00000000
00010000
00000000
00011000
00000000
00010000
,
00002000
00000000
00000000
00000000
,
00003000
00020000
00000000
00000000
00000000
00000000
00030000
00000000
,
00100000
01000000
00010000
10000000
22000000
00000000
33000000
00000000
,
00000000
10100000
00000000
00100000
00010000
00001000
00010000
00000000
,
00010000
00001000
00000100
00000010
00002020
00000000
00003030
00000000
,
00000000
00000101
00000000
00000100
00001000
00010000
00001000
00000000
,
00000100
00000010
00001000
00000001
00000202
00000000
00000303
00000000
,
00000000
00000011
00000000
00000010
00001000
00010000
00001000
00000000
,
00001000
00010000
01000000
00100000
00110000
00000000
00000000
00000000
,
00010000
00100000
01000000
00010000
01000000
00010000
00001000
00010000
,
00001000
00000100
00001000
00000100
00000001
00000100
00000001
00000100
,
00001000
00000100
00001000
00010000
00001000
00010000
01000000
00010000
,
00001000
00010000
00001000
00011000
00000000
00000000
00000000
00000000
,
00000000
00000000
00000000
00000000
;

//---------------dance-single - ----------------
#NOTEDATA:;
#CHARTNAME:;
#STEPSTYPE:dance-single;
#DESCRIPTION:;
#CHARTSTYLE:;
#DIFFICULTY:Challenge;
#METER:13;
#RADARVALUES:0.723921,0.750248,0.575289,0.318245,0.134642,414.000000,367.000000,47.000000,26.000000,0.000000,0.000000,0.000000,0.000000,0.000000,0.723921,0.750248,0.575289,0.318245,0.134642,414.000000,367.000000,47.000000,26.000000,0.000000,0.000000,0.000000,0.000000,0.000000;
#CREDIT:;
#DISPLAYBPM:182.000000:187.000000;
#NOTES:
// measure 0
0000
0000
0000
0000
,  // measure 1
0000
0000
0000
0000
,  // measure 2
0000
0000
0000
0000
,  // measure 3
0000
0000
0000
0000
,  // measure 4
0010
2100
0000
3010
0102
0000
1003
2010
,  // measure 5
0000
3001
0012
0000
0103
0100
0100
0100
,  // measure 6
0110
0000
0110
0000
0110
0010
1000
0000
,  // measure 7
0001
0001
0001
0001
1000
0010
0100
0001
,  // measure 8
0000
2001
0000
3100
1000
1000
1000
0000
,  // measure 9
0010
0010
0010
0010
1000
0001
0100
0010
,  // measure 10
0000
0102
0000
0013
0001
0001
0001
0000
,  // measure 11
0010
0010
0010
0010
0001
0100
0010
1000
,  // measure 12
0000
1200
0000
0310
0100
0100
0100
0000
,  // measure 13
1000
1000
1000
1000
0001
1000
0100
0000
,  // measure 14
1000
0010
1000
0010
1000
0000
0001
0000
0202
0000
0000
0000
0303
0000
0000
0000
,  // measure 15
1001
0000
0010
1000
0100
0010
0100
1000
,  // measure 16
0010
0100
0001
0010
0100
1000
0001
1000
,  // measure 17
0010
1000
0001
0010
0100
1000
0010
0100
,  // measure 18
0000
0101
0101
0101
0000
1100
1100
1100
,  // measure 19
1000
0000
0001
1000
0100
0010
0001
0100
,  // measure 20
0010
0100
1000
0100
0001
1000
0010
0100
,  // measure 21
0001
0010
0100
1000
0010
1000
0100
0010
,  // measure 22
0000
0000
0001
0000
0001
0000
0001
0000
1000
0100
0000
1000
0100
0000
1000
0100
,  // measure 23
0020
0000
0031
0100
0010
1000
0100
0000
,  // measure 24
2000
0000
3010
0100
0001
0010
0100
0000
,  // measure 25
2000
0000
3001
1000
0010
0100
0010
0000
,  // measure 26
1000
0000
0000
0100
0000
0000
0010
0000
0000
0001
0000
0000
1000
0000
0100
0000
0010
0000
0001
0000
0100
0000
0010
0000
,  // measure 27
1000
0001
0010
1000
0100
0010
0001
0000
,  // measure 28
0100
0001
1000
0010
0001
1000
0100
0000
,  // measure 29
1100
0101
1001
1001
,  // measure 30
0001
0010
0100
1000
0010
0100
0001
1000
,  // measure 31
0000
1001
1100
0100
1000
1000
1000
1000
,  // measure 32
1001
0000
0010
1000
0100
0010
0001
0000
,  // measure 33
0110
0000
0010
1000
0001
1000
0100
0000
,  // measure 34
0011
0000
0100
0010
1000
0100
0010
0001
,  // measure 35
2000
0001
3000
0000
0200
0010
0300
0000
0020
0100
0030
0000
0002
1000
0003
0000
,  // measure 36
1001
0000
1000
0001
0010
0100
1000
0000
,  // measure 37
1100
0000
0010
1000
0001
0100
1000
0000
,  // measure 38
1100
0000
0001
1000
0100
0010
0100
1000
,  // measure 39
0002
1000
0003
0000
0020
0100
0030
0000
0200
0010
0300
0000
2000
0001
3000
0000
,  // measure 40
0010
1000
0010
0001
0010
1000
0010
0100
,  // measure 41
0010
1000
0010
0001
0010
0100
0010
0001
,  // measure 42
0010
1000
0010
0001
0010
0100
0010
0001
,  // measure 43
0010
0000
0100
0000
0010
0000
1000
0000
0010
0000
0100
0000
0001
1000
0001
0000
,  // measure 44
0010
0001
0010
1000
0010
0100
0010
1000
,  // measure 45
0010
0001
0010
1000
0010
0100
0010
0001
,  // measure 46
2002
0000
0000
0003
,  // measure 47
0000
0200
0000
0000
3300
0000
0101
0000
,  // measure 48
1000
1000
1000
1000
0010
0100
0001
1000
,  // measure 49
0000
0102
0000
1003
0100
0100
0100
0000
,  // measure 50
0010
0010
0010
0010
0001
0100
0010
1000
,  // measure 51
0000
1200
0000
0301
0100
0100
0100
0000
,  // measure 52
0100
0100
0100
0100
0100
1000
0010
0100
,  // measure 53
0000
1002
0000
0103
0010
0010
0010
0000
,  // measure 54
0100
0000
0000
0100
0000
0000
0100
0000
0000
0100
0000
0000
0100
0000
0001
0000
1000
0000
0010
0000
0100
0000
0001
0000
,  // measure 55
0010
0011
0000
1000
1100
0000
0010
1001
,  // measure 56
0000
0100
1010
0000
1000
0011
0000
0100
,  // measure 57
1010
0000
0001
0011
0000
0010
1100
0000
,  // measure 58
1010
1100
0011
1001
0000
0000
0000
0000
;
