#TITLE:MAXIMIZER;
#SUBTITLE:;
#ARTIST:CLI-MAX S.;
#TITLETRANSLIT:;
#SUBTITLETRANSLIT:;
#ARTISTTRANSLIT:;
#GENRE:;
#CREDIT:;
#BANNER:MAXIMIZER-bn.png;
#BACKGROUND:MAXIMIZER-bg.png;
#LYRICSPATH:;
#CDTITLE:;
#MUSIC:MAXIMIZER.ogg;
#OFFSET:0.000000;
#SAMPLESTART:6.947000;
#SAMPLELENGTH:20.000000;
#SELECTABLE:YES;
#DISPLAYBPM:190.000000;
#BPMS:0.000000=190.000000
;
#STOPS:
;
#BGCHANGES:;
#KEYSOUNDS:;
#ATTACKS:;

//---------------dance-single - ----------------
#NOTES:
     dance-single:
     :
     Hard:
     16:
     0.912536,1.033163,0.408163,0.000000,0.392857,626.000000,586.000000,40.000000,0.000000,0.000000,0.000000,0.912536,1.033163,0.408163,0.000000,0.392857,626.000000,586.000000,40.000000,0.000000,0.000000,0.000000:
0000
0000
0000
0000
,
0000
0000
0000
0000
,
0000
0000
0000
0000
,
1000
1000
1000
0100
0001
0001
0001
0100
,
1010
0101
0011
1100
,
1001
0000
0110
0000
1000
0010
0001
0100
,
0010
1000
0100
0001
0010
0100
1000
0010
,
0001
0100
0001
0010
1000
0001
1000
0010
,
0100
1000
0100
0001
0010
1000
0001
1000
,
0010
0100
0001
0010
1000
0001
1000
0100
,
0001
0010
0001
0100
0001
0010
1000
0001
,
1000
0001
0010
1000
0100
0010
0001
0100
,
0000
0101
0000
1010
0000
0101
0000
1000
,
0100
0001
0010
0100
1000
0010
1000
0001
,
0100
0010
1000
0001
0100
0000
0010
0000
1000
0000
0100
0000
1000
0000
0001
0000
,
1000
0010
0100
0001
1000
0000
0000
0000
0001
0000
0010
0000
1000
0000
0001
0000
,
1000
0010
0100
0010
1000
0100
0001
0010
,
0001
0100
0001
0010
1000
0001
1000
0001
,
0010
0100
0010
0001
0100
1000
0001
0010
,
1000
0001
1000
0100
0010
0001
0100
1000
,
0000
1100
0000
0011
0000
1100
0000
0001
,
0100
0010
1000
0001
0100
0010
1000
0100
,
0001
0100
0001
0010
1000
0001
0000
0110
,
0000
1001
0000
0010
1000
0001
0000
0010
,
0001
0100
0001
0010
1000
0001
0000
1100
,
0000
0000
0011
0000
0000
0000
0100
0010
1000
0000
0010
0000
1000
0000
0100
0000
,
0000
0010
0001
0100
0000
1001
0000
0011
,
0000
0000
1000
0100
0010
0000
0001
0000
0000
0000
0100
0000
0010
0000
1000
0000
,
0000
0001
0010
1000
0000
0100
0010
0100
,
1000
0000
0001
0000
1000
0010
0001
0100
1000
0000
0010
0000
0001
0000
0100
0000
,
0001
0010
0001
1000
0001
0010
1000
0010
,
0001
1000
0001
0010
0001
0100
1000
0010
,
0001
1000
0001
0100
0001
0010
0100
1000
,
0010
0000
0100
0000
0110
0000
0001
0000
1000
0000
1100
0000
0000
0000
0001
0010
,
0100
0000
1000
0000
1010
0000
0100
0000
0001
0000
0011
0000
0000
0000
1000
0001
,
0010
0000
0100
0000
1100
0000
0010
0000
0100
0000
1001
0000
0000
0000
0010
0001
,
1000
0000
0010
0000
0100
0000
0001
0000
0010
0000
1000
0000
0001
0000
0010
0100
,
1000
0010
0100
0001
0010
0000
0000
0000
0000
0000
0000
0000
1000
0100
0001
0010
,
0000
0000
0000
0000
1001
0000
0000
0000
0010
0000
1000
0100
0010
0000
0001
0100
,
0010
0000
1000
0100
0001
0000
0000
0000
0010
0000
0001
0100
0010
0000
1000
0100
,
0010
0000
0001
1000
0100
0000
0000
0000
0010
0000
0001
1000
0010
0000
1000
0100
,
0010
0000
0001
1000
0100
0000
0000
0000
1000
0000
0010
0100
0001
0000
0010
0001
,
0100
0000
1000
0001
0010
0000
0000
0000
0100
0000
1000
0010
0100
0000
0010
1000
,
0001
0000
0010
0001
0100
0000
0000
0000
0001
0000
0010
1000
0100
0000
1000
0001
,
0010
0000
0001
0100
1000
0000
0000
0000
0010
0000
1000
0100
0001
0000
0010
0100
,
1000
0001
0101
0000
1010
0000
1100
0000
,
0001
1000
0001
1000
0001
0000
0000
0000
0010
0000
0001
0000
0100
0000
1000
0000
,
0001
0000
0010
0000
1000
0000
0001
0000
1000
0000
0100
0000
0001
0000
0010
0100
,
1000
0000
0001
0000
0110
0000
0000
0000
1001
0000
0000
0000
0100
0000
0001
0010
,
0001
1000
0100
0001
0010
1000
0001
0100
,
0110
1000
0100
0001
0010
0001
1000
0010
,
0000
0000
1000
0000
0100
0000
0001
0000
0000
0000
0010
0001
0010
0000
0100
0000
,
1100
0000
0101
0000
1000
0010
0001
0010
,
0100
1000
0001
0010
1000
0100
0011
0000
,
1000
0001
0010
1000
0100
0001
0000
0010
,
0100
0000
1000
0000
0000
0000
0001
0100
0001
0000
1000
0000
0110
0000
0000
0000
,
1010
0000
0000
0000
0000
0000
0100
0000
0001
0000
0010
0000
1000
0001
0010
0001
,
1000
0000
0000
0000
0000
0000
0100
0000
0000
0000
0000
0000
0010
0000
0000
0001
0000
0000
0010
0000
0000
0100
0000
0000
1000
0000
0000
0000
0000
0000
0001
0000
0000
0000
0000
0000
1000
0000
0000
0000
0100
0000
0000
0000
1000
0000
0000
0000
,
0001
0000
0100
0000
0001
0000
1000
0000
0100
0000
1000
0000
0001
0000
0100
0000
0001
0000
0010
0000
0000
1000
0000
0000
,
0100
0001
1000
0001
0010
0100
0010
0001
,
0100
0000
0001
0000
0010
0000
1000
0100
0001
0000
1000
0000
0000
0000
0010
0000
,
1000
0001
0010
1000
0001
1000
0010
0100
,
0010
0000
0100
0000
0010
0000
1000
0001
0010
0000
0100
1000
0001
0000
0100
0000
,
0001
0010
1000
0001
0100
0010
0100
0001
,
0010
0000
1000
0000
0001
0000
0010
0001
0100
0000
1000
0000
0000
0000
0001
0000
,
0010
0001
0100
0010
1000
0100
1001
0010
,
0000
0101
0000
1000
0100
0010
1010
0001
,
0010
0000
1000
0000
0001
0000
0100
0000
0010
0000
0100
0000
0001
0000
1000
0010
,
0100
0000
0001
0000
0010
0000
0100
1000
0001
0000
0100
0000
0010
0000
1000
0000
,
0001
0000
0010
0000
0001
0000
0100
0010
1000
0000
0001
0000
0010
0000
0100
0000
,
1000
0000
0010
0000
0001
0000
0100
0010
0100
0001
0010
0100
1000
0000
0001
0000
,
0010
0000
0001
0000
0100
0000
0010
0000
1000
0100
0010
0001
0100
0000
0010
0000
,
0100
0000
0001
0000
0010
0100
1000
0010
0001
0000
0100
0000
0001
0000
0010
0000
,
1000
0000
0001
0000
0010
0000
1000
0100
0010
0000
0001
0000
0100
0001
0100
0001
,
1000
0100
1000
0100
0010
0001
0010
0001
1000
0010
1000
0010
0100
0000
0010
0000
,
0101
0000
0000
0000
;

//---------------dance-single - ----------------
#NOTES:
     dance-single:
     :
     Medium:
     12:
     0.688047,0.727041,0.653061,0.306122,0.025510,472.000000,408.000000,64.000000,30.000000,0.000000,0.000000,0.688047,0.727041,0.653061,0.306122,0.025510,472.000000,408.000000,64.000000,30.000000,0.000000,0.000000:
0000
0000
0000
0000
,
0000
0000
0000
0000
,
0000
0000
0000
0000
,
1000
0001
1000
0001
1000
0001
1000
0001
,
0100
0100
0100
0100
,
1001
0000
0110
0000
1000
0010
0001
0100
,
0000
0110
0000
1010
0000
0101
0000
0001
,
0010
0100
1000
0010
0100
0001
1000
0001
,
0000
0011
0000
0110
0000
1100
0000
0010
,
1000
0001
1000
0100
0010
0001
0100
0010
,
0000
1001
0000
1010
0000
1100
0000
1000
,
0100
0010
0001
0100
0001
0010
0100
1000
,
0000
1001
0000
0101
0000
0011
0000
0010
,
0001
0100
0001
0010
0100
1000
0001
1000
,
0010
0100
0010
0100
0010
0000
1000
0000
0000
0000
0100
0000
0000
0000
0001
0000
,
0010
0100
0010
0100
0010
0000
0000
0000
0001
0000
1000
0000
0001
0000
0010
0000
,
0000
1001
0000
0110
0000
1010
0000
0100
,
0001
0010
0001
1000
0001
0010
0100
1000
,
0000
0110
0000
0011
0000
0101
0000
1000
,
0001
0010
0001
0100
0010
1000
0100
0010
,
0000
0011
0000
1001
0000
1100
0000
0001
,
1000
0000
0101
0000
0010
0100
0010
1000
,
0000
0001
0000
1000
0100
0001
0000
0010
,
0000
0001
0000
0100
0001
0010
0000
1000
,
0100
1000
0000
0001
0100
0001
0000
0010
,
0000
0100
0000
1000
0001
0100
0000
0010
,
0000
0100
0001
1000
0000
0001
0000
0010
,
0000
1000
0100
0001
0000
0010
0000
0001
,
0000
0100
0001
1000
0000
0010
1000
0100
,
0000
1000
0002
0000
0013
0001
0100
0001
,
0000
1000
0010
0100
0000
0001
0010
1000
,
0000
0100
0010
0001
0000
0100
1000
0010
,
0000
1000
0001
0010
0000
0001
0100
1000
,
0000
0010
1000
0100
0000
0011
0000
0001
,
0100
1000
0010
0100
0000
1010
0000
1000
,
0100
0010
0001
0100
0000
0101
0000
0010
,
1000
0001
0000
1100
0000
0101
0000
0010
,
1000
0000
0001
0000
0200
0000
0000
0000
0300
0000
0000
0000
0001
1000
0002
0000
,
0003
0000
1001
0000
0010
1000
0100
0010
,
0001
0100
0001
0000
0010
0001
0100
0010
,
1000
0100
0001
0000
1000
0001
0010
0001
,
1000
0100
0010
0000
0001
0100
0010
0100
,
0001
1000
1100
0000
0010
0001
0100
0001
,
1000
0010
1010
0000
0010
1000
0001
0010
,
0001
0100
0101
0000
1000
0001
0010
0100
,
1000
0001
1001
0000
0110
0000
1001
0000
,
0100
0001
0100
0000
0010
2000
0000
3002
,
0000
0023
0000
0230
0000
2300
0000
3010
,
1000
0001
0100
0000
1010
0000
0000
0002
,
0000
0023
0000
0032
0000
0203
0000
0310
,
1000
0000
0100
0020
0000
0032
0000
2003
,
0000
3002
0000
0203
0000
0301
0010
1000
,
0100
0000
0011
0000
0000
2000
0000
3002
,
0000
0023
0000
0230
0000
1300
1001
0000
,
0010
2000
0000
3200
0000
0320
0000
0032
,
0000
0203
0000
0301
0010
1000
0100
0000
,
0110
0000
0000
0002
0000
0023
0000
0230
,
0000
2300
0000
3010
1000
0001
0101
0000
,
1100
0000
0101
0000
1100
0000
0001
0010
,
0000
1000
0000
0001
0100
0010
0000
1000
,
0000
0100
0000
1000
0010
0001
0000
0100
,
0000
0010
0000
0100
0001
0010
0000
1000
,
0000
0100
0000
1000
0010
0001
0000
0100
,
0001
0100
0000
0001
0010
1000
0000
0100
,
0010
0001
0000
0100
0010
0100
0000
0001
,
0010
1000
0000
0100
0010
0001
1001
0000
,
0000
1010
0000
0001
0100
1000
0010
0110
,
0000
0101
0000
0011
0000
1100
0000
1001
,
0000
1010
0000
1000
0100
0001
0000
0011
,
0000
1001
0000
0011
0000
0110
0000
1100
,
0000
0101
0000
0010
1000
0001
0000
0100
,
0010
0100
0001
0010
0100
1000
0001
0000
,
1000
0010
1000
0001
0010
0100
1000
1001
,
0000
1010
0000
0101
0000
0011
1000
0100
,
0010
0001
0000
0100
0010
1000
1100
0000
,
0101
0000
0000
0000
;

//---------------dance-single - ----------------
#NOTES:
     dance-single:
     :
     Easy:
     8:
     0.488338,0.612245,0.326531,0.040816,0.000000,335.000000,303.000000,32.000000,4.000000,0.000000,0.000000,0.488338,0.612245,0.326531,0.040816,0.000000,335.000000,303.000000,32.000000,4.000000,0.000000,0.000000:
0000
0000
0000
0000
,
0000
0000
0000
0000
,
0000
0000
0000
0000
,
1000
1000
0001
0001
,
0100
0010
0100
0010
,
1001
0110
1000
0010
,
1000
0100
0001
0001
,
0010
0100
1000
0000
0010
0000
1000
0000
,
0001
1000
0100
0100
,
0010
0001
1000
0000
0001
0000
1000
0000
,
0001
0100
0010
0010
,
1000
0100
0001
0000
0010
0000
0001
1000
,
0000
0010
0000
1000
0000
0100
0000
1000
,
0001
1001
0010
1000
,
0001
0100
0001
0000
0010
0000
0001
0000
,
1000
0100
1000
0000
0001
0000
1000
0000
,
0100
0010
0001
0001
,
1000
0100
0010
0000
0100
0000
1000
0000
,
0001
1000
0010
0010
,
1000
0100
0001
0000
0010
0000
0100
0010
,
0000
0001
0000
1000
0000
0001
0000
0010
,
0100
0000
0110
0000
1000
0001
0000
0100
,
0000
0010
0000
0100
0000
0001
0000
0010
,
0000
0001
0000
1000
0000
0100
0000
1000
,
0000
0010
0000
1000
0000
0001
0000
0010
,
0000
0001
0000
1000
0000
0010
0000
1000
,
0000
0100
0000
0001
0000
1000
0000
0010
,
0000
1000
0000
0100
0000
0010
0000
0001
,
0000
0100
0000
0010
0000
1000
0000
0001
,
0000
1000
0200
0000
0310
0001
0000
0001
,
0000
0100
0000
0010
0000
0100
0000
0001
,
0000
0010
0000
1000
0000
0100
0000
1000
,
0000
0010
0000
1000
0000
0100
0000
0001
,
0000
1000
0010
0000
0000
1010
0000
0000
,
0001
0100
1000
0000
0000
1100
0000
0000
,
0010
0001
0100
0000
0000
0101
0000
0000
,
1000
0001
0000
0010
0000
0001
0000
1000
,
0020
0200
0030
0020
,
0330
1001
0010
1000
,
0100
1000
0010
1000
,
0001
0100
0010
1000
,
0100
0001
0010
1000
,
0001
0000
0101
0000
0010
0000
1000
0001
,
0100
0000
1010
0000
0001
0000
1000
0100
,
0010
0000
0011
0000
0100
0000
0010
1000
,
0001
1001
0110
1001
,
0110
0000
1001
0000
0010
1000
0000
0001
,
0000
1000
0000
0100
0000
0010
0000
0001
,
1000
0000
0101
0000
1010
0000
0000
0010
,
0000
1000
0000
0100
0000
0010
0000
0000
,
0011
0000
0100
0001
0000
0010
0000
1000
,
0000
0100
0000
1000
0000
0001
0100
0000
,
0110
0000
1001
0000
0000
0010
0000
1000
,
0000
0100
0000
0001
0000
0000
1010
0000
,
0000
0100
0000
0001
0000
1000
0000
0001
,
0000
1000
0000
0000
0100
0000
1100
0000
,
0011
0000
0000
1000
0000
0001
0000
1000
,
0000
0010
0000
0100
0000
0000
0101
0000
,
1100
0000
0101
0000
1100
0000
0000
1000
,
0000
0010
0000
1000
0000
0100
0000
0010
,
0000
0001
0000
0100
0010
0100
0000
0001
,
0000
0010
0000
1000
0000
0001
0000
1000
,
0000
0010
0000
1000
0100
1000
0000
0010
,
0000
0001
0000
0100
0000
1000
0000
0001
,
0000
1000
0000
0010
0100
0010
0000
1000
,
0000
0100
0000
0010
0000
0000
0011
0000
,
0000
1100
0000
0000
0101
0000
0000
1000
,
0000
0001
0000
0010
0000
0001
0000
0100
,
0000
1000
0000
0001
0010
0100
0000
0010
,
0000
0001
0000
0100
0000
1000
0000
0010
,
0000
1000
0000
0100
1000
0001
0000
0010
,
0000
0001
0000
0100
0000
0010
0000
1000
,
0000
0100
0000
1000
0001
0000
0000
0010
,
0000
0100
0000
1000
0000
0010
1000
0000
,
0100
0000
0010
0001
0100
0010
0000
0000
,
1001
0000
0000
0000
;

//---------------dance-single - ----------------
#NOTES:
     dance-single:
     :
     Beginner:
     5:
     0.223032,0.267857,0.061224,0.040816,0.000000,153.000000,147.000000,6.000000,4.000000,0.000000,0.000000,0.223032,0.267857,0.061224,0.040816,0.000000,153.000000,147.000000,6.000000,4.000000,0.000000,0.000000:
0000
0000
0000
0000
,
0000
0000
0000
0000
,
0000
0000
0000
0000
,
1000
0000
0001
0000
,
0100
0100
0100
0100
,
0100
0000
0010
0010
,
0000
1000
0000
0100
,
0000
0010
0000
0001
,
0000
1000
0000
0001
,
0000
0100
0000
0001
,
0000
0010
0000
0100
,
0000
1000
0000
0010
,
0000
1000
0000
0001
,
0000
1000
1000
0000
,
0010
0000
0100
0000
,
0001
0000
1000
1000
,
0000
0010
0000
1000
,
0000
0100
0000
0010
,
0000
0001
0000
0100
,
0000
0010
0000
1000
,
0000
0001
0000
1000
,
0000
0100
0000
0000
,
0010
0000
0010
0000
,
0001
0000
1000
0000
,
0001
0000
1000
0000
,
0010
0000
0100
0000
,
0010
0000
0100
0000
,
0001
0000
1000
0000
,
0001
0000
1000
0000
,
0001
0001
0001
0000
,
0100
0000
0010
0000
,
1000
0000
0100
0000
,
1000
0000
0010
0000
,
1000
2000
0000
3000
,
0000
0002
0000
0003
,
0000
0200
0000
0300
,
0000
0010
0000
1000
,
0000
0010
0000
0110
,
0000
1001
0000
0100
,
0000
0001
0000
0010
,
0000
0001
0000
0100
,
0000
1000
0000
0010
,
0000
0110
0000
0000
,
0000
1001
0000
0000
,
0000
0110
0000
0000
,
0000
1000
1000
1000
,
0000
0001
0000
0010
,
0000
1000
1000
1000
,
0000
0001
0001
0000
,
1000
0000
0010
0000
,
0100
0000
0001
0000
,
0010
0010
0010
0000
,
0100
0100
0000
1000
,
0000
0001
0000
1000
,
0000
0010
0000
1000
,
0000
0001
0000
0100
,
0100
0000
0000
0010
,
0000
0100
0000
0020
,
0000
0000
0030
0000
,
1000
0000
0001
0000
,
0010
0000
0001
0000
,
0100
0000
0010
0000
,
0100
0000
0001
0000
,
0010
0000
1000
0000
,
0010
0000
0100
0000
,
0010
0000
1000
1000
,
0000
0000
0001
0001
,
0000
0010
0000
0001
,
0000
0100
0000
0010
,
0000
1000
0000
0100
,
0000
0010
0000
0001
,
0000
0001
0000
1000
,
0000
1000
0000
0001
,
0000
0100
0000
0010
,
0000
1000
1000
0000
,
1001
0000
0000
0000
;

//---------------dance-single - ----------------
#NOTES:
     dance-single:
     :
     Challenge:
     18:
     1.160350,1.415816,0.326531,0.000000,1.117347,796.000000,764.000000,32.000000,0.000000,0.000000,0.000000,1.160350,1.415816,0.326531,0.000000,1.117347,796.000000,764.000000,32.000000,0.000000,0.000000,0.000000:
// measure 0
0000
0000
0000
0000
,  // measure 1
0000
0000
0000
0000
,  // measure 2
0000
0000
0000
0000
,  // measure 3
1000
0000
1000
0000
1000
0000
0100
0000
0001
0000
0001
0000
0001
0010
0100
0000
,  // measure 4
1100
0000
0011
0000
0101
0000
1010
0100
,  // measure 5
1001
0000
0000
0000
0110
0000
0000
0000
1000
0100
0010
0000
1000
0000
0001
0000
,  // measure 6
0010
0100
1000
0010
0100
0001
0010
0100
,  // measure 7
1000
0010
0100
0000
0001
0000
1000
0000
0001
0100
0010
0000
1000
0000
0001
0000
,  // measure 8
1000
0010
0100
0001
0010
0100
0010
0001
,  // measure 9
0100
0010
1000
0000
0001
0000
0010
0000
0100
1000
0001
0000
0010
0000
1000
0000
,  // measure 10
0100
0010
0100
1000
0010
0001
1000
0010
,  // measure 11
0100
0001
1000
0000
0100
0000
0010
0000
0001
1000
0010
0000
1000
0000
0100
0000
,  // measure 12
0010
0001
0100
0010
0100
0001
0010
1000
,  // measure 13
0100
0001
1000
0000
0010
0100
0001
0000
0010
0100
1000
0000
0001
0000
0100
0000
,  // measure 14
0001
0010
1000
0010
0001
0000
0100
0000
0010
0000
1000
0000
0100
0000
0010
0000
,  // measure 15
0001
0100
1000
0100
0001
0000
0000
0000
1000
0010
0100
0010
1000
0000
0001
0000
,  // measure 16
0010
1000
0100
0010
0100
1000
0010
0001
,  // measure 17
1000
0010
0100
0000
0001
1000
0010
0000
1000
0001
0010
0001
1000
0000
0100
0000
,  // measure 18
0010
0001
0100
0010
0100
1000
0100
0010
,  // measure 19
1000
0100
0001
0000
0010
0100
1000
0000
0001
1000
0100
1000
0001
0000
0010
0000
,  // measure 20
1000
0100
1000
0010
0100
0001
0010
0100
,  // measure 21
1000
0010
1000
0000
0100
0010
0001
0100
0010
0000
1000
0000
0001
0000
0100
0000
,  // measure 22
0010
0000
0100
0000
0001
0000
0010
0100
1000
0000
0001
0000
1000
0000
0010
0000
,  // measure 23
0001
0000
0100
0000
0001
0000
0010
1000
0100
0000
0001
0000
1000
0000
0001
0000
,  // measure 24
0010
0000
0100
0000
1000
0010
0100
0001
1000
0000
0100
0000
0010
0000
0001
0000
,  // measure 25
0100
0000
1000
0000
0001
0100
0010
1000
0001
0000
0010
0100
1000
0000
0010
0000
,  // measure 26
0100
0000
0001
0010
1000
0000
0001
0000
0100
0000
0001
0010
0100
0000
1000
0000
,  // measure 27
0001
0100
0010
1000
0100
0010
0001
0000
1000
0000
0010
1000
0100
0000
0001
0000
,  // measure 28
0010
0000
0100
0010
0001
0000
0100
0000
1000
0000
0010
0000
1000
0000
0100
0000
,  // measure 29
0001
0010
0100
1000
0001
0010
1000
0100
0001
0000
0010
0001
0100
0000
0001
0010
,  // measure 30
1000
0000
0100
0010
0001
0000
0100
0000
0010
0000
1000
0001
0010
0000
0100
0010
,  // measure 31
0001
0000
0100
1000
0001
0000
0100
0000
0010
0000
1000
0001
0010
0000
0001
0100
,  // measure 32
0010
0000
1000
0010
0001
0000
0100
0000
0010
0000
1000
0001
0010
0000
0100
0000
,  // measure 33
1000
0010
0100
0001
0010
0000
0001
0100
0010
0000
1010
0000
0000
0000
1000
0100
,  // measure 34
0010
0000
0001
0000
0110
0000
0001
0010
1000
0000
1100
0000
0000
0000
0010
0001
,  // measure 35
0100
0000
1000
0000
1001
0000
0010
0001
1000
0000
0101
0000
0000
0000
0001
0010
,  // measure 36
1000
0100
0010
0001
0100
0010
1000
0100
,  // measure 37
0001
0000
1000
0000
0001
0000
1000
0000
0001
0000
1000
0000
0010
0000
0000
0000
0000
0000
0000
0000
0000
0000
0000
0000
0000
0000
0000
0000
0000
0000
0000
0000
0000
0000
0000
0000
1000
0000
0100
0010
0001
0000
1000
0000
0100
0010
0001
0000
,  // measure 38
0000
0000
0000
0000
1001
0000
0000
0000
0010
1000
0010
0100
0001
0010
0100
1000
,  // measure 39
0010
1000
0100
0010
0001
0000
0000
0000
1000
0010
0100
0001
0010
0100
0010
0001
,  // measure 40
0100
0010
1000
0100
0001
0000
0000
0000
0010
0100
1000
0010
1000
0001
0010
0100
,  // measure 41
0010
0001
0100
0010
1000
0000
0000
0000
0001
0010
0001
0100
0001
0010
0100
1000
,  // measure 42
0010
1000
0100
0010
0001
0000
0000
0000
1000
0010
0001
0100
0001
0010
0100
1000
,  // measure 43
0010
0100
1000
0001
0010
0000
0000
0000
0100
0010
0001
0100
1000
0001
0010
1000
,  // measure 44
0001
0100
0010
0100
1000
0000
0000
0000
0001
0010
1000
0001
1000
0100
0001
0010
,  // measure 45
0100
0010
0100
0001
1000
0000
0000
0000
1100
0000
0000
0000
0101
0000
0100
0000
,  // measure 46
0010
0000
1000
0000
1001
0000
0100
0000
0010
0000
1010
0000
1000
0000
0100
0010
,  // measure 47
0001
0000
0100
0000
0010
0000
1000
0001
0010
0000
0001
0100
0010
0000
1000
0100
,  // measure 48
0001
0000
0010
0000
0101
0000
0000
0000
0011
0000
0000
0000
1000
0100
0001
0000
,  // measure 49
0010
0100
1000
0000
0001
1000
0010
0000
0100
0010
1000
0000
0001
0010
1000
0000
,  // measure 50
0110
0000
0001
0000
0010
0000
1100
0000
1000
0010
1000
0000
0100
0010
0001
0000
,  // measure 51
0100
0000
0001
0010
1000
0000
0100
0010
0001
0000
0100
1000
0001
0000
0100
0000
,  // measure 52
1010
0000
0000
0000
0011
0000
0000
0000
1000
0100
0001
0000
0010
0100
0001
0000
,  // measure 53
1000
0001
0010
0000
0100
1000
0010
0000
0100
0001
0010
0000
1100
0000
0010
0000
,  // measure 54
0100
0000
1001
0000
0000
0000
0010
1000
0100
0000
0011
0000
0000
0000
0100
0010
,  // measure 55
1000
0000
1010
0000
0000
0000
0001
0010
0100
0000
1000
0000
0110
0000
0000
0000
,  // measure 56
0101
0000
0000
0000
1000
0010
1000
0000
0100
0010
0001
0000
0100
1000
0010
0000
,  // measure 57
1000
0000
0000
0100
0000
0000
0001
0000
0000
0000
0000
0000
0010
0000
0000
0001
0000
0000
0100
0000
0000
0000
0000
0000
0010
0000
0000
1000
0000
0000
0100
0000
0000
0000
0000
0000
0001
0000
0000
0010
0100
0000
1000
0000
0100
0010
0000
0000
,  // measure 58
0001
0000
0000
0010
0100
0000
1000
0000
0100
0010
0000
0000
0001
0000
0000
0010
0100
0000
1000
0000
0100
0010
0000
0000
0001
0000
0000
0010
0100
0000
1000
0000
0100
0010
0000
0000
0001
0000
0000
0000
0000
0000
1000
0000
0000
0100
0000
0000
,  // measure 59
0001
0000
0010
0000
0100
0000
1000
0010
0100
0000
0001
0000
0010
0000
1000
0001
,  // measure 60
0100
0000
0010
0000
1000
0000
0100
0010
0001
0000
0100
0010
1000
0000
0001
0010
,  // measure 61
1000
0000
0100
0000
0010
0000
0001
0100
0001
0000
0010
0000
1000
0000
0100
1000
,  // measure 62
0010
0000
0001
0000
0010
0000
1000
0100
0001
0000
0010
1000
0001
0000
0100
0001
,  // measure 63
0010
0000
0100
0000
1000
0000
0001
1000
0100
0000
0010
0000
0100
0000
1000
0001
,  // measure 64
0010
0000
1000
0000
0100
0000
0010
0001
0100
0000
0001
0010
1000
0000
0100
0010
,  // measure 65
0100
0000
1000
0000
0010
0000
0001
0100
0010
1000
0100
0010
0001
0000
0101
0000
,  // measure 66
1000
0000
1010
0000
0010
0100
0001
1000
0100
0010
0001
0100
1000
0000
0001
0010
,  // measure 67
0001
0000
0100
0010
0100
0000
0001
0010
1000
0000
0100
0010
0100
0000
1000
0010
,  // measure 68
1000
0000
0001
1000
0001
0000
0010
0100
1000
0000
0010
1000
0100
0000
1000
0100
,  // measure 69
0001
0000
1000
0100
0010
0000
0100
1000
0010
0000
0100
0001
0100
0000
0001
0010
,  // measure 70
1000
0000
0001
0010
0100
0000
1000
0010
0001
0000
1000
0100
0010
0000
0001
0100
,  // measure 71
0010
0000
0100
0001
1000
0000
0001
0010
1000
0000
0100
0010
0100
0000
1000
0001
,  // measure 72
0100
0000
0001
0010
1000
0000
0100
0010
0001
0000
0100
0010
1000
0000
0001
0010
,  // measure 73
1000
0000
0001
1000
0010
0000
1000
0100
0001
0000
0010
0000
1000
0001
0100
0100
,  // measure 74
0010
0100
0010
0001
0010
0001
0001
1000
1000
0100
1000
0010
0110
0000
0100
0010
,  // measure 75
1001
0000
0000
0000
;
