#TITLE:MAX 300 takamatt MIN REMIX;
#SUBTITLE:;
#ARTIST:takamatt;
#TITLETRANSLIT:;
#SUBTITLETRANSLIT:;
#ARTISTTRANSLIT:;
#GENRE:;
#CREDIT:;
#BANNER:MAX 300 takamatt MIN REMIX-bn.png;
#BACKGROUND:MAX 300 takamatt MIN REMIX-bg.png;
#LYRICSPATH:;
#CDTITLE:;
#MUSIC:MAX 300 takamatt MIN REMIX.ogg;
#OFFSET:0.000000;
#SAMPLESTART:70.587997;
#SAMPLELENGTH:20.000000;
#SELECTABLE:YES;
#DISPLAYBPM:34.000000:272.000000;
#BPMS:0.000000=136.000000
,64.000000=68.000000
,72.000000=272.000000
,104.000000=136.000000
,136.000000=34.000000
,140.000000=272.000000
,164.000000=136.000000
,200.000000=272.000000
,264.000000=136.000000
;
#STOPS:
;
#BGCHANGES:;
#KEYSOUNDS:;
#ATTACKS:;

//---------------dance-single - ----------------
#NOTES:
     dance-single:
     :
     Challenge:
     15:
     0.745774,0.934136,0.684645,0.171161,0.408885,549.000000,477.000000,72.000000,18.000000,0.000000,0.000000,0.745774,0.934136,0.684645,0.171161,0.408885,549.000000,477.000000,72.000000,18.000000,0.000000,0.000000:
0000
0000
0000
0000
,
0000
0000
0000
0000
,
0000
0000
0000
0000
,
0000
0000
0000
0000
,
0102
0000
0000
0000
1000
0000
1003
0100
0010
0000
0001
0000
0100
0000
0001
0000
,
0010
0000
0001
0000
0100
0000
0010
0000
1000
0100
1000
0100
1000
0000
0001
0000
,
1020
0000
0000
0000
0100
0000
0130
0010
1000
0000
0001
0000
0010
0000
0001
0000
,
0100
0000
0001
0000
0010
0000
0100
0000
1000
0001
1000
0001
1000
0000
0010
0000
,
0110
0000
0010
0000
0101
0000
0001
0010
0100
0000
1000
0000
0001
0000
0100
0000
,
0001
0000
0010
0000
0100
0000
1000
0000
0010
1000
0001
1000
0100
0000
0010
0000
,
0011
0000
0001
0000
1001
0000
1000
0100
0010
0000
0001
0000
0100
0000
0010
0000
,
1000
0000
0001
0000
0010
0000
0100
0000
1000
0010
0100
0010
1000
0000
0001
0000
,
0010
0000
0001
0100
0001
0000
1000
0000
0010
0000
0100
0010
1000
0000
0001
0000
,
0010
0000
0001
1000
0001
0000
0010
0000
0100
1000
0100
1000
0100
0000
0010
0000
,
0001
0000
1000
0100
1000
0000
0010
0000
0100
0000
0001
0010
0001
0000
1000
0000
,
0010
0000
0000
0000
0000
0000
0100
0000
0000
0001
0000
0000
0100
0000
0000
0000
0000
0000
0010
0000
0000
0000
0000
0000
1000
0000
0000
0001
0000
0000
0100
0000
0000
0010
0000
0000
1000
0000
0000
0000
1000
0000
0000
0000
1000
0000
0000
0000
,
2001
0000
0010
0000
3001
0010
0100
1000
0010
0100
0001
1000
0100
1000
0001
0000
,
0012
0000
0100
0000
1003
0001
0100
0010
1000
0100
0010
0001
1000
0001
0010
0000
,
0001
0000
1000
0100
0001
0100
1000
0000
,
0010
0000
0100
0001
1000
0001
0100
0000
,
0010
0000
1000
0100
0010
0100
1000
0000
,
0001
0010
0001
0000
1000
0010
1000
0000
,
0100
0000
1000
0010
0001
0010
1000
0000
,
0001
0000
0010
0100
1000
0100
1000
0000
,
0010
0000
1000
0001
0010
0100
1000
0000
,
0010
0010
0000
0000
1010
0000
1000
0001
,
0100
0000
0000
0000
0110
0000
0000
0010
1000
0100
1000
0000
0001
0010
0001
0000
,
1000
0100
0000
0010
0000
0001
0100
0000
0101
0000
1001
0000
1100
0000
0000
0000
,
0010
0000
0000
0000
0110
0000
0000
0010
1000
0001
0100
0000
0001
1000
0100
0000
,
1000
0000
0000
0010
0000
0000
0000
0000
0000
0100
0000
0000
0000
0000
0000
0001
0000
0000
1000
0000
0000
0000
0000
0000
0001
0000
0000
1000
0000
0000
0100
0000
0000
0000
0000
0000
0010
0000
0000
0000
0010
0000
0000
0000
0010
0000
0000
0000
,
0001
0000
0000
0000
0101
0000
0000
0100
0010
1000
0001
0000
1000
0100
0010
0000
,
0001
0100
0000
0010
0000
1000
0001
0000
1001
0000
1010
0000
1100
0000
0000
0000
,
0010
0000
0000
0000
1010
0000
0000
1000
0100
0010
0001
0000
0100
0001
1000
0000
,
0010
0000
0000
1000
0000
0000
0000
0000
0000
0100
0000
0000
0000
0000
0000
0010
0000
0000
0001
0000
0000
0000
0000
0000
0010
0000
0000
0001
0000
0000
1000
0000
0000
0000
0000
0000
0100
0000
0000
0000
0100
0000
0000
0000
0100
0000
0000
0000
,
2200
0000
0000
0000
0300
0000
0000
0000
0001
0001
0001
0001
0001
0001
0001
0001
,
3001
0100
0001
0000
1000
0100
1000
0000
,
0001
0010
0001
0000
1000
0010
1000
0000
,
0010
0100
0010
0000
0100
0010
0100
0000
,
0001
1000
0001
0000
1000
0001
1000
0000
,
0010
0100
0001
1000
0010
1000
0100
0001
,
0100
1000
0001
0010
0100
0001
0010
2000
,
0002
0000
0000
0000
0003
0000
0000
0000
3010
0100
0010
0100
0001
1000
0001
1000
,
0100
0000
0000
1100
0000
0000
0101
0000
0000
0000
0000
1010
0000
0000
0011
0000
,
0000
0000
0000
1001
0000
0000
0110
0000
1010
0000
0101
0000
1100
0000
0011
0000
,
0101
0000
0000
0110
0000
0000
1010
0000
0000
0000
0000
1100
0000
0000
0011
0000
,
0000
0000
0000
1001
0000
0000
0110
0000
1010
0000
1100
0000
1001
0000
0011
0000
,
0000
1001
0000
0000
0011
0000
0000
1100
0000
0000
0011
0000
0000
1100
0000
0000
,
0110
0000
0000
0011
0000
0000
0101
0000
1100
0000
0110
0000
1001
0000
1010
0000
,
0000
0110
0000
0000
1010
0000
0000
0101
0000
0000
1010
0000
0000
0101
0000
0000
,
0011
0000
0000
0110
0000
0000
1100
0000
0011
0000
1001
0000
1100
0000
1010
0000
,
1000
0001
0010
0100
1000
0010
0100
0001
,
1000
0001
1000
0020
0000
0130
0020
0000
,
1030
0010
0100
0001
0010
0001
0100
0001
,
1000
0010
1000
0002
0000
0103
0002
0000
,
0013
0001
0100
0001
1000
0100
0010
0001
,
0100
0010
1000
0200
0000
1300
0200
0000
,
1300
0010
0100
0001
0010
0001
0100
1000
,
0010
0000
0000
0110
0000
0000
1001
0000
,
0110
0000
0000
0000
1000
0010
0100
0001
,
0010
0001
0100
2000
0000
3001
2000
0000
,
3001
1000
0010
0100
0010
1000
0100
0010
,
0001
0100
0001
2000
0000
3010
2000
0000
,
3001
0010
0100
1000
0010
0100
0001
1000
,
0100
0000
0000
1100
0000
0000
0101
0000
,
0010
0001
1000
0100
1000
0010
0100
0001
,
1000
1100
1001
0001
,
1000
0100
0001
0100
,
1000
0010
0001
0010
;

//---------------dance-single - ----------------
#NOTES:
     dance-single:
     :
     Hard:
     13:
     0.589555,0.708655,0.570537,0.114107,0.251987,434.000000,374.000000,60.000000,12.000000,0.000000,0.000000,0.589555,0.708655,0.570537,0.114107,0.251987,434.000000,374.000000,60.000000,12.000000,0.000000,0.000000:
0000
0000
0000
0000
,
0000
0000
0000
0000
,
0000
0000
0000
0000
,
0000
0000
0000
0000
,
1001
0010
1000
0100
0010
0001
0100
0001
,
1000
0100
0010
0001
0001
0100
0010
1000
,
0110
0100
0001
1000
0100
1000
0010
0100
,
0001
1000
0010
0100
0100
0001
1000
0010
,
1000
0001
0101
0100
0010
1000
1100
0001
,
0100
0010
1000
0001
0010
0100
1000
0001
,
0010
0001
0011
0100
1000
0010
1010
0001
,
1000
0001
0010
0001
0100
0010
1000
0100
,
0000
1100
0000
0101
0000
0000
0010
0000
1000
0000
0000
0001
0100
0000
0000
0000
,
0000
0011
0000
1010
0000
0000
1000
0000
0001
0000
0000
0100
0010
0000
0000
0000
,
0000
0110
0000
1001
0000
0000
1000
0000
0100
0000
0000
0010
0001
0000
0000
0000
,
0100
0000
0000
0010
0000
0000
0000
0000
0000
0010
0000
0000
0100
0000
0000
0000
0000
0000
0001
0000
0000
0000
0000
0000
1000
0000
0000
0000
0000
0000
0100
0000
0000
0000
0000
0000
1000
0000
0000
0000
0001
0000
0000
0000
1000
0000
0000
0000
,
0002
0000
0100
0000
2003
0010
0000
0100
0000
3001
0000
1000
0020
0000
0230
0000
,
0320
0000
1000
0000
0230
0010
0000
0001
0000
0310
0000
0100
0002
0000
2003
0000
,
3010
0100
0001
1000
,
0001
0010
0100
1000
,
0010
1000
0100
0010
,
0001
0100
0001
1000
,
0100
0010
0100
1000
,
0010
1000
0001
0001
,
0100
0001
0010
1000
,
0010
0100
0000
0000
1001
0000
1001
0000
,
0010
0000
1100
1000
0010
1000
0001
0100
,
0001
0000
1000
0100
0000
1000
0001
0000
0100
0000
0010
0000
0010
0000
0000
0000
,
1000
0000
0011
0001
0100
0010
1000
0100
,
0010
0000
0000
0000
0000
0000
1000
0000
0000
0100
0000
0000
0000
0000
0000
1000
0000
0000
0010
0000
0000
0000
0000
0000
0100
0000
0000
0000
0000
0000
0001
0000
0000
0000
0000
0000
1000
0000
0000
0000
0001
0000
0000
0000
0100
0000
0000
0000
,
0010
0000
1010
1000
0001
0100
0001
0010
,
0100
0000
1000
0010
0000
1000
0100
0000
0010
0000
0001
0000
0001
0000
0000
0000
,
0011
0000
1100
0010
1000
0001
0100
0001
,
0010
0000
0000
0000
0000
0000
0100
0000
0000
1000
0000
0000
0000
0000
0000
0001
0000
0000
0100
0000
0000
0000
0000
0000
0001
0000
0000
0000
0000
0000
1000
0000
0000
0000
0000
0000
0010
0000
0000
0000
0100
0000
0000
0000
0002
0000
0000
0000
,
2000
0000
0000
0000
0003
0000
0000
0000
0001
0001
0001
0001
0001
0001
0001
0001
,
3001
0000
0101
0000
0100
0001
0100
0000
,
0010
0000
1010
0000
1000
0010
1000
0000
,
0010
0000
0110
0000
0100
0010
0100
0000
,
0001
0000
0110
0000
1000
0001
1000
0000
,
0010
0000
0101
0000
1000
0010
1000
0000
,
0001
0000
1001
0000
1000
0010
0100
0000
,
0220
0000
0000
0000
0030
0000
0000
0000
0310
0100
0010
0000
1000
0001
1000
0000
,
0100
0000
0000
1100
0000
0000
1100
0000
0000
0000
0000
0101
0000
0000
0101
0000
,
0000
0000
0000
1001
0000
0000
0110
0000
1000
0000
0001
0000
0100
0000
0010
0000
,
1000
0000
0000
1010
0000
0000
1010
0000
0000
0000
0000
0011
0000
0000
0011
0000
,
0000
0000
0000
0101
0000
0000
1010
0000
1000
0000
0100
0000
0010
0000
0001
0000
,
0000
0011
0000
0000
1100
0000
0000
1001
0000
0000
0110
0000
0000
0101
0000
0000
,
1001
0000
0000
1100
0000
0000
1010
0000
0010
0000
0100
0000
0001
0000
1000
0000
,
0000
0011
0000
0000
0110
0000
0000
1100
0000
0000
1010
0000
0000
1001
0000
0000
,
0101
0000
0000
0011
0000
0000
0110
0000
1000
0000
0010
0000
0100
0000
0001
0000
,
0010
0000
0000
0010
0100
0000
0000
0100
,
1000
0000
0001
0100
0000
0001
1000
0000
,
0001
0000
0000
0001
0100
0000
0000
0100
,
0010
0000
1000
0100
0000
1000
0010
0000
,
1000
0000
0000
1000
0100
0000
0000
0100
,
0010
0000
0001
0100
0000
0001
0010
0000
,
0001
0000
0000
0001
1000
0000
0000
1000
,
0010
0000
0100
0001
0000
0100
0010
0000
,
0101
0000
0000
0000
1100
0000
0000
1000
,
0001
0000
0001
0100
0000
0100
0010
0000
,
1000
0000
0000
1000
0010
0000
0000
0010
,
1000
0000
0001
0100
0000
0100
0001
0000
,
0100
0000
0000
0100
0010
0000
0000
0010
,
1000
0000
0000
0110
0000
0000
1001
0000
,
0001
0001
1000
1000
,
0010
1010
0011
0100
,
0001
0001
0001
0001
,
0001
0001
0001
0001
;

//---------------dance-single - ----------------
#NOTES:
     dance-single:
     :
     Medium:
     10:
     0.474089,0.612020,0.323305,0.399376,0.118862,349.000000,315.000000,34.000000,42.000000,0.000000,0.000000,0.474089,0.612020,0.323305,0.399376,0.118862,349.000000,315.000000,34.000000,42.000000,0.000000,0.000000:
0000
0000
0000
0000
,
0000
0000
0000
0000
,
0000
0000
0000
0000
,
0000
0000
0000
0000
,
1001
0000
1000
0010
0000
0100
0001
1000
,
0000
1100
0000
0001
1000
0010
0100
0001
,
0011
0000
0010
0100
0000
1000
0010
0100
,
0000
0110
0000
0001
0010
0001
0100
0010
,
1010
0000
1000
0001
0000
0010
0100
1000
,
0000
0101
0000
0001
1000
0100
0010
0001
,
0101
0000
0001
0010
0000
0001
1000
0100
,
0000
1100
0000
1000
0010
0100
0001
1000
,
1100
0000
1000
0001
0000
0010
0001
1000
,
0000
0110
0000
0010
1000
0001
0010
0100
,
0110
0000
1000
0100
0000
1000
0001
0010
,
0000
0101
0000
0010
0100
1000
0001
0100
,
0002
0000
0000
0000
1003
0020
0000
0001
0000
0130
0000
0000
2000
0000
3200
0000
,
2300
0000
0000
0000
3010
0200
0000
1000
0000
0301
0000
0000
0020
0000
0032
0000
,
0103
0010
1010
0000
,
0001
1000
1100
0000
,
1000
0010
0110
0000
,
0100
0001
0011
0000
,
0001
0010
0101
0000
,
1000
0100
1001
0000
,
0010
0100
1000
0001
,
0100
0010
0000
0000
1000
0000
0001
0000
,
1001
0000
0010
0100
1000
0001
1000
0100
,
0010
0001
0100
0001
1000
0100
0010
0000
,
0110
0000
0100
1000
0001
1000
0010
0100
,
0001
0010
0100
1000
0001
1000
0010
0000
,
1010
0000
1000
0001
0010
0100
1000
0010
,
1000
0001
0010
0100
1000
0001
0100
0010
,
0101
0000
0001
1000
0010
1000
0100
0010
,
0001
0100
0010
1000
0001
1000
0100
0010
,
0022
0000
0000
0000
0003
0000
0000
0000
0001
0001
0001
0001
0001
0001
0001
0001
,
0031
0000
1000
0000
0000
0010
0100
0000
,
0001
0000
0010
0000
0000
0100
1000
0000
,
0010
0000
1000
0000
0000
0001
0100
0000
,
0010
0000
0100
0000
0000
0001
1000
0000
,
0100
0000
1000
0000
0000
0001
0010
0000
,
0001
0000
0100
0000
0000
0010
1000
0000
,
2020
0000
0030
0000
0100
0100
3001
1000
,
0002
0000
0000
0023
0000
0000
0130
0000
0000
0000
0000
2000
0000
0000
3001
0000
,
0000
0000
0000
0200
0000
0000
0310
0000
0100
0000
1000
0000
0001
0000
1000
0000
,
0020
0000
0000
2030
0000
0000
3001
0000
0000
0000
0000
0200
0000
0000
0301
0000
,
0000
0000
0000
0020
0000
0000
0000
0130
1000
0000
0001
0000
0010
0000
0100
0000
,
0000
2000
0000
0000
3002
0000
0000
0023
0000
0000
0032
0000
0000
2003
0000
0000
,
3020
0000
0000
0230
0000
0000
0301
0000
1000
0000
0100
0000
0010
0000
0001
0000
,
0000
0200
0000
0000
0302
0000
0000
0023
0000
0000
0032
0000
0000
0203
0000
0000
,
0320
0000
0000
2030
0000
0000
3001
0000
1000
0000
0010
0000
0100
0000
0001
0000
,
0010
0100
1000
0001
,
0100
0000
0000
0102
0000
0000
1003
0000
,
0001
1000
0010
1000
,
0001
0000
0000
0201
0000
0000
0310
0000
,
0100
0001
0010
0100
,
1000
0000
0000
2010
0000
0000
3001
0000
,
1000
0001
0010
0100
,
1000
0000
0000
1020
0000
0000
0130
0000
,
0001
1000
0100
0010
,
0100
0000
0000
1100
0000
0000
0101
0000
,
0001
1000
0010
1000
,
0100
0000
0000
0011
0000
0000
1010
0000
,
0010
0100
0001
1000
,
0100
0000
0000
0110
0000
0000
1001
0000
,
0001
1000
0010
1000
,
0001
0010
0100
1000
,
0002
0003
2000
3000
,
0020
0030
0200
0300
;

//---------------dance-single - ----------------
#NOTES:
     dance-single:
     :
     Easy:
     7:
     0.304287,0.547597,0.190179,0.076072,0.019018,224.000000,204.000000,20.000000,8.000000,0.000000,0.000000,0.304287,0.547597,0.190179,0.076072,0.019018,224.000000,204.000000,20.000000,8.000000,0.000000,0.000000:
// measure 0
0000
0000
0000
0000
,  // measure 1
0000
0000
0000
0000
,  // measure 2
0000
0000
0000
0000
,  // measure 3
0000
0000
0000
0000
,  // measure 4
0010
1000
0010
0100
,  // measure 5
0001
0010
0100
1000
,  // measure 6
0001
1000
0010
1000
,  // measure 7
0001
0010
0100
1000
,  // measure 8
1001
0010
1000
0001
,  // measure 9
1000
0100
0010
0001
,  // measure 10
0110
1000
0010
0100
,  // measure 11
0010
1000
0100
0010
,  // measure 12
1001
0100
0010
0100
,  // measure 13
0001
1000
0001
0100
,  // measure 14
0110
0010
1000
0100
,  // measure 15
1000
0001
0010
0100
,  // measure 16
2001
0000
3010
0100
0001
0001
1000
1000
,  // measure 17
0120
0000
1030
0001
0100
0100
0010
0010
,  // measure 18
1000
0000
1100
0000
,  // measure 19
0100
0010
0001
0000
,  // measure 20
0001
0000
0011
0000
,  // measure 21
0010
0100
1000
0000
,  // measure 22
0010
0000
1010
0000
,  // measure 23
1000
0001
0100
0000
,  // measure 24
0001
0000
0011
0000
,  // measure 25
1000
0000
0010
0100
,  // measure 26
0001
1000
0010
0100
,  // measure 27
0001
0010
0100
1000
,  // measure 28
0100
0010
0001
1000
,  // measure 29
0010
1000
0001
0100
,  // measure 30
0010
0100
0001
1000
,  // measure 31
0001
1000
0100
0010
,  // measure 32
0100
1000
0010
0001
,  // measure 33
0100
0001
1000
0010
,  // measure 34
2002
0000
0000
0000
0003
0000
0000
0000
0001
0001
0001
0001
0001
0001
0001
0001
,  // measure 35
3001
0100
0000
0100
,  // measure 36
0000
0010
0000
0010
,  // measure 37
0000
1000
0000
1000
,  // measure 38
0000
0001
0000
0001
,  // measure 39
0000
0010
0000
0100
,  // measure 40
0000
1000
0000
0001
,  // measure 41
2002
0003
0100
3001
,  // measure 42
1000
1000
0001
0001
,  // measure 43
1000
0001
0010
0100
,  // measure 44
0010
0010
0100
0100
,  // measure 45
0010
0100
1000
0001
,  // measure 46
0010
0001
0100
1000
,  // measure 47
0001
0010
0100
1000
,  // measure 48
0010
1000
0100
0001
,  // measure 49
1000
0100
0010
0001
,  // measure 50
0100
0000
0010
0000
,  // measure 51
1000
0000
1100
0000
,  // measure 52
0001
0000
0010
0000
,  // measure 53
0100
0000
0101
0000
,  // measure 54
0100
0000
0010
0000
,  // measure 55
1000
0000
1010
0000
,  // measure 56
0010
0000
1000
0000
,  // measure 57
0001
0000
0011
0000
,  // measure 58
0010
0000
0100
0000
,  // measure 59
1000
0000
1001
0000
,  // measure 60
0001
0000
0100
0000
,  // measure 61
0010
0000
0110
0000
,  // measure 62
1000
0000
0001
0000
,  // measure 63
0100
0000
1001
0000
,  // measure 64
0001
0000
0001
0000
,  // measure 65
1000
0000
1000
0000
,  // measure 66
0220
0000
0000
0000
,  // measure 67
0000
0000
0000
0330
;

//---------------dance-single - ----------------
#NOTES:
     dance-single:
     :
     Beginner:
     5:
     0.176595,0.444306,0.019018,0.019018,0.019018,130.000000,128.000000,2.000000,2.000000,0.000000,0.000000,0.176595,0.444306,0.019018,0.019018,0.019018,130.000000,128.000000,2.000000,2.000000,0.000000,0.000000:
0000
0000
0000
0000
,
0000
0000
0000
0000
,
0000
0000
0000
0000
,
0000
0000
0000
0000
,
0010
0010
0000
0000
,
1000
0000
0001
0000
,
0100
0100
0000
0000
,
0010
0000
1000
0000
,
0001
0001
0000
0000
,
0010
0000
0001
0000
,
1000
1000
0000
0000
,
0010
0000
0100
0000
,
0000
0001
0000
1000
,
0000
0001
0000
1000
,
0000
0010
0000
0100
,
0000
0010
0000
0100
,
0001
0001
0001
0001
,
1000
1000
1000
1000
,
0010
0000
0000
0000
,
0100
0000
0000
0000
,
0010
0000
0000
0000
,
0100
0000
0000
0000
,
0001
0000
0000
0000
,
1000
0000
0000
0000
,
0001
0000
0000
0000
,
0010
0000
0100
0000
,
1000
0000
0001
0000
,
1000
1000
1000
0000
,
0010
0000
0100
0000
,
0010
0010
0010
0000
,
1000
0000
0100
0000
,
0001
0001
0001
0000
,
0010
0000
0001
0000
,
0100
0100
0100
0000
,
1001
0000
0000
0000
0000
0000
0000
0000
0001
0001
0001
0001
0001
0001
0001
0001
,
0001
0000
0000
0000
,
1000
0000
0000
0000
,
0010
0000
0000
0000
,
0100
0000
0000
0000
,
0001
0000
0000
0000
,
0010
0000
0000
0000
,
0100
0000
1000
0000
,
0010
0010
0000
0100
,
0000
0001
0001
0001
,
0000
1000
0000
0100
,
0000
1000
1000
1000
,
0000
0010
0010
0010
,
0001
0001
1000
1000
,
0000
0100
0100
0100
,
1000
1000
0001
0001
,
1000
0000
1000
0000
,
1000
0000
0000
0000
,
0100
0000
0100
0000
,
0100
0000
0000
0000
,
0010
0000
0010
0000
,
0010
0000
0000
0000
,
0001
0000
0001
0000
,
0001
0000
0000
0000
,
1000
0000
0001
0000
,
0100
0000
0000
0000
,
0001
0000
1000
0000
,
0010
0000
0000
0000
,
1000
0000
0100
0000
,
0010
0000
0000
0000
,
0001
0000
0100
0000
,
0010
0000
0000
0000
,
0220
0000
0000
0330
;
