#TITLE:чен JAPAN;
#SUBTITLE:;
#ARTIST:RE-VENGE;
#TITLETRANSLIT:MATSURI JAPAN;
#SUBTITLETRANSLIT:;
#ARTISTTRANSLIT:;
#GENRE:;
#CREDIT:;
#BANNER:MATSURI JAPAN-bn.png;
#BACKGROUND:MATSURI JAPAN-bg.png;
#LYRICSPATH:;
#CDTITLE:;
#MUSIC:MATSURI JAPAN.ogg;
#OFFSET:0.000000;
#SAMPLESTART:14.679000;
#SAMPLELENGTH:20.000000;
#SELECTABLE:YES;
#DISPLAYBPM:180.000000;
#BPMS:0.000000=178.399994
,4.000000=180.000000
;
#STOPS:
;
#BGCHANGES:;
#KEYSOUNDS:;
#ATTACKS:;

//---------------dance-single - ----------------
#NOTES:
     dance-single:
     :
     Beginner:
     3:
     0.165716,0.237127,0.000000,0.000000,0.000000,116.000000,116.000000,0.000000,0.000000,0.000000,0.000000,0.165716,0.237127,0.000000,0.000000,0.000000,116.000000,116.000000,0.000000,0.000000,0.000000,0.000000:
0000
0000
0000
0000
,
0000
0000
0000
0000
,
0000
0000
0000
0000
,
1000
1000
0000
0000
,
0001
0001
0000
0000
,
1000
1000
0000
0000
,
0001
0001
0000
0000
,
1000
1000
0000
0000
,
0001
0001
0000
0000
,
1000
1000
1000
1000
,
0000
0000
0000
0000
,
1000
0000
0000
0000
,
0010
0000
0000
0000
,
0001
0000
0000
0000
,
0010
0000
0000
0000
,
1000
0000
0000
0000
,
0010
0000
0000
0000
,
0001
0000
0000
0000
,
0010
0000
0000
0000
,
1000
0000
0000
0000
,
0100
0000
0000
0000
,
0001
0000
0000
0000
,
0100
0000
0000
0000
,
1000
0000
0000
0000
,
0100
0000
0000
0000
,
0001
0000
0000
0000
,
0100
0000
0000
0000
,
0000
0100
0000
0100
,
0000
0010
0000
0010
,
0000
0100
0000
0100
,
0000
0010
0000
0010
,
0000
0100
0000
0100
,
0000
0010
0000
0010
,
0000
0100
0000
0100
,
0000
0010
0000
0010
,
0000
0010
0000
0010
,
0000
1000
0000
1000
,
0000
0100
0000
0100
,
0000
0001
0000
0001
,
0000
0010
0000
0010
,
0000
1000
0000
1000
,
0000
0100
0000
0100
,
0000
0001
0000
0001
,
0000
0000
0000
0000
,
0000
0000
0000
0000
,
0001
0000
0001
0000
,
0001
0001
0001
0001
,
0000
1000
1000
1000
,
0000
0000
1000
1000
,
1000
0000
1000
0000
,
1000
0000
0000
0000
,
0000
0000
0000
0000
,
0010
0000
0001
0000
,
0001
0000
0100
0000
,
0001
0001
0001
0001
,
0000
1000
1000
1000
,
0000
0100
0000
1000
,
0000
1000
0000
0010
,
0000
0001
0001
0001
,
0000
1000
1000
1000
,
0000
0100
0000
0100
,
0000
0010
0000
0010
,
0000
0100
0000
0100
,
0000
1000
1000
1000
,
0000
0100
0000
0100
,
0000
0010
0000
0010
,
0000
0100
0000
0100
,
0000
0010
0000
0010
,
0000
0000
0000
0000
;

//---------------dance-single - ----------------
#NOTES:
     dance-single:
     :
     Easy:
     6:
     0.308574,0.304878,0.000000,0.000000,0.000000,216.000000,216.000000,0.000000,0.000000,0.000000,0.000000,0.308574,0.304878,0.000000,0.000000,0.000000,216.000000,216.000000,0.000000,0.000000,0.000000,0.000000:
0000
0000
0000
0000
,
0000
0000
0000
0000
,
0000
0000
0000
0000
,
1000
1000
0001
0001
,
1000
1000
0001
0001
,
1000
1000
0001
0001
,
1000
1000
0001
0001
,
1000
1000
0001
0001
,
1000
0100
0001
0100
,
1000
1000
1000
1000
,
0000
0000
0000
0000
,
1000
1000
0100
0010
,
0001
0001
1000
1000
,
0010
0010
0100
0001
,
1000
1000
0001
0001
,
0010
0010
0100
1000
,
0001
0001
1000
1000
,
0001
0001
0100
0010
,
1000
1000
0001
0001
,
0010
0100
1000
0100
,
0001
0001
1000
1000
,
0010
0100
0001
0100
,
1000
1000
0001
0001
,
0010
0100
1000
0001
,
1000
1000
0001
0001
,
0100
0010
0001
1000
,
0001
0001
1000
1000
,
0000
0100
0000
0100
,
0000
0010
0000
0010
,
0000
0001
0000
0001
,
0000
1000
0000
1000
,
0000
0100
0000
0100
,
0000
0010
0000
0010
,
0000
0001
0000
0001
,
0000
0100
0000
0100
,
0000
0010
0000
0010
,
0000
1000
0000
1000
,
0000
0001
0000
0001
,
0000
0100
0000
0100
,
0000
0010
0000
0010
,
0000
1000
0000
1000
,
0000
1000
0000
1000
,
0000
1000
0000
1000
,
1000
1000
0100
0100
,
0010
0010
0001
0001
,
0001
0100
1000
0100
,
0001
0001
0001
0001
,
1000
1000
1000
1000
,
0001
0000
0001
0001
,
0001
1000
0100
0001
,
1000
0000
0000
0000
,
0000
0000
0000
0000
,
0010
0100
0001
1000
,
0100
0010
0001
1000
,
0001
0001
0001
0001
,
1000
1000
1000
1000
,
0010
0100
0001
1000
,
0100
0010
0001
1000
,
0001
0001
0001
0001
,
1000
1000
1000
1000
,
0010
0100
0001
1000
,
0100
0010
0001
1000
,
0100
0001
0100
0010
,
1000
1000
1000
1000
,
0001
0100
0010
1000
,
0001
0010
0100
1000
,
0001
0001
0010
0100
,
1000
0001
0100
0010
;

//---------------dance-single - ----------------
#NOTES:
     dance-single:
     :
     Medium:
     8:
     0.405718,0.441192,0.070001,0.000000,0.000000,284.000000,277.000000,7.000000,0.000000,0.000000,0.000000,0.405718,0.441192,0.070001,0.000000,0.000000,284.000000,277.000000,7.000000,0.000000,0.000000,0.000000:
0000
0000
0000
0000
,
0000
0000
0000
0000
,
0000
0000
0000
0000
,
1000
0000
0001
0001
,
1000
0100
0000
0000
0010
0000
0001
0000
,
1000
0100
1000
0000
,
0001
0000
1000
0010
,
0100
0000
0001
0001
,
1000
0100
0000
0000
1001
0000
0000
0000
,
0100
0100
0100
0100
,
0000
0000
0000
0000
,
0001
0010
1000
0100
,
0001
1000
0100
0000
0001
1000
0100
0000
,
0010
0001
1000
0010
,
0001
1000
0100
0000
0001
1000
0100
0000
,
1000
0100
0010
0001
,
0001
1000
0100
0000
0001
1000
0100
0000
,
0010
0001
0100
0010
,
0001
1000
0100
0000
0001
1000
0100
0000
,
0001
1000
0010
0100
,
0001
0100
1000
0000
0001
0100
1000
0000
,
0001
0010
0100
1000
,
0001
0100
1000
0000
0001
0100
1000
0000
,
0010
1000
0001
0010
,
0001
0100
1000
0000
0001
0100
1000
0000
,
0001
0010
0100
1000
,
0001
0100
1000
0000
0001
0100
1000
0000
,
0000
0001
0000
0001
0000
1000
0000
1000
,
0000
0100
0000
0100
0000
0100
0000
0100
,
0000
0010
0000
0010
0000
0001
0000
0001
,
0000
1000
0000
1000
0000
1000
0000
1000
,
0000
0010
0000
0010
0000
0100
0000
0100
,
0000
0001
0000
0001
0000
0001
0000
0001
,
0000
1000
0000
1000
0000
0100
0000
0100
,
0000
0010
0000
0010
0000
0010
0000
0010
,
0000
0001
0000
0001
0000
1000
0000
1000
,
0000
0010
0000
0010
0000
0010
0000
0010
,
0000
0100
0000
0100
0000
0001
0000
0001
,
0000
1000
0000
1000
0000
0100
0000
0100
,
0000
0010
0000
0010
0000
0001
0000
0001
,
0000
1000
0000
1000
0000
0010
0000
0010
,
0000
0100
0000
0001
0000
0010
0000
0100
,
0000
1000
0000
0001
0000
0100
0000
0000
,
1000
0001
1000
0001
,
1000
0001
1000
0001
,
0001
0100
0010
0000
1000
0100
0010
0000
,
0001
1001
0001
0011
,
1000
1010
1000
1001
,
0010
0000
1001
0100
,
0011
0100
0010
1000
,
0001
0000
0000
0000
,
0000
0000
0000
0000
,
0010
0000
0100
0000
1000
0010
1000
0000
,
0001
0000
0010
0000
0100
1000
0100
0000
,
0010
0000
0001
1000
0100
0000
0010
0000
,
1000
0000
0001
1000
0100
0000
0010
0000
,
0001
0000
0100
0000
0010
1000
0010
0000
,
0100
0000
0001
0000
0010
0100
0010
0000
,
0001
0000
1000
0100
0001
0000
1000
0000
,
0001
0000
1000
0100
0001
0000
0010
0000
,
0001
0000
1000
0000
0010
0100
0010
0000
,
1000
0000
0001
0000
0010
0100
0010
0000
,
1000
0000
0001
0000
0100
0010
1000
0000
,
0001
0000
1000
0100
0001
0000
1000
0000
,
0001
0000
0100
0000
0010
1000
0001
0000
,
0010
0000
0100
0000
1000
0001
0100
0000
,
0010
0000
1000
0000
0100
0010
0001
0000
,
1000
0000
0010
0000
0100
0001
0010
0100
;

//---------------dance-single - ----------------
#NOTES:
     dance-single:
     :
     Hard:
     12:
     0.638578,0.576943,0.000000,0.000000,0.425004,447.000000,447.000000,0.000000,0.000000,0.000000,0.000000,0.638578,0.576943,0.000000,0.000000,0.425004,447.000000,447.000000,0.000000,0.000000,0.000000,0.000000:
0000
0000
0000
0000
,
0000
0000
0000
0000
,
0000
0000
0000
0000
,
0010
0000
0000
0010
0001
0000
0000
0001
0100
0000
0000
0100
0010
0000
0000
0010
,
1000
0000
0000
1000
0100
0000
0000
0100
0010
0000
0000
0010
0001
0000
0000
0001
,
1000
0000
0000
1000
0100
0000
0000
0100
0010
0000
0000
0010
0001
0000
0000
0001
,
1000
0000
0000
1000
0010
0000
0000
0010
0100
0000
0000
0100
0001
0000
0000
0001
,
1000
0000
0000
1000
0001
0000
0000
0001
1000
0000
0000
1000
0001
0000
0000
0000
,
0010
0000
0000
0100
1000
0000
0000
0001
0100
0000
0000
0010
1000
0000
0000
0001
,
0010
0000
0000
0100
0010
0000
0000
0100
0010
0000
0000
0100
0010
0000
0000
0100
,
0000
0000
0000
0000
,
0001
1000
0100
0010
0001
0100
0010
0000
,
1000
0000
0000
0000
0001
0100
0000
0000
0010
0000
0000
0000
1000
0100
0000
0000
,
0010
0001
0100
0010
1000
0001
0010
0000
,
0100
0000
0000
0000
1000
0001
0000
0000
0100
0000
0000
0000
0010
1000
0000
0000
,
0100
0010
0001
0100
0010
1000
0001
0000
,
0010
0000
0000
0000
0100
1000
0000
0000
0001
0000
0000
0000
0100
0010
0000
0000
,
1000
0001
0010
0100
1000
0001
0100
0000
,
0010
0000
0000
0000
1000
0001
0000
0000
0010
0000
0000
0000
0100
1000
0000
0000
,
0010
0100
0001
0010
0100
1000
0001
0000
,
0100
0000
0000
0000
0010
1000
0000
0000
0100
0000
0000
0000
0010
0001
0000
0000
,
1000
0100
0010
0001
1000
0010
0100
0000
,
0001
0000
0000
0000
0010
0100
0000
0000
1000
0000
0000
0000
0010
0100
0000
0000
,
0001
0010
0100
1000
0001
0010
0100
0000
,
1000
0000
0000
0000
0001
0100
0000
0000
0010
0000
0000
0000
1000
0001
0000
0000
,
0100
0010
1000
0001
0010
0100
1000
0000
,
0001
0000
0000
0000
0100
0010
0000
0000
1000
0000
0000
0000
0001
0100
0000
0000
,
0010
1000
0100
0010
0001
0010
0100
1000
,
0000
0001
0100
0010
1000
0001
0010
0000
,
0100
1000
0100
0010
0001
1000
0010
0100
,
0000
0001
1000
0100
0010
0001
0100
0000
,
0010
1000
0001
0010
0001
0100
0010
1000
,
0000
0001
0100
0010
1000
0001
0010
0000
,
0100
1000
0001
0100
0010
1000
0100
1000
,
0000
0001
0100
0010
1000
0100
0010
0000
,
0001
1000
0100
1000
0001
0100
0010
1000
,
0000
0001
0010
0100
1000
0001
0100
0000
,
0010
1000
0100
0010
0001
1000
0001
0100
,
0000
0010
1000
0100
0010
0001
0100
0000
,
0010
1000
0010
0100
0001
0010
0001
0100
,
0000
0010
1000
0001
0010
0100
1000
0000
,
0001
0100
0010
1000
0001
0010
0100
1000
,
0000
0001
0010
0100
1000
0010
0100
0000
,
0001
1000
0001
1000
,
0001
0000
0000
0001
1000
0000
0000
1000
0001
0000
0000
0001
1000
0000
0000
0000
,
0010
0000
0000
0100
0001
0000
0000
0010
0100
0000
0000
1000
0010
0000
0000
0100
,
0001
0000
0000
1000
0001
0000
0000
1000
0001
0000
0000
1000
0001
0000
0000
1000
,
0010
0000
0000
0100
0010
0000
0000
0100
0010
0000
0000
0100
0010
0000
0000
0100
,
0001
0000
1000
0000
0000
0000
0000
0001
1000
0000
0000
0001
1000
0000
0000
0001
,
1000
0000
0000
0001
0010
0000
0000
0010
0100
0000
0000
0100
1000
0000
0000
1000
,
0001
0000
0000
0000
,
0000
0000
0000
0000
,
0010
0100
1000
0010
0100
0001
0010
0100
,
1000
0001
0100
0010
1000
0001
0100
0000
,
0010
0000
0000
0100
0010
0000
0000
0100
0010
0000
0000
0100
0010
0000
0000
0100
,
0001
0000
0000
0010
0001
0000
0000
0010
0001
0000
0000
0010
0001
0000
0000
0010
,
0100
1000
0010
0100
0001
1000
0100
0010
,
0001
0100
0010
1000
0001
0100
0010
0000
,
1000
0000
0000
0100
1000
0000
0000
0100
1000
0000
0000
0100
1000
0000
0000
0100
,
0010
0000
0000
0001
0010
0000
0000
0001
0010
0000
0000
0001
0010
0000
0000
0001
,
1000
0010
0100
0001
1000
0001
0010
0100
,
1000
0001
0100
0010
1000
0100
0010
0001
,
1000
0010
1000
0001
0010
0100
1000
0000
,
0001
0000
0000
0100
0001
0000
0000
0100
0001
0000
0000
0100
0001
0000
0000
0100
,
0010
1000
0001
0010
0100
1000
0001
0100
,
0010
1000
0100
0010
0001
1000
0010
0100
,
0001
1000
0100
0001
0100
1000
0010
0100
,
0001
1000
0100
0010
0001
1000
0010
0100
,
0000
0000
0000
0000
;

//---------------dance-double - ----------------
#NOTES:
     dance-double:
     :
     Easy:
     6:
     0.318575,0.338753,0.160002,0.000000,0.000000,223.000000,207.000000,16.000000,0.000000,0.000000,0.000000,0.318575,0.338753,0.160002,0.000000,0.000000,223.000000,207.000000,16.000000,0.000000,0.000000,0.000000:
00000000
00000000
00000000
00000000
,
00000000
00000000
00000000
00000000
,
00000000
00000000
00000000
00000000
,
10000000
10000000
00100000
00100000
,
00010000
00010000
00001000
00001000
,
00000100
00000100
00000001
00000001
,
00000010
00000010
00001000
00001000
,
00010000
00010000
01000000
01000000
,
10000000
00100000
00010000
01000000
,
00010000
00001000
00000010
00000001
,
00000000
00000000
00000000
00000000
,
00001000
00001000
00000100
00000100
,
00011000
00000000
00011000
00000000
,
00100000
00100000
10000000
10000000
,
10010000
00000000
10010000
00000000
,
00100000
00100000
00001000
00001000
,
00011000
00000000
00011000
00000000
,
00000010
00000010
00000001
00000001
,
00001001
00000000
00001001
00000000
,
00000010
00010000
00001000
01000000
,
10010000
00000000
10010000
00000000
,
00100000
00001000
00010000
00000100
,
00001001
00000000
00001001
00000000
,
00000100
00001000
00010000
00100000
,
10010000
00000000
10010000
00000000
,
01000000
00010000
00001000
00000010
,
00001001
00000000
00001001
00000000
,
00000010
00000000
00000010
00000000
,
00010000
00001000
00010000
00000000
,
00100000
00000000
00100000
00000000
,
00001000
00010000
00001000
00000000
,
00000100
00000000
00000100
00000000
,
00010000
00001000
00010000
00000000
,
00100000
00000000
00100000
00000000
,
00010000
00000000
00010000
00000000
,
01000000
00000000
01000000
00000000
,
00001000
00010000
00001000
00000000
,
00000010
00000000
00000010
00000000
,
00010000
00001000
00010000
00000000
,
01000000
00000000
01000000
00000000
,
00001000
00010000
00001000
00000000
,
00000010
00000000
00000010
00000000
,
00010000
00001000
00010000
00000000
,
00100000
00100000
01000000
01000000
,
10000000
10000000
00010000
00010000
,
00100000
10000000
01000000
00010000
,
00010000
00001000
00000010
00000001
,
00000100
00001000
00010000
00100000
,
10000000
00000000
01000000
00010000
,
00001000
00000010
00000001
00000100
,
00001000
00000000
00000000
00000000
,
00000000
00000000
00000000
00000000
,
00010000
00001000
00100000
00010000
,
10000000
01000000
00100000
00010000
,
00010000
00001000
00000010
00000001
,
00000100
00001000
00010000
00100000
,
10000000
01000000
00010000
00100000
,
10000000
01000000
00010000
00100000
,
00010000
00001000
00000010
00000001
,
00000100
00001000
00010000
00100000
,
10000000
01000000
00010000
00100000
,
10000000
01000000
00010000
00100000
,
10000000
01000000
00010000
00100000
,
00010000
00001000
00000010
00000001
,
00001000
00000100
00000001
00000010
,
00001000
00000100
00001000
00010000
,
00100000
10000000
01000000
00010000
,
00001000
00000010
00000001
00000100
,
00000000
00000000
00000000
00000000
;

//---------------dance-double - ----------------
#NOTES:
     dance-double:
     :
     Medium:
     8:
     0.408576,0.406504,0.000000,0.000000,0.000000,286.000000,286.000000,0.000000,0.000000,0.000000,0.000000,0.408576,0.406504,0.000000,0.000000,0.000000,286.000000,286.000000,0.000000,0.000000,0.000000,0.000000:
00000000
00000000
00000000
00000000
,
00000000
00000000
00000000
00000000
,
00000000
00000000
00000000
00000000
,
10000000
00000000
00010000
00000000
01000000
00100000
01000000
00000000
,
00010000
00000000
01000000
00001000
,
00010000
00000010
00010000
00000000
00001000
00000000
00000000
00000000
,
00010000
00000000
00000100
00000000
00000010
00000001
00000010
00000000
,
00000100
00000000
00010000
00001000
,
00100000
00010000
00100000
00000000
10000000
01000000
10000000
00000000
,
00010000
01000000
00001000
00010000
,
00000000
00000000
00000000
00000000
,
00000010
00000100
00000001
00000010
,
00000100
00001000
00000100
00000000
00010000
00001000
00010000
00000000
,
00100000
10000000
00010000
01000000
,
00100000
10000000
00100000
00000000
01000000
00010000
01000000
00000000
,
00100000
00010000
00001000
00000010
,
00000001
00001000
00000001
00000000
00000010
00000100
00000010
00000000
,
00000001
00001000
00000010
00010000
,
00000100
00001000
00000100
00000000
00010000
00001000
00010000
00000000
,
00000100
00000010
00001000
00010000
,
00100000
10000000
00100000
00000000
01000000
00010000
01000000
00000000
,
00001000
00010000
00000010
00001000
,
00000001
00000010
00000001
00000000
00001000
00000100
00001000
00000000
,
00000010
00010000
00001000
01000000
,
00010000
10000000
01000000
00000000
00100000
00010000
01000000
00000000
,
00001000
00000010
00000001
00001000
,
00000010
00000100
00000001
00000000
00001000
00000100
00000010
00000000
,
00000001
00000100
00000010
00001000
,
00000100
00010000
00001000
00100000
,
00010000
10000000
00100000
01000000
,
00010000
00100000
00001000
00010000
,
00000100
00000010
00000001
00001000
,
00000100
00000010
00000001
00000100
,
00000010
00001000
00000001
00000100
,
00000001
00000100
00000001
00000100
,
00000010
00001000
00000100
00010000
,
00001000
00100000
00010000
10000000
,
01000000
00100000
00001000
00010000
,
00000100
00000010
00000001
00000100
,
00000010
00001000
00000001
00000010
,
00000100
00010000
00001000
00100000
,
00010000
10000000
00100000
01000000
,
00010000
00100000
01000000
00010000
,
00001000
00010000
00001000
00010000
,
00001000
00010000
00001000
00010000
,
00100000
10000000
00010000
00000000
00100000
01000000
10000000
00000000
,
00010000
01000000
00001000
00010000
,
00000100
00001000
00010000
00001000
,
00100000
00100000
00000000
00000000
10000000
00000000
00010000
00000000
,
01000000
00000000
00100000
00000000
10000000
00000000
01000000
00100000
,
01000000
00000000
00000000
00000000
,
00000000
00000000
00000000
00000000
,
00010000
00000000
01000000
00000000
00001000
00010000
00000010
00000000
,
00001000
00000000
00000100
00000000
00010000
00001000
00100000
00000000
,
00010000
10000000
01000000
00000000
00010000
00000000
00010000
00000000
,
01000000
00001000
00010000
00000000
00000010
00000000
00000010
00000000
,
00001000
00000000
00000100
00000000
00010000
00001000
00100000
00000000
,
00010000
00000000
01000000
00000000
00001000
00010000
00000010
00000000
,
00001000
00000100
00000001
00000000
00001000
00000000
00001000
00000000
,
00000010
00010000
00001000
00000000
01000000
00000000
01000000
00000000
,
00100000
00000000
10000000
00000000
01000000
00100000
00010000
00000000
,
01000000
00000000
00100000
00000000
00010000
00001000
00010000
00000000
,
00000010
00000000
00000001
00000000
00001000
00000100
00000010
00000000
,
00000001
00001000
00000100
00000000
00010000
00000000
00010000
00000000
,
00001000
00000000
00100000
00000000
00010000
10000000
00100000
00000000
,
01000000
00000000
00001000
00000000
00010000
00100000
01000000
00000000
,
00001000
00000000
00010000
00000000
00000010
00001000
00000100
00000000
,
00010000
00000000
00001000
00000000
00100000
00010000
01000000
00000000
,
00000000
00000000
00000000
00000000
;

//---------------dance-double - ----------------
#NOTES:
     dance-double:
     :
     Hard:
     10:
     0.520005,0.575881,0.150001,0.000000,0.130001,364.000000,349.000000,15.000000,0.000000,0.000000,0.000000,0.520005,0.575881,0.150001,0.000000,0.130001,364.000000,349.000000,15.000000,0.000000,0.000000,0.000000:
00000000
00000000
00000000
00000000
,
00000000
00000000
00000000
00000000
,
00000000
00000000
00000000
00000000
,
10000000
01000000
00100000
00010000
00100000
01000000
10000000
00000000
,
00010000
01000000
00001000
00010000
00000010
00001000
00000100
00000000
,
00000010
00000001
00001000
00000100
00001000
00000001
00000010
00000000
,
00000100
00010000
00001000
00100000
00010000
01000000
00100000
00000000
,
10000000
00010000
00100000
01000000
10000000
00010000
01000000
00100000
,
10000000
01000000
00100000
00000000
00010000
01000000
00100000
00000000
,
10010000
01001000
00010010
00001001
,
00000000
00000000
00000000
00000000
,
00000010
00000000
00000000
00000100
00000000
00000000
00010000
00000000
,
00001000
00100000
00010000
10000000
00100000
01000000
00010000
00000000
,
00100000
00000000
00000000
00001000
00000000
00000000
00010000
00000000
,
00000010
00001000
00000001
00000010
00000100
00001000
00000010
00000000
,
00000100
00000000
00000000
00000001
00000000
00000000
00000010
00000000
,
00000100
00010000
00001000
00100000
00010000
10000000
00100000
00000000
,
01000000
00000000
00000000
00010000
00000000
00000000
00100000
00000000
,
01000000
10000000
00010000
01000000
00100000
10000000
01000000
00000000
,
00010000
00000000
00000000
00001000
00000000
00000000
00000100
00000000
,
00000001
00001000
00000100
00000010
00000001
00001000
00000100
00000000
,
00010000
00000000
00000000
00100000
00000000
00000000
10000000
00000000
,
01000000
00100000
00010000
01000000
00100000
10000000
00010000
00000000
,
00100000
00000000
00000000
00001000
00000000
00000000
00010000
00000000
,
00000100
00000010
00000001
00001000
00000010
00000100
00000001
00000000
,
00001000
00000000
00000000
00000100
00000000
00000000
00010000
00000000
,
00001000
00100000
00010000
01000000
00001000
00010000
00000010
00000000
,
00001000
00000000
00000001
00000000
00000001
00000000
00001000
00000010
,
00000100
00000001
00000010
00000100
00001000
00000000
00000010
00000000
,
00010000
00000000
00001000
00000000
00001000
00000000
01000000
00100000
,
10000000
01000000
00100000
00010000
01000000
00001000
00010000
00000000
,
00000010
00000000
00000100
00000000
00000010
00000000
00001000
00000100
,
00001000
00000010
00000100
00000001
00001000
00000000
00000001
00000000
,
00000010
00000000
00000100
00000000
00000100
00000000
00001000
00000010
,
00010000
00001000
00100000
00010000
10000000
01000000
00100000
00000000
,
00010000
00000000
01000000
00000000
00001000
00000000
00010000
00000010
,
00001000
00000100
00010000
00001000
00100000
00000000
00010000
00000000
,
10000000
00000000
00100000
00000000
00100000
00000000
01000000
00010000
,
00100000
01000000
10000000
00010000
00100000
00001000
00010000
00000000
,
00000010
00000000
00010000
00000000
00001000
00000000
01000000
00001000
,
00010000
00000010
00001000
00000100
00000010
00000000
00000001
00000000
,
00001000
00000000
00000010
00000000
00000010
00000000
00000100
00000001
,
00001000
00000100
00000010
00001000
00010000
00100000
01000000
00000000
,
00010000
10000000
00010000
10000000
00010000
10000000
00010000
10000000
,
00010000
10000000
00010000
10000000
00010000
10000000
00010000
10000000
,
00100000
01000000
00010000
00000000
10000000
01000000
00100000
00000000
,
10010000
01001000
00010010
00001001
,
00001001
00010100
00101000
10010000
,
10000000
01000000
00000000
00000000
00110000
00000000
00011000
00000000
,
00001100
00000000
00000010
00000001
00000100
00000000
00000010
00001000
,
00000100
00000000
00000000
00000000
,
00000000
00000000
00000000
00000000
,
00010000
00000000
00000000
00000000
00001000
00000000
00000000
00100000
00010000
00000000
00000000
00000000
10000000
00000000
00000000
01000000
,
00100000
00000000
00000000
01000000
00100000
00000000
00000000
00000000
00010000
00000000
00000000
00000000
01000000
00000000
00000000
00000000
,
00001000
00000000
00000000
00000000
00010000
00000000
00000000
00000010
00001000
00000000
00000000
00000000
00000001
00000000
00000000
00000010
,
00000100
00000000
00000000
00000010
00000100
00000000
00000000
00000000
00001000
00000000
00000000
00000000
00000001
00000000
00000000
00000000
,
00000100
00000000
00000000
00000000
00000010
00000000
00000000
00001000
00000100
00000000
00000000
00000000
00010000
00000000
00000000
00001000
,
00100000
00000000
00000000
00001000
00100000
00000000
00000000
00000000
00010000
00000000
00000000
00000000
10000000
00000000
00000000
00000000
,
00100000
00000000
00000000
00000000
01000000
00000000
00000000
00010000
00100000
00000000
00000000
00000000
00001000
00000000
00000000
00010000
,
00000100
00000000
00000000
00010000
00000100
00000000
00000000
00000000
00001000
00000000
00000000
00000000
00000010
00000000
00000000
00000000
,
00000100
00000000
00000000
00000000
00000001
00000000
00000000
00000010
00000100
00000000
00000000
00000000
00001000
00000000
00000000
00000010
,
00010000
00000000
00000000
00000010
00010000
00000000
00000000
00000000
00001000
00000000
00000000
00000000
01000000
00000000
00000000
00000000
,
00010000
00000000
00000000
00000000
10000000
00000000
00000000
01000000
00100000
00000000
00000000
00000000
00010000
00000000
00000000
00001000
,
01000000
00000000
00000000
00001000
01000000
00000000
00000000
00000000
00010000
00000000
00000000
00000000
00000010
00000000
00000000
00000000
,
00001000
00000000
00000000
00000000
00000100
00000000
00000000
00010000
00001000
00000000
00000000
00000000
00100000
00000000
00000000
00010000
,
10000000
00000000
00000000
00010000
10000000
00000000
00000000
00000000
00100000
00000000
00000000
00000000
01000000
00000000
00000000
00000000
,
00010000
00000000
00000000
00000000
00100000
00000000
00000000
00001000
00010000
00000000
00000000
00000000
00000100
00000000
00000000
00001000
,
00000001
00000000
00000000
00000100
00000010
00000000
00000000
00001000
00000100
00000000
00000000
00010000
00001000
00000000
00000000
00000000
;

//---------------dance-single - ----------------
#NOTES:
     dance-single:
     :
     Challenge:
     15:
     0.824294,0.861009,0.230002,0.090001,0.945009,577.000000,554.000000,23.000000,9.000000,0.000000,0.000000,0.824294,0.861009,0.230002,0.090001,0.945009,577.000000,554.000000,23.000000,9.000000,0.000000,0.000000:
0000
0000
0000
0000
,
0000
0000
0000
0000
,
0000
0000
0000
0000
,
0001
0000
0000
1000
0100
0000
0000
1000
0001
0000
0000
0010
0100
0000
0000
1000
,
0010
0000
0000
1000
0001
0000
0000
0010
0001
0000
0000
0100
0010
0000
0000
1000
,
0100
0000
0000
0010
0001
0000
0000
0100
0001
0000
0000
1000
0100
0000
0000
1000
,
0010
0000
0000
1000
0100
0000
0000
1000
0001
0000
0000
1000
0010
0000
0000
0100
,
0010
0000
0000
1000
0100
0000
0000
0010
0001
0000
0000
0100
0010
0000
0000
1000
,
0001
0000
0000
0010
0100
0000
0000
0010
0001
0000
0000
1000
0100
0000
0000
0010
,
0001
0100
0010
1000
0100
0010
0001
0100
0010
1000
0100
0010
,
0002
0000
0003
1001
,
0010
0000
1000
0000
0100
0000
0010
0000
0001
0000
0100
0000
0010
1000
0001
0000
,
0010
0000
0100
1000
0100
1000
0001
0000
0100
0000
0010
1000
0001
0000
0000
0000
,
0010
0000
0001
0000
0100
0000
0001
0000
0010
0000
0100
0000
1000
0010
0100
0000
,
0001
0000
1000
0010
1000
0010
0100
0000
0010
0000
1000
0001
0100
0000
0000
0000
,
0010
0000
1000
0000
0100
0000
0010
0000
0100
0000
1000
0000
0001
1000
0100
0000
,
0010
0000
0001
0100
0001
0100
0010
0000
1000
0000
0100
1000
0001
0000
0000
0000
,
0010
0000
0001
0000
1000
0000
0100
0000
0010
0000
1000
0000
0001
0100
0010
0000
,
1000
0000
0001
0010
0001
0010
0100
0000
1000
0010
0100
0001
0010
0100
1000
0000
,
0010
0000
1000
0000
0010
0000
0100
0000
0001
0000
0010
0000
0100
1000
0001
0000
,
0100
0000
0001
1000
0100
0010
0100
0000
1000
0000
0010
1000
0001
0000
0000
0000
,
0010
0000
0100
0000
0010
0000
0001
0000
1000
0000
0100
0000
1000
0010
0100
0000
,
0001
0000
1000
0100
1000
0001
0010
0000
0100
0000
1000
0001
0010
0000
0000
0000
,
0001
0000
1000
0000
0010
0000
1000
0000
0100
0000
0010
0000
0100
1000
0001
0000
,
0010
0000
0001
1000
0100
1000
0010
0000
1000
0000
0001
0010
0100
0000
0000
0000
,
1000
0000
0001
0000
1000
0000
0010
0000
0100
0000
0001
0000
0010
0100
1000
0000
,
0001
0000
1000
0001
0010
0100
1000
0000
0010
1000
0001
1000
0100
0010
0001
0000
,
0100
0001
0010
0100
1000
0010
1000
0001
,
0000
0010
0010
0001
0101
0100
0110
0000
,
0010
1000
0100
0010
0001
0100
0001
1000
,
0000
0100
0100
1000
1010
0010
0110
0000
,
0001
1000
0010
0100
0001
0010
0100
1000
,
0000
0001
0001
1000
1100
0100
0110
0000
,
0001
0000
0000
0000
1001
0000
0000
0000
0010
1000
0010
0000
0100
0000
0001
0010
,
0001
0000
1000
0000
0100
0010
0100
0000
1000
0000
0001
0100
0002
0000
0000
0000
,
0013
0001
1000
0010
0100
1000
0100
0001
,
0000
0010
0010
0100
1100
1000
1001
0000
,
0001
1000
0010
1000
0010
0100
0001
0100
,
0000
0001
0001
0010
0011
0010
0110
0000
,
1000
0010
1000
0001
0010
0100
0001
0100
,
0000
1000
1000
0001
0101
0100
0110
0000
,
0010
1000
0001
0100
0001
0010
0100
1000
,
0000
0000
0000
0010
1000
0000
0000
0001
1000
0000
0000
0001
0100
0000
0000
0010
,
1000
0000
0000
0100
0010
0000
0000
0001
1000
0000
0000
0010
1000
0000
0000
0001
,
0010
0000
0000
0001
0100
0000
0000
0001
1000
0000
0000
0100
1000
0000
0000
0001
,
0100
0000
0000
0010
1000
0000
0000
0100
1000
0000
0000
0010
0100
0000
0000
0001
,
1000
0100
0010
0001
0100
0010
1000
0001
0100
0010
0000
0000
,
1000
0001
0010
0100
0010
0001
0100
0010
1000
0001
0000
0000
,
1001
0000
0110
0000
0000
0000
0010
1000
0001
0000
0101
0000
1100
0000
0000
0000
,
0001
0100
0001
1000
0100
1000
0001
0010
0001
1000
0010
1000
,
0200
0000
0000
0000
0000
0000
0000
0000
0000
0000
0000
1300
0000
0010
0100
0002
,
0000
0000
0000
0000
0003
0000
0000
0200
0020
0000
0000
0000
0330
0000
0000
0000
,
0110
0000
0010
1000
0000
0001
0100
0000
0001
1000
0000
0100
,
0010
0000
0001
0100
0000
0001
1000
0000
0100
0010
0000
0000
,
0001
1000
0100
0010
0100
1000
0010
0100
0001
1000
0000
0000
,
0010
1000
0001
0010
0100
1000
0010
1000
0001
0100
0000
0000
,
0001
0000
1000
0010
0000
1000
0001
0000
0100
0010
0000
1000
,
0100
0000
1000
0001
0000
0010
0001
0000
1000
0010
0000
0000
,
0100
0001
0010
0001
1000
0100
1000
0010
0100
0001
0000
0000
,
1000
0001
0010
0001
1000
0100
0010
0100
1000
0001
0000
0000
,
1000
0000
0010
1000
0000
0100
0010
0000
1000
0001
0000
0100
,
0001
0000
0010
0100
0000
1000
0010
0000
1000
0001
0000
0010
,
0001
0000
0100
0010
0000
1000
0001
0000
1000
0100
0000
0000
,
0010
0100
1000
0100
1000
0010
0100
0001
1000
0001
0000
0000
,
0010
0000
0001
0100
0000
0010
1000
0000
0001
0100
0000
0001
,
0010
0000
0100
1000
0000
0010
1000
0000
0001
1000
0000
0100
,
0010
0000
0001
0100
0000
0001
1000
0000
0010
1000
0000
0100
,
1000
0010
1000
0010
0100
0001
0100
0001
1000
0100
0010
0001
0100
0000
1001
0000
,
0000
0000
0000
0000
0000
0000
0000
0110
0000
0000
0000
0000
0000
0000
0000
0000
,
1001
0000
0000
1000
0001
1000
0200
0000
0000
0000
0000
0000
,
0300
2200
0000
0000
,
0000
0000
0000
3300
;

//---------------dance-solo - ----------------
#NOTES:
     dance-solo:
     :
     Easy:
     6:
     0.311432,0.358754,0.070001,0.840008,0.000000,218.000000,211.000000,7.000000,84.000000,0.000000,0.000000,0.311432,0.358754,0.070001,0.840008,0.000000,218.000000,211.000000,7.000000,84.000000,0.000000,0.000000:
000000
000000
000000
000000
,
000000
000000
000000
000000
,
000000
000000
000000
000000
,
000001
000010
000100
000000
,
100000
010000
001000
000000
,
100000
001000
000010
000000
,
000001
000100
010000
000000
,
000100
001000
000001
100000
,
000010
000010
010000
010000
,
000002
000203
002300
103000
,
200002
000000
300003
010010
,
000100
100000
000010
001000
,
000020
020030
030020
020030
,
031000
100000
000001
010000
,
000200
002300
003200
002300
,
003010
010000
001000
100000
,
000020
020030
030020
020030
,
031000
100000
000100
001000
,
000002
200003
300002
200003
,
300010
010000
001000
100000
,
000020
000230
002300
023000
,
030100
100000
000010
001000
,
000002
000203
002300
203000
,
301000
010000
000001
000100
,
000020
000230
002300
023000
,
030001
100000
001000
000100
,
000002
000023
020030
230000
,
300002
000000
000000
000000
,
000000
002003
000000
000000
,
003000
000010
100000
001000
,
000000
010000
000010
001000
,
000000
200000
000000
000000
000000
000000
000000
000000
,
300020
000000
000000
000030
,
000100
000001
100000
000010
,
001000
000001
010000
000010
,
020000
000000
000000
000000
,
000000
030002
000000
000000
,
000000
000000
000000
000203
000000
000000
000000
000000
,
000000
000320
000000
000000
,
000000
000000
000000
200030
,
000000
000000
000000
300200
,
000000
002300
000000
003002
,
000000
010000
000010
010003
,
100001
100000
001000
000001
,
010000
000010
000100
000000
,
000010
000010
010000
010000
,
000002
200003
300200
002300
,
003020
020030
030200
001300
,
002200
003000
010000
100300
,
020000
030020
100000
001030
,
020020
000000
000000
000000
,
000000
000000
000000
030030
,
001100
000010
100000
001000
,
010000
000010
000100
000001
,
002000
003200
002300
003200
,
200300
300002
200003
300002
,
000103
000010
010000
001000
,
100000
000100
001000
000001
,
020000
030020
020030
030020
,
200030
300002
200003
300002
,
010003
001000
100000
000010
,
000100
010000
000001
001000
,
000010
010000
000001
001000
,
000020
020030
030200
002300
,
003010
100000
001000
010000
,
000001
010000
000100
100000
,
001000
010000
000010
001000
,
000001
000100
001000
100000
,
020020
000000
000000
000000
,
000000
000000
000000
000000
,
000000
000000
000000
000000
,
000000
000000
000000
030030
;

//---------------dance-solo - ----------------
#NOTES:
     dance-solo:
     :
     Medium:
     9:
     0.528577,0.609881,0.740007,0.260003,0.000000,370.000000,296.000000,74.000000,26.000000,0.000000,0.000000,0.528577,0.609881,0.740007,0.260003,0.000000,370.000000,296.000000,74.000000,26.000000,0.000000,0.000000:
000000
000000
000000
000000
,
000000
000000
000000
000000
,
000000
000000
000000
000000
,
000001
010000
000100
100000
,
001000
100000
000010
001000
,
000010
100000
001000
010000
,
000010
001000
000001
000100
,
000010
010000
000100
010000
,
000100
100000
001000
000000
000100
000001
001000
000000
,
001001
101000
001001
101000
,
200002
000000
300003
010010
,
000010
100000
001000
000000
010000
000001
000100
000000
,
000101
100100
000101
100100
,
010000
001000
000100
000000
000010
100000
000001
000000
,
011000
001010
011000
001010
,
000100
010000
000001
000000
000010
100000
001000
000000
,
010100
000110
010100
000110
,
001000
000100
100000
000000
000001
010000
000010
000000
,
001100
100001
001100
100001
,
001000
010000
000010
000000
000100
000001
100000
000000
,
100001
010010
100001
010010
,
000100
001000
000010
000000
100000
000001
010000
000000
,
010010
001100
010010
001100
,
001000
000001
000100
000000
000010
100000
010000
000000
,
110000
000011
110000
000011
,
010000
000001
000010
000000
001000
000100
100000
000000
,
101000
010100
001010
000101
,
000002
001000
010000
001000
,
000100
200003
001000
000010
,
301000
100000
000001
000100
,
000010
010000
000100
001000
,
000100
020000
000010
001000
,
030020
100000
001000
100030
,
000010
000000
100000
000000
000200
000000
000000
002300
,
000000
000000
003002
000000
000000
200003
000000
000000
,
302000
000001
010000
000001
,
000100
023000
000100
000001
,
001000
030002
000100
001000
,
000100
200003
001000
000010
,
001000
000010
010000
300002
,
010000
000010
010000
002003
,
003100
201000
300100
001002
,
100003
000200
002300
003020
,
200030
001000
010000
000010
,
000100
001000
000001
310000
,
000010
010000
001000
000000
010000
000010
001000
000000
,
101000
001001
101000
001001
,
000101
100100
000101
100100
,
100000
000010
000000
001000
000100
010000
000001
000000
,
101000
010100
001010
000101
,
200002
000000
000000
000000
,
000000
000000
000000
300003
,
000010
000100
000001
000000
001000
100000
010000
000000
,
000100
001000
000010
000000
100000
000001
010000
000000
,
011000
000110
011000
000110
,
010100
001010
010100
001010
,
000001
001000
000010
000000
100000
000100
010000
000000
,
001000
010000
000100
000000
000010
100000
000001
000000
,
001001
100100
001001
100100
,
000101
101000
000101
101000
,
000001
100000
000100
000000
010000
000010
001000
000000
,
000100
001000
000001
000000
010000
000010
100000
000000
,
000100
001000
000001
000000
100000
010000
000010
000000
,
110000
001100
000011
100001
,
001000
000010
000100
000000
010000
000001
100000
000000
,
001000
100000
000100
000000
010000
000010
000001
000000
,
000100
000001
010000
000000
001000
100000
000010
000000
,
001000
000100
001000
000100
001000
000100
001000
000100
,
020020
000000
000000
000000
,
000000
000000
000000
000000
,
000000
000000
000000
000000
,
000000
000000
000000
030030
;

//---------------dance-solo - ----------------
#NOTES:
     dance-solo:
     :
     Hard:
     13:
     0.660007,0.645756,0.290003,0.290003,0.005000,462.000000,433.000000,29.000000,29.000000,0.000000,0.000000,0.660007,0.645756,0.290003,0.290003,0.005000,462.000000,433.000000,29.000000,29.000000,0.000000,0.000000:
000000
000000
000000
000000
,
000000
000000
000000
000000
,
000000
000000
000000
000000
,
000001
000000
001000
000100
010000
000000
000010
100000
,
001000
000000
010000
000001
000100
000000
000010
100000
,
001000
000000
010000
000010
000100
000000
000001
100000
,
001000
000000
100000
010000
000001
000000
000100
000010
,
100000
000000
000100
001000
000010
000000
000001
010000
,
000010
000100
000001
001000
000010
100000
001000
010000
,
011000
000110
001010
010100
,
200002
000000
300003
010010
,
000010
010000
000100
100000
001000
010000
000001
000100
,
000002
001000
001003
000000
200000
001000
301000
000000
,
000010
010000
001000
100000
000100
001000
000001
000100
,
000020
001000
001030
000000
020000
001000
031000
000000
,
100000
000100
010000
000010
000100
000001
100000
000100
,
020000
000100
030100
000000
000020
000100
000130
000000
,
000001
100000
010000
000100
001000
000010
100000
001000
,
200000
000100
300100
000000
000002
000100
000103
000000
,
000010
010000
001000
100000
000100
001000
000001
000100
,
000102
100000
100003
000000
200100
000001
300001
000000
,
100000
000010
000100
000001
010000
000100
001000
000010
,
000120
010000
010030
000000
020100
000010
030010
000000
,
001000
000001
000100
000010
100000
000100
010000
000001
,
001002
010000
010003
000000
201000
000010
300010
000000
,
001000
000001
000100
000010
100000
000001
010000
001000
,
021000
000001
030001
000000
001020
100000
100030
000000
,
000001
000100
000010
010000
000100
001000
000100
100000
,
000000
100000
010000
001000
000100
000010
000001
000000
,
000100
000001
000010
001000
000100
100000
000001
010000
,
000000
000001
000010
000100
001000
010000
100000
000000
,
001000
010000
000001
000100
000010
100000
010000
000001
,
000000
000100
000010
001000
000001
100000
010000
000000
,
100000
000001
000100
000000
000102
000000
010003
012000
,
000000
103000
100020
000000
001030
002100
000000
003001
,
000100
000001
000010
001000
010000
000001
100000
001000
,
000000
000100
001000
000010
010000
000001
100000
000000
,
010000
000010
000100
001000
000001
010000
000100
100000
,
000000
000001
100000
000010
010000
000100
001000
000000
,
000100
010000
001000
000100
000001
100000
000010
010000
,
000000
001000
010000
000100
100000
000001
000010
000000
,
000001
001000
000100
100000
000010
000100
001000
010000
,
000000
000000
000001
010000
001000
100000
000010
000100
,
200001
000000
001000
000000
000010
000010
000000
001000
,
000000
010000
310000
100000
000002
000100
000103
001000
,
000010
010000
001000
100000
000001
010000
000010
000100
,
000110
011000
001010
010100
,
101000
001001
100100
000101
,
000100
000000
000100
000000
000000
000000
010000
000010
020000
000000
001000
000000
031000
000000
000000
000000
,
100000
000001
000100
000010
010000
000100
001000
000001
,
002200
000000
000000
000000
,
000000
000000
000000
003300
,
000001
010000
000100
010000
001000
100000
000010
001000
,
000010
001000
010000
000010
000100
000001
100000
000010
,
001000
000100
100000
000100
001000
000100
100000
000000
,
001000
000100
010000
000100
001000
000100
010000
000000
,
000010
010000
000100
001000
000001
000100
000001
010000
,
000100
100000
000100
001000
000001
000010
001000
010000
,
000001
000100
001000
000100
000001
000100
001000
000000
,
000010
000100
001000
000100
000010
000100
001000
000000
,
010000
000001
001000
000010
100000
001000
010000
000010
,
000100
000010
001000
000100
010000
000100
100000
000001
,
000100
000010
010000
000100
010000
000001
100000
001000
,
010000
000010
001000
000100
010000
000010
100000
000000
,
000010
000100
000001
010000
000100
100000
000100
000010
,
001000
000100
010000
000100
100000
000010
000100
010000
,
001000
000100
000001
001000
000010
010000
000100
001000
,
000010
010000
000100
001000
000001
000100
001000
100000
,
020020
000000
000000
000000
,
000000
000000
000000
000000
,
000000
000000
000000
000000
,
000000
000000
000000
030030
;

//---------------dance-solo - ----------------
#NOTES:
     dance-solo:
     :
     Challenge:
     16:
     0.828580,0.861009,0.240002,0.110001,0.930009,580.000000,556.000000,24.000000,11.000000,0.000000,0.000000,0.828580,0.861009,0.240002,0.110001,0.930009,580.000000,556.000000,24.000000,11.000000,0.000000,0.000000:
000000
000000
000000
000000
,
000000
000000
000000
000000
,
000000
000000
000000
000000
,
000001
000000
000000
010000
000010
000000
000000
100000
000100
000000
000000
001000
000001
000000
000000
010000
,
001000
000000
000000
100000
000010
000000
000000
000100
000001
000000
000000
010000
001000
000000
000000
100000
,
000010
000000
000000
000100
001000
000000
000000
000100
000001
000000
000000
010000
000100
000000
000000
001000
,
000100
000000
000000
100000
010000
000000
000000
001000
100000
000000
000000
000010
001000
000000
000000
000001
,
000100
000000
000000
010000
000001
000000
000000
000100
100000
000000
000000
000010
010000
000000
000000
001000
,
100000
000000
000000
000100
001000
000000
000000
000001
000100
000000
000000
000010
010000
000000
000000
000001
,
100000
001000
100000
000010
001000
000010
010000
000100
010000
000001
000100
000002
,
200000
000000
300003
010010
,
001000
100000
000010
000100
000001
010000
000100
100000
,
000010
000000
010000
001000
010000
000100
100000
000000
001000
000000
010000
000010
000100
000000
000000
000000
,
000001
100000
000100
010000
000010
000100
000001
001000
,
000100
000000
100000
000010
100000
000100
001000
000000
000010
000000
010000
000001
001000
000000
000000
000000
,
000100
010000
001000
100000
000010
000100
000001
001000
,
000100
000000
010000
000001
000100
000010
100000
000000
001000
000000
010000
000100
001000
000000
000000
000000
,
000010
100000
001000
010000
000001
010000
000100
001000
,
000010
000000
010000
001000
100000
000010
001000
000000
000001
000100
000001
010000
000010
001000
000100
100000
,
000100
010000
001000
000010
100000
000001
001000
010000
,
000010
000000
001000
000001
000100
000010
100000
000000
001000
000000
010000
000010
100000
000000
000000
000000
,
010000
000001
001000
000010
100000
001000
010000
000001
,
000100
000000
000010
010000
001000
100000
000001
000000
000100
000000
000010
010000
000001
000000
000000
000000
,
100000
000001
000100
000010
010000
001000
100000
000010
,
001000
000000
000100
001000
000001
000100
000010
000000
010000
000000
001000
100000
000010
000000
000000
000000
,
100000
001000
000010
010000
000010
000100
000001
100000
,
001000
000000
010000
000010
000100
001000
100000
000000
000010
001000
000001
100000
000001
010000
000001
000100
,
000010
010000
001000
100000
000100
001000
000001
100000
,
000000
010000
100000
000010
000110
000001
010010
000000
,
001000
100000
000010
001000
000001
010000
001000
100000
,
000000
000010
000100
000001
001001
010000
010010
000000
,
001000
010000
000001
000100
000010
100000
010000
000100
,
000000
001000
100000
000010
000110
010000
010001
000000
,
000100
000000
001000
000000
000010
000000
100000
000000
000001
000100
000001
000000
001000
000000
000010
010000
,
000010
000000
100000
000000
001000
010000
001000
000000
100000
000000
000100
001000
000002
000000
000000
000000
,
100003
000001
000100
000010
001000
000100
010000
001000
,
100000
000100
010000
000010
001010
100000
101000
000000
,
000100
010000
000001
001000
000010
100000
001000
010000
,
000100
100000
000001
010000
011000
001000
010010
000000
,
000100
100000
010000
001000
000001
010000
000010
000100
,
001000
100000
000010
000100
000101
010000
100100
000000
,
001000
000100
100000
000001
000100
000010
010000
000001
,
000000
000000
000000
000001
100000
000000
000000
001000
010000
000000
000000
000010
000100
000000
000000
001000
,
100000
000000
000000
000010
000100
000000
000000
001000
010000
000000
000000
000001
001000
000000
000000
000010
,
000100
000000
000000
000001
100000
000000
000000
000100
010000
000000
000000
001000
100000
000000
000000
000001
,
000010
000000
000000
010000
000100
000000
000000
100000
000001
000000
000000
000100
000010
000000
000000
001000
,
000100
100000
000010
000100
000001
010000
001000
010000
000100
100000
000000
000000
,
000001
010000
001000
100000
000010
001000
000100
010000
000010
000100
000000
000000
,
001100
000000
100001
000000
000000
000000
100000
000100
100000
000000
000001
000000
000101
000000
000000
000000
,
100000
000100
010000
000010
000100
000001
001000
000010
010000
000001
100000
002000
,
200000
000000
000000
000000
000000
000000
000000
000000
003000
000000
000000
300010
000000
010000
000001
000200
,
000000
000000
000000
000000
000300
000000
000000
000020
020000
000000
000000
000000
030030
000000
000000
000000
,
100001
000000
000100
000010
000000
010000
000100
000000
100000
001000
000000
010000
,
000001
000000
000100
000010
000000
100000
000001
000000
000010
001000
000000
010000
,
000100
100000
001000
000100
000001
010000
000010
001000
000100
100000
000000
000000
,
001000
010000
000010
000100
000001
010000
001000
100000
000010
000100
000000
000000
,
000110
000000
000010
010000
000000
001000
100000
000000
000001
010000
000000
000100
,
001000
000000
010000
000001
000000
000010
000100
000000
000001
100000
000000
001000
,
010000
000100
100000
000100
001000
000010
000100
000001
100000
001000
000000
000000
,
010000
000010
000100
000001
001000
000100
100000
001000
010000
000010
000000
000000
,
100100
000000
010000
000010
000000
000100
000001
000000
001000
000010
000000
100000
,
001000
000000
010000
001000
000000
100000
000010
000000
000100
000001
000000
000100
,
000010
000000
001000
000100
000000
010000
000001
000000
000100
000010
000000
100000
,
001000
010000
000100
001000
000010
100000
000001
000100
010000
000010
000000
000000
,
010010
000000
100000
001000
000000
000010
010000
000000
000100
100000
000000
000010
,
000001
000000
100000
001000
000000
000010
010000
000000
001000
000100
000000
100000
,
010000
000000
000100
001000
000000
000010
100000
000000
000001
000100
000000
010000
,
000010
000100
000010
000100
000001
100000
000001
100000
000100
010000
001000
010000
000100
000000
001100
000000
,
000000
000000
000000
000000
000000
000000
000000
100100
000000
000000
000000
000000
000000
000000
000000
000000
,
001001
000000
000000
100000
010000
000010
000002
000000
000000
000000
000000
000000
,
000003
020020
000000
000000
,
000000
000000
000000
030030
;

//---------------dance-solo - ----------------
#NOTES:
     dance-solo:
     :
     Beginner:
     4:
     0.182859,0.287003,0.030000,0.020000,0.000000,128.000000,125.000000,3.000000,2.000000,0.000000,0.000000,0.182859,0.287003,0.030000,0.020000,0.000000,128.000000,125.000000,3.000000,2.000000,0.000000,0.000000:
// measure 0
000000
000000
000000
000000
,  // measure 1
000000
000000
000000
000000
,  // measure 2
000000
000000
000000
000000
,  // measure 3
000010
000000
000000
000000
,  // measure 4
000010
000000
000000
000000
,  // measure 5
010000
000000
000000
000000
,  // measure 6
010000
000000
000000
000000
,  // measure 7
000010
000000
000000
000000
,  // measure 8
010000
000000
000010
000000
,  // measure 9
001000
001000
001000
001000
,  // measure 10
001000
000000
000000
000000
,  // measure 11
000010
000010
000010
000010
,  // measure 12
000000
000000
000000
000000
,  // measure 13
010000
010000
010000
010000
,  // measure 14
000000
000000
000000
000000
,  // measure 15
001000
001000
001000
001000
,  // measure 16
000000
000000
000000
000000
,  // measure 17
010000
010000
010000
010000
,  // measure 18
000000
000000
000000
000000
,  // measure 19
000010
000010
000010
000010
,  // measure 20
000000
000000
000000
000000
,  // measure 21
001000
001000
001000
001000
,  // measure 22
000000
000000
000000
000000
,  // measure 23
000010
000010
000010
000010
,  // measure 24
000000
000000
000000
000000
,  // measure 25
010000
010000
010000
010000
,  // measure 26
000000
000000
000000
000000
,  // measure 27
000010
000000
000000
000000
,  // measure 28
010000
000000
000000
000000
,  // measure 29
000010
000000
000000
000000
,  // measure 30
010000
000000
000000
000000
,  // measure 31
001000
000000
000000
000000
,  // measure 32
010000
000000
000000
000000
,  // measure 33
000010
000000
000010
000000
,  // measure 34
010000
000000
010000
000000
,  // measure 35
000010
000000
000000
000000
,  // measure 36
010000
000000
000000
000000
,  // measure 37
010000
000000
000000
000000
,  // measure 38
000010
000000
000000
000000
,  // measure 39
010000
000000
000000
000000
,  // measure 40
001000
000000
000000
000000
,  // measure 41
010000
000000
000000
000000
,  // measure 42
000010
000000
000000
000000
,  // measure 43
010010
000000
000000
000000
,  // measure 44
000000
000000
000000
000000
,  // measure 45
010000
000000
000010
000000
,  // measure 46
001000
001000
001000
000000
,  // measure 47
000010
000010
000010
000000
,  // measure 48
010000
000000
000010
000000
,  // measure 49
001000
001000
000000
000000
,  // measure 50
010010
000000
000000
000000
,  // measure 51
000000
000000
000000
000000
,  // measure 52
010000
010000
010000
000000
,  // measure 53
000010
000010
000010
000000
,  // measure 54
001000
001000
001000
000000
,  // measure 55
001000
001000
001000
000000
,  // measure 56
000010
000010
000010
000000
,  // measure 57
010000
010000
010000
000000
,  // measure 58
000010
000010
000010
000000
,  // measure 59
001000
001000
001000
000000
,  // measure 60
000010
000010
000010
000000
,  // measure 61
010000
010000
010000
000000
,  // measure 62
010000
010000
010000
000000
,  // measure 63
010000
010000
010000
000000
,  // measure 64
001000
001000
001000
000000
,  // measure 65
010000
010000
010000
000000
,  // measure 66
000010
000010
000010
000000
,  // measure 67
001000
001000
001000
000000
,  // measure 68
020020
000000
000000
000000
,  // measure 69
000000
000000
000000
000000
,  // measure 70
000000
000000
000000
000000
,  // measure 71
000000
000000
000000
030030
;
