#TITLE:чен JAPAN (FROM NONSTOP MEGAMIX);
#SUBTITLE:;
#ARTIST:RE-VENGE;
#TITLETRANSLIT:MATSURI JAPAN (FROM NONSTOP MEGAMIX);
#SUBTITLETRANSLIT:;
#ARTISTTRANSLIT:;
#GENRE:;
#CREDIT:;
#BANNER:MATSURI JAPAN (FROM NONSTOP MEGAMIX).png;
#BACKGROUND:MATSURI JAPAN (FROM NONSTOP MEGAMIX)-bg.png;
#LYRICSPATH:;
#CDTITLE:;
#MUSIC:MATSURI JAPAN (FROM NONSTOP MEGAMIX).ogg;
#OFFSET:0.000000;
#SAMPLESTART:54.672001;
#SAMPLELENGTH:15.000000;
#SELECTABLE:YES;
#DISPLAYBPM:180.000000;
#BPMS:0.000000=178.000000
,4.000000=180.000000
;
#STOPS:
;
#BGCHANGES:;
#KEYSOUNDS:;
#ATTACKS:;

//---------------dance-single - ----------------
#NOTES:
     dance-single:
     :
     Medium:
     9:
     0.506020,0.605780,0.574401,0.042548,0.132963,333.000000,279.000000,54.000000,4.000000,0.000000,0.000000,0.506020,0.605780,0.574401,0.042548,0.132963,333.000000,279.000000,54.000000,4.000000,0.000000,0.000000:
0000
0000
0000
0000
,
0000
0000
0000
0000
,
0000
0000
0000
0000
,
0010
1000
0001
0010
,
0010
0001
1000
0010
,
0101
0000
0001
0100
0000
1000
0100
0000
1000
0100
0000
0001
,
0100
0000
0001
0100
0000
1000
0100
0000
1000
0100
0000
0000
,
0010
1000
0001
0010
,
0010
0001
1000
0010
,
0101
0000
0001
0100
0000
1000
0100
0000
1000
0100
0000
0001
,
0100
0000
0001
0100
0000
1000
0100
0000
1000
0100
0000
0000
,
0010
1000
0100
0000
0001
0000
0101
0000
,
0010
0001
0100
0000
1100
0000
1100
0000
,
0010
1000
0100
0000
0001
0000
0101
0000
,
0010
0001
0100
0000
1100
0000
1100
0000
,
0010
1000
0100
0000
0001
0000
0101
0000
,
0010
1000
0001
0010
,
0010
0001
0100
0000
1100
0000
1100
0000
,
0010
0001
1000
0010
,
0101
0000
1000
0100
0000
0001
0100
0000
1000
0100
0000
0000
,
0010
0001
1000
0010
,
1001
0000
1000
0001
0000
0001
1000
0000
1000
0001
0000
0000
,
0010
0001
1000
0010
,
0010
0100
0001
0000
1100
0000
0000
0000
,
0010
0100
1000
0000
0101
0000
0000
0000
,
0010
0100
0001
0000
1100
0000
0000
0000
,
0010
0100
1000
0000
0101
0000
0000
0000
,
0010
0101
0010
1100
,
0010
0101
0010
1100
,
0010
0101
0010
1100
,
0010
0101
1100
0101
,
1001
0000
0000
0100
0000
0001
0100
0000
0001
0000
0000
1001
,
0000
0000
1000
0100
0000
1000
0100
0000
0000
1001
0000
0000
,
0010
0001
1000
0010
,
0010
1000
0001
0010
,
0010
0001
1000
0010
,
0010
1000
0001
0010
,
1100
0101
1100
0101
,
2002
0000
0000
0000
,
0000
0000
0000
0000
,
0000
0000
0000
3003
,
0011
1000
0100
1100
,
0001
1001
0100
0001
,
0010
0001
1000
0010
,
0010
1000
0001
0010
,
1100
0010
0100
1100
,
1000
1001
1000
0010
,
0010
1000
0001
0010
,
0010
0001
1000
0010
,
1001
0010
0100
1001
,
1000
1001
0001
0100
,
0101
1000
1100
0001
,
0010
0001
1000
0010
,
0010
1100
0001
1100
,
0100
1100
1000
1100
,
0010
0101
1000
0101
,
0100
0101
0001
0101
,
1000
0000
1000
0000
0001
0100
1000
0000
,
0001
0000
0001
0000
1000
0100
0001
0000
,
1000
0000
1000
0000
0001
0100
1000
0000
,
0001
0000
0001
0000
1000
0100
0001
0000
,
1000
0010
0100
0010
,
0100
0010
0100
0001
,
1000
0010
0100
0010
,
0100
0001
1000
0001
,
2000
0001
0010
3100
,
0002
1000
0010
0103
,
1001
0000
0000
0000
;

//---------------dance-double - ----------------
#NOTES:
     dance-double:
     :
     Medium:
     8:
     0.457393,0.641414,0.404208,0.053185,0.101052,301.000000,263.000000,38.000000,5.000000,0.000000,0.000000,0.457393,0.641414,0.404208,0.053185,0.101052,301.000000,263.000000,38.000000,5.000000,0.000000,0.000000:
00000000
00000000
00000000
00000000
,
00000000
00000000
00000000
00000000
,
00000000
00000000
00000000
00000000
,
00000010
00000001
00000010
00001000
,
00000010
00000001
00000010
00001000
,
00000101
00000000
00000100
00001000
00000000
00001000
00010000
00000000
00010000
01000000
00000000
10000000
,
01000000
00000000
10000000
01000000
00000000
00010000
01000000
00000000
00010000
01000000
00000000
00000000
,
00100000
10000000
00100000
00010000
,
00100000
10000000
00100000
00010000
,
11000000
00000000
01000000
00010000
00000000
00010000
00001000
00000000
00001000
00000100
00000000
00000001
,
00000100
00000000
00000001
00000100
00000000
00001000
00000100
00000000
00001000
00000100
00000000
00000000
,
00000011
00001001
00001100
00001001
,
00000110
00001000
00010000
01000000
,
11000000
10010000
00110000
10010000
,
01100000
00010000
00001000
00000100
,
00001000
00000100
00001000
00020000
,
00100000
00001000
00100000
00031000
,
00010000
01000000
00010000
00002000
,
00000010
00010000
00000010
00013000
,
01000000
00010000
00001000
00000100
,
00000010
00000001
00000010
00001000
,
00000100
00001000
00010000
01000000
,
00100000
10000000
00100000
00010000
,
10000000
01000000
00100000
01000000
,
10000000
01000000
00100000
01000000
,
00010000
01000000
00010000
01000000
,
00010000
00001000
00000100
00000001
,
00001000
00000001
00000100
00000001
,
00001000
00000001
00000100
00000001
,
00000010
00001000
00000010
00001000
,
00010000
00100000
10000000
01000000
,
10010000
00000000
00000000
10000000
00000000
01000000
10000000
00000000
01000000
00000000
00000000
00010000
,
00000000
00000000
00001000
00010000
00000000
00001000
00000100
00000000
00000000
00000001
00000000
00000000
,
00001001
00000100
00001000
00000100
,
00000010
00000001
00000010
00001000
,
00000010
00000001
00000010
00001000
,
00000010
00001000
00010000
00100000
,
10000000
10000000
01000000
02000000
,
00020000
00000000
00000000
00000000
,
00000000
00000000
00000000
00000000
,
00000000
00000000
00000000
03030000
,
10000000
10010000
10000000
10010000
,
01000000
00010000
00001000
00000100
,
00000010
00000001
00000010
00001000
,
00000010
00000001
00000010
00001000
,
00000001
00001001
00000001
00001001
,
00000100
00001000
00010000
01000000
,
00100000
10000000
00100000
00010000
,
00100000
10000000
00100000
00010000
,
10000000
01000000
00010000
00001000
,
00010010
00011000
00010010
00011000
,
00101000
00011000
00101000
00021000
,
00100000
00001000
00100000
00031000
,
00010010
00011000
00010010
00011000
,
00000100
00000001
00000100
00001000
,
00000010
00000100
00000001
00000010
,
00000100
00000001
00000100
00001000
,
00000010
00000001
00000010
00001000
,
00000101
00000101
00001000
00010000
,
11000000
11000000
00010000
01000000
,
11000000
11000000
00010000
00001000
,
00000101
00000101
00001000
00000100
,
00000001
00000010
00000100
00000010
,
00000100
00000010
00001000
00010000
,
00100000
10000000
00010000
10000000
,
00100000
10000000
00010000
10000000
,
00100000
10000000
01000000
10000000
,
00010000
00000000
00000000
00000000
;

//---------------dance-single - ----------------
#NOTES:
     dance-single:
     :
     Challenge:
     15:
     0.746113,0.936858,0.393571,0.148919,1.015839,491.000000,454.000000,37.000000,14.000000,0.000000,0.000000,0.746113,0.936858,0.393571,0.148919,1.015839,491.000000,454.000000,37.000000,14.000000,0.000000,0.000000:
0000
0000
0000
0000
,
0000
0000
0000
0000
,
0000
0000
0000
0000
,
0011
0000
0000
0000
0000
1000
0001
0000
0000
0000
0000
1010
,
0000
0000
0101
0000
0000
0100
0010
0000
0000
0000
0000
0010
,
1000
0000
1000
0000
0000
0010
0001
0000
0001
0000
0000
0010
,
1000
0000
1000
0000
0000
0010
0001
0000
0001
0000
0000
0010
,
1000
0000
0001
0010
0000
0001
1000
0000
0100
0010
0000
0000
,
0001
0000
0100
0010
0000
1000
0100
0000
1000
0001
0000
0000
,
1100
0000
1000
0010
0000
1000
0010
0000
1000
0010
0000
0000
,
0100
0000
0001
1000
0001
1000
0001
0000
0010
0100
0010
0100
1000
0010
0100
0001
,
2000
0000
0000
0010
0000
0000
3010
0000
0100
0000
0001
1000
0001
0100
0010
1000
,
0001
0000
0010
0000
0000
0000
0001
0000
1000
0000
0010
0100
0001
0100
0001
1000
,
0020
0000
0000
0100
0000
0000
0130
0000
0001
0000
0010
0001
1000
0010
1000
0100
,
1000
0000
0001
0000
0000
0000
0010
0000
0001
0000
0100
0001
1000
0100
0010
0100
,
2000
0000
0000
0001
0000
0000
3001
0000
0010
0000
0001
0100
0010
0100
0010
1000
,
0100
0000
0010
0000
0000
0000
0001
0000
0100
0000
0010
1000
0100
1000
0001
1000
,
0002
0000
0000
0010
0000
0000
0013
0000
0100
0000
1000
0010
1000
0001
1000
0100
,
0010
0000
0001
1000
0001
1000
0001
0000
0100
0001
1000
0100
1000
0010
0100
0010
,
1000
0000
0001
0010
0000
0001
1000
0000
0001
0100
0000
0001
,
1000
0000
0001
0100
0000
0001
0010
0000
0001
0100
0000
0001
,
0010
0000
0001
0100
0000
0001
0010
0000
0001
1000
0000
0001
,
1000
0000
0100
0010
0001
0100
0001
0000
1000
0001
1000
0010
1000
0100
0010
0001
,
0100
0010
0100
0001
0010
0100
1000
0001
,
0000
1000
0001
0010
0100
1000
0001
0000
,
1000
0010
0001
0010
0100
1000
0100
0001
,
0000
0010
0001
1000
0010
0100
1000
0000
,
0010
1000
0010
0001
1000
0100
0001
0100
,
0000
1000
0010
0100
0001
1000
0010
0000
,
0100
0001
0010
1000
0010
0001
1000
0100
,
0000
0000
0000
1000
0000
0010
0100
0000
0001
0010
0000
0100
,
1000
0000
0000
0010
0000
0100
0001
0000
0001
0000
0000
1001
,
0000
0000
0010
0100
0000
0010
0100
0000
0000
0110
0000
0010
,
1000
0000
0001
0010
0000
0001
1000
0000
0010
0100
0000
0001
,
0020
1000
0001
0130
,
0002
1000
0100
0013
,
1001
0000
0000
0000
0000
0000
1001
0000
0000
0000
0000
0000
0000
0000
0000
0000
0000
0000
1000
0000
0000
0001
0000
0000
0100
0000
0000
0000
0000
0000
0000
0000
0010
0000
0000
0000
0100
0000
0000
0000
0000
0000
0000
0000
0000
0000
0000
0000
,
0101
1100
0101
1100
,
0022
0000
0000
0000
0000
0000
0000
0000
0030
0000
0000
0000
1003
0000
0010
0100
,
0020
0000
0000
0000
0000
2030
0002
0000
0000
3000
0000
0000
,
0200
0000
0303
0110
,
1001
0000
1000
0010
0000
1000
0100
0000
0010
0100
0000
0010
,
0001
0000
1000
0010
0000
0100
0001
0000
0010
0100
0000
1000
,
0001
0100
0001
0010
0100
1000
0010
1000
0001
0100
0000
0000
,
0010
1000
0010
0100
0001
0010
0001
1000
0001
0100
0000
0000
,
1010
0000
0010
0100
0000
0001
0010
0000
0001
1000
0000
0100
,
0010
0000
0100
1000
0000
0010
1000
0000
0001
1000
0000
0100
,
0010
0001
0100
0001
1000
0100
1000
0010
0100
0001
0000
0000
,
0010
0100
0010
0100
1000
0001
1000
0010
0100
0001
0000
0000
,
0011
0000
0001
1000
0000
0010
1000
0000
0100
0010
0000
0001
,
0010
0000
0001
1000
0000
0100
1000
0000
0010
0100
0000
0001
,
0010
0000
0001
1000
0000
0010
1000
0000
0100
0010
0000
0000
,
0001
1000
0010
0100
0001
0010
0100
1000
0001
0100
0000
0000
,
0110
0000
0010
0100
0000
0001
0010
0000
0001
1000
0000
0100
,
0010
0000
0001
0100
0000
0001
1000
0000
0010
0100
0000
0001
,
0010
0000
0100
0010
0000
0100
1000
0000
0010
0100
0000
0001
,
0010
0000
0001
1000
0000
0010
1000
0000
0100
0010
0000
0001
,
0100
0000
0000
0000
0000
0001
1000
0000
0000
0000
0000
1100
,
0000
0000
0101
0000
0000
0010
0100
0000
0000
0000
0000
0000
,
0000
0000
1010
0000
0000
0110
0000
0000
0101
0000
0000
0011
,
0000
0000
1100
0000
0000
1000
0001
0000
0000
0000
0000
0000
,
0011
0000
0000
0000
0000
0100
0001
0000
0000
0000
0000
1001
,
0000
0000
0101
0000
0000
1000
0010
0000
0000
0000
0000
0000
,
0110
0000
0000
0000
0000
1000
0100
0000
0000
0000
0000
0011
,
0000
0000
1001
0000
0000
0001
0010
0000
0000
0000
0000
0000
,
0000
0000
1001
0000
0000
1010
0000
0000
0110
0000
0000
0101
,
0000
0000
1100
0000
0000
0001
0100
0000
0000
0000
0000
0000
,
0220
0000
0000
0330
;

//---------------dance-single - ----------------
#NOTES:
     dance-single:
     :
     Hard:
     11:
     0.530333,0.641414,0.499941,0.319112,0.537171,349.000000,302.000000,47.000000,30.000000,0.000000,0.000000,0.530333,0.641414,0.499941,0.319112,0.537171,349.000000,302.000000,47.000000,30.000000,0.000000,0.000000:
0000
0000
0000
0000
,
0000
0000
0000
0000
,
0000
0000
0000
0000
,
0012
1000
0010
0103
,
2010
0100
0001
3010
,
1000
0000
0001
0000
0000
0000
0001
0000
1000
0000
0000
0000
,
0010
0000
0100
0000
0000
0000
0100
0000
0010
0000
0000
0000
,
0102
0010
0100
1003
,
2100
0001
0010
3100
,
1000
0000
0001
0000
0000
0100
0010
0000
0000
0110
0000
0000
,
1000
1000
0001
0001
0010
0100
1001
0000
,
2000
0000
0000
3002
0000
0000
0013
0000
0001
0000
0100
0000
0010
0000
1000
0000
,
0010
0100
0000
0100
0001
1000
0001
0010
,
0200
0000
0000
0320
0000
0000
0031
0000
0100
0000
0001
0000
1000
0000
0010
0000
,
1000
0100
0000
0100
0010
0001
1000
0010
,
0200
0000
0000
0302
0000
0000
0013
0000
0001
0000
1000
0000
0010
0000
1000
0000
,
0100
0010
0000
0010
0100
1000
0001
1000
,
0020
0000
0000
2030
0000
0000
3001
0000
1000
0000
0010
0000
0100
0000
0001
0000
,
0010
0010
0100
0100
1000
0001
1001
0000
,
0010
0000
0001
1000
0000
0001
0100
0000
0001
1000
0000
0001
,
0010
2100
3010
0102
,
0013
0000
0001
1000
0000
0001
0100
0000
0001
1000
0000
0001
,
1000
1000
0010
0010
0100
0001
1001
0000
,
0010
0000
0100
0000
0000
0001
0000
0000
1000
0000
0000
0001
,
0000
0000
0010
0000
0000
0100
0000
0000
1000
0000
0000
0010
,
0000
0000
1000
0000
0000
0100
0000
0000
0010
0000
0000
0001
,
0000
0000
0100
0000
0000
0010
0000
0000
1000
0000
0000
0001
,
1000
1100
0001
0011
,
0100
0101
0010
1010
,
0001
1001
0100
0110
,
0010
0000
0000
1000
0000
1000
0001
0000
0001
0100
0000
0100
,
0020
0000
0000
1000
0000
0000
0100
0000
0130
0000
0000
0101
,
0000
0000
1100
0000
0000
0001
2000
0000
0000
3100
0000
0000
,
1000
0000
1000
0001
0000
0001
0010
0000
0010
0100
0000
0100
,
2000
3020
0230
0302
,
2003
3200
0320
0032
,
1003
0000
0000
1002
0000
0000
0000
0000
0000
0100
0000
0000
0103
0000
0000
0000
0001
0000
0010
0000
0000
0000
0000
0000
,
0101
1100
0101
1100
,
0022
0000
0000
0000
,
0000
0000
0000
0030
,
2000
0000
3003
1001
,
0010
0000
1000
0000
0000
0001
0000
0000
0010
0000
0000
0100
,
0000
0000
1000
0000
0000
0001
0000
0000
1000
0000
0000
0001
,
0100
0101
1010
1100
,
1000
1001
0011
0110
,
1100
0000
0000
1000
0000
0001
0000
0000
0010
0000
0000
0100
,
0000
0000
0001
0000
0000
1000
0000
0000
0010
0000
0000
0100
,
0002
1003
0011
1100
,
0020
0130
1010
0101
,
0001
0000
1000
0000
0000
0010
0000
0000
1000
0000
0000
0100
,
0000
0000
0010
0000
0000
0100
0000
0000
0010
0000
0000
0001
,
0000
0000
1000
0000
0000
0010
0000
0000
0100
0000
0000
0001
,
1000
0101
1001
0011
,
0110
0000
0000
1000
0000
0010
0000
0000
0100
0000
0000
0001
,
0000
0000
0010
0000
0000
0001
0000
0000
1000
0000
0000
0010
,
0000
0000
0100
0000
0000
0001
0000
0000
1000
0000
0000
0100
,
0000
0000
1000
0100
0000
1000
0001
0000
1000
0010
0000
0100
,
0001
0000
0000
0000
0000
0100
0010
0000
0000
0000
0000
1000
,
0000
0000
0001
0000
0000
1000
0100
0000
0000
0000
0000
0000
,
1000
1001
0001
1001
,
0100
0000
0000
0100
0000
0010
1000
0000
0000
0000
0000
0000
,
0010
0000
0000
0000
0000
1000
0001
0000
0000
0000
0000
0010
,
0000
0000
0001
0000
0000
1000
0100
0000
0000
0000
0000
0000
,
1000
0000
0000
0000
0000
0001
0010
0000
0000
0000
0000
0100
,
0000
0000
0010
0000
0000
0100
1000
0000
0000
0000
0000
0000
,
0010
0110
0100
0110
,
0001
0011
1000
1010
,
1001
0000
0000
0000
;

//---------------dance-single - ----------------
#NOTES:
     dance-single:
     :
     Easy:
     6:
     0.334307,0.356341,0.159556,0.042548,0.000000,220.000000,205.000000,15.000000,4.000000,0.000000,0.000000,0.334307,0.356341,0.159556,0.042548,0.000000,220.000000,205.000000,15.000000,4.000000,0.000000,0.000000:
0000
0000
0000
0000
,
0000
0000
0000
0000
,
0000
0000
0000
0000
,
0001
1000
1001
0000
,
0010
0100
0110
0000
,
0001
0001
0001
0001
,
1000
1000
1000
1000
,
0100
0010
1001
0000
,
1000
0001
0110
0000
,
0010
0010
0010
0010
,
0100
0100
0100
0100
,
0001
0010
0001
1000
,
0010
1000
0100
0100
,
0010
0001
0100
0100
,
0001
0010
1000
0001
,
0100
0100
0010
0010
,
1000
0100
0010
0001
,
1000
0010
1000
0001
,
0010
0010
0100
0100
,
1000
0001
1000
0001
,
0010
0010
0010
0010
,
0001
1000
0001
1000
,
0100
0100
0100
0100
,
0000
1000
0000
1000
,
0000
0001
0000
0001
,
0000
0010
0000
0010
,
0000
0100
0000
0100
,
0000
0010
0000
1000
,
0000
0001
0000
0100
,
0000
0001
0000
0010
,
0000
0001
1000
0010
,
1001
0100
0001
0000
,
0110
1000
0010
0000
,
1000
0100
0001
0100
,
1000
1000
1000
1000
,
0010
0010
0010
0010
,
0220
0300
1000
0130
,
1000
0100
0010
0001
,
2000
0000
0000
0000
,
0000
0000
0000
0000
,
0002
0000
3003
1001
,
0010
0010
1000
0000
,
0010
0010
0001
0000
,
0100
0100
0100
0100
,
0010
0010
0010
0010
,
1000
1000
0100
0000
,
0001
0001
0100
0000
,
0001
0001
0001
0001
,
1000
1000
1000
1000
,
0001
0010
0100
0000
,
0010
0100
1000
0000
,
0010
1000
0001
0000
,
1000
1000
1000
1000
,
0001
1000
0010
0000
,
1000
0100
0001
0000
,
0010
0001
0100
0000
,
0001
0001
1000
1000
,
1001
0000
0110
0000
,
0100
0100
0100
0000
,
0001
1000
0001
1000
,
0010
0010
0010
0000
,
0110
0000
1001
0000
,
1000
1000
1000
0000
,
1001
0000
0110
0000
,
0001
0001
0001
0000
,
0010
0001
0100
0001
,
1000
0100
0010
0000
,
0110
0000
0000
0000
;

//---------------dance-single - ----------------
#NOTES:
     dance-single:
     :
     Beginner:
     3:
     0.179310,0.249439,0.053185,0.000000,0.000000,118.000000,113.000000,5.000000,0.000000,0.000000,0.000000,0.179310,0.249439,0.053185,0.000000,0.000000,118.000000,113.000000,5.000000,0.000000,0.000000,0.000000:
0000
0000
0000
0000
,
0000
0000
0000
0000
,
0000
0000
0000
0000
,
0010
0000
0010
0000
,
0100
0000
0100
0000
,
0001
0000
0000
0000
,
0000
0000
0000
0000
,
1000
0000
1000
0000
,
0001
0000
0001
0000
,
0100
0000
0000
0000
,
0010
0010
0010
0000
,
1000
0000
1000
0000
,
0001
0000
0001
0000
,
0010
0000
0100
0000
,
0010
0000
0100
0000
,
0001
0000
1000
0000
,
0001
0000
1000
0000
,
0010
0000
0010
0000
,
0100
0000
0100
0000
,
0001
0000
0000
0000
,
1000
1000
1000
0000
,
0010
0000
0000
0000
,
0100
0100
0100
0000
,
0001
0000
0000
0000
,
0010
0000
0000
0000
,
0100
0000
0000
0000
,
1000
0000
0000
0000
,
0010
0000
0000
0000
,
1000
0000
0000
0000
,
0001
0000
0000
0000
,
0100
0000
0000
0000
,
0110
0000
0000
0000
,
1001
0000
0000
0000
,
0010
0000
0100
0000
,
0001
0000
0001
0000
,
1000
0000
1000
0000
,
0010
0000
1000
0000
,
0001
0001
0000
0000
,
1001
0000
0000
0000
,
0000
0000
0000
0000
,
0110
0000
0000
0000
,
1000
0000
1000
0000
,
1000
0000
1000
0000
,
0010
0010
0010
0000
,
0100
0100
0100
0000
,
0001
0000
0001
0000
,
0001
0000
0001
0000
,
1000
1000
1000
0000
,
0001
0001
0001
0000
,
0010
0000
0010
0000
,
0001
0000
0001
0000
,
1000
0000
1000
0000
,
0001
0001
0001
0000
,
0010
0000
0010
0000
,
0100
0000
0100
0000
,
0010
0000
0001
0000
,
1000
0000
0100
0000
,
1000
0000
1000
0000
,
1000
0000
0000
0000
,
0001
0000
0001
0000
,
0001
0000
0000
0000
,
0100
0000
0100
0000
,
0100
0000
0000
0000
,
0010
0000
0010
0000
,
0010
0000
0000
0000
,
1000
0000
0001
0000
,
0100
0000
0010
0000
,
0110
0000
0000
0000
;

//---------------dance-double - ----------------
#NOTES:
     dance-double:
     :
     Easy:
     6:
     0.335827,0.356341,0.170193,0.095733,0.000000,221.000000,205.000000,16.000000,9.000000,0.000000,0.000000,0.335827,0.356341,0.170193,0.095733,0.000000,221.000000,205.000000,16.000000,9.000000,0.000000,0.000000:
00000000
00000000
00000000
00000000
,
00000000
00000000
00000000
00000000
,
00000000
00000000
00000000
00000000
,
00000001
00000100
00000001
00000100
,
00000010
00001000
00000100
00010000
,
00011000
00000000
00101000
00000000
,
00110000
00000000
11000000
00000000
,
10000000
00100000
10000000
00100000
,
10000000
01000000
00100000
00001000
,
00011000
00000000
00010100
00000000
,
00001000
00000010
00000100
00000001
,
00000010
00000010
00000001
00001000
,
00000200
00000000
00010000
00001300
,
00010000
00001000
01000000
00100000
,
20000000
00000000
01000000
30010000
,
10000000
00100000
01000000
00001000
,
00020000
00000000
01000000
00030100
,
00010000
00000010
00000100
00000001
,
00002000
00000000
00000010
00003100
,
00000001
00000000
00001000
00000000
,
00000010
00000010
00000100
00000100
,
00000001
00000000
00001000
00000000
,
00000100
00000100
00010000
00010000
,
00000000
00001000
00000000
01000000
,
00000000
00100000
00000000
10000000
,
00000000
01000000
00000000
00100000
,
00000000
00010000
00000000
10000000
,
00000000
00100000
00000000
01000000
,
00000000
00001000
00000000
00100000
,
00000000
00010000
00000000
01000000
,
00000000
00001000
00010000
00001000
,
00010000
00000010
00000100
00000000
,
00000001
00000010
00000100
00000000
,
00001000
00000100
00001000
00000001
,
00000100
00000100
00000100
00000100
,
00000010
00000010
00000010
00000010
,
00000220
00000030
00000001
00000301
,
00001000
00000010
00010000
00001000
,
00022000
00000000
00000000
00000000
,
00000000
00000000
00000000
00030000
,
00020000
00000000
00033000
00011000
,
00001000
01000000
00100000
01000000
,
00010000
00100000
00010000
10000000
,
00100000
00100000
00100000
00100000
,
01000000
01000000
01000000
01000000
,
00010000
00100000
00010000
01000000
,
00001000
00100000
00010000
01000000
,
00001000
00001000
00001000
00001000
,
00100000
00100000
00100000
00100000
,
00001000
00010000
00000010
00000100
,
00000001
00000010
00000100
00001000
,
00000010
00000100
00000001
00001000
,
00000100
00000100
00000100
00000100
,
00010000
00000100
00010000
00001000
,
01000000
00100000
01000000
00001000
,
00010000
00001000
00100000
00010000
,
01000000
00100000
10000000
00010000
,
00110000
00000000
11000000
00000000
,
10000000
00100000
01000000
00000000
,
00010000
00100000
00010000
10000000
,
00100000
01000000
00001000
00000000
,
00110000
00000000
11000000
00000000
,
00100000
00001000
00010000
00000000
,
00010100
00000000
00001010
00000000
,
00000001
00001000
00000100
00000000
,
00010000
00001000
00010000
00001000
,
01000000
00001000
00010000
00000000
,
00011000
00000000
00000000
00000000
;

//---------------dance-double - ----------------
#NOTES:
     dance-double:
     :
     Hard:
     12:
     0.624547,0.605780,0.712683,0.031911,0.675453,411.000000,344.000000,67.000000,3.000000,0.000000,0.000000,0.624547,0.605780,0.712683,0.031911,0.675453,411.000000,344.000000,67.000000,3.000000,0.000000,0.000000:
00000000
00000000
00000000
00000000
,
00000000
00000000
00000000
00000000
,
00000000
00000000
00000000
00000000
,
00001100
00000101
00001010
00000011
,
00000101
00000110
00001010
00001100
,
00010000
00000000
00001000
01000000
00000000
00100000
10000000
00000000
00010000
01000000
00000000
00100000
,
10000000
00000000
01000000
00100000
00000000
00010000
01000000
00000000
00001000
00010000
00000000
00000000
,
00010100
00001100
00001010
00000110
,
00000101
00000011
00000110
00001100
,
00010000
00000000
00001000
01000000
00000000
00100000
10000000
00000000
00010000
10000000
00000000
00000000
,
10000000
00100000
01000000
00010000
00100000
01000000
10000000
00000000
,
00100000
00000000
00000000
00100000
00000000
00000000
00100000
00000000
01000000
00000000
00001000
00000000
00010000
00000000
00000010
00000000
,
00000100
00000001
00000010
00000100
00001000
00000010
00010000
00000100
,
00001000
00000000
00000000
00001000
00000000
00000000
00001000
00000000
00010000
00000000
00000010
00000000
00000100
00000000
00000001
00000000
,
00000010
00000100
00001000
00000010
00001000
00000001
00000100
00000010
,
00010000
00000000
00000000
00010000
00000000
00000000
00010000
00000000
00001000
00000000
01000000
00000000
00100000
00000000
01000000
00000000
,
00010000
00100000
01000000
10000000
00100000
01000000
00001000
00010000
,
00000100
00000000
00000000
00000100
00000000
00000000
00000100
00000000
00001000
00000000
00000010
00000000
00010000
00000000
00000100
00000000
,
00001000
00000001
00000100
00000010
00001000
00000100
00000010
00000001
,
00000100
00000000
00000101
00000000
00000000
00001010
00000000
00000000
00010100
00000000
00000000
00100000
,
00010000
00000000
01000000
00100000
00000000
10000000
01000000
00000000
00100000
00010000
00000000
00000000
,
10000000
00000000
10100000
00000000
00000000
01010000
00000000
00000000
00110000
00000000
00000000
00001000
,
00010000
00000010
00000100
00000001
00000010
00000100
00001000
00000000
,
00000001
00000000
00000100
00000000
00000000
00000010
00000000
00000000
00001000
00000000
00000000
00000001
,
00000000
00000000
00001000
00000000
00000000
00000100
00000000
00000000
00010000
00000000
00000000
00001000
,
00000000
00000000
00100000
00000000
00000000
00001000
00000000
00000000
00010000
00000000
00000000
00000100
,
00000000
00000000
00010000
00000000
00000000
00001000
00000000
00000000
01000000
00000000
00000000
00100000
,
00000000
00000000
10000000
00000000
00000000
01000000
00000000
00000000
00100000
00000000
00000000
00010000
,
00000000
00000000
01000000
00000000
00000000
00100000
00000000
00000000
01000000
00000000
00000000
00001000
,
00000000
00000000
00010000
00000000
00000000
00000010
00000000
00000000
00000100
00000000
00000000
00000001
,
00000000
00000000
00000000
00000010
00000000
00000001
00000100
00000000
00000001
00000100
00000000
00000010
,
00010000
00000000
00000000
00001000
00000000
00001000
01000000
00000000
01000000
00100000
00000000
00100000
,
10000000
00000000
10000000
01000000
00000000
01000000
00100000
00000000
00100000
00010000
00000000
00010000
,
10000000
00000000
00100000
10000000
00000000
00100000
01000000
00000000
00010000
01000000
00000000
00010000
,
00100000
00100000
00100000
00100000
,
00001000
00001000
00001000
00001000
,
00010000
00000000
00010000
00000000
00000000
00000000
00000010
00000100
00000010
00000000
00001000
00000000
00001000
00000000
00000000
00000000
,
00001100
00000011
00000101
00001010
,
00020200
00000000
00000000
00000000
,
00000000
00000000
00000000
00000300
,
00002000
00000000
00033000
00011000
,
00001000
00000000
01000000
00010000
00000000
01000000
00100000
00000000
10000000
00010000
00000000
00000000
,
00100000
00000000
00010000
01000000
00000000
00010000
00100000
00000000
01000000
10000000
00000000
00000000
,
00110000
01100000
11000000
10010000
,
01010000
01001000
00011000
00010100
,
00001000
00000000
00000010
00000100
00000000
00000010
00001000
00000000
00000100
00000010
00000000
00000000
,
00000001
00000000
00000100
00000010
00000000
00001000
00000100
00000000
00000010
00000001
00000000
00000000
,
00001001
00001100
00010100
00011000
,
01001000
01010000
01100000
10010000
,
10000000
00000000
00100000
10000000
00000000
01000000
00100000
00000000
00001000
00010000
00000000
00000000
,
00001000
00000000
00010000
00000010
00000000
00001000
00000100
00000000
00000010
00000001
00000000
00000000
,
00001000
00000000
00000100
00001000
00000000
00000010
00010000
00000000
00000010
00000100
00000000
00000000
,
00000101
00001100
00010100
00101000
,
00010000
00000000
10000000
00100000
00000000
10000000
01000000
00000000
00100000
00010000
00000000
00000000
,
01000000
00000000
00100000
01000000
00000000
00001000
00100000
00000000
00001000
00010000
00000000
00000000
,
00000010
00000000
00001000
00000010
00000000
00001000
00000001
00000000
00000100
00000001
00000000
00000100
,
00000010
00000000
00000100
00000001
00000000
00000010
00000001
00000000
00000100
00000010
00000000
00010000
,
00001000
00000000
00000000
00000000
00000000
01000000
00100000
00000000
00000000
00000000
00000000
01100000
,
00000000
00000000
00110000
00000000
00000000
00001000
00010000
00000000
00000000
00000000
00000000
00000000
,
00000000
00000000
01001000
00000000
00000000
00110000
00000000
00000000
11000000
00000000
00000000
10010000
,
00000000
00000000
10100000
00000000
00000000
01000000
00001000
00000000
00000000
00000000
00000000
00000000
,
00010100
00000000
00000000
00000000
00000000
00001000
00000001
00000000
00000000
00000000
00000000
00000011
,
00000000
00000000
00001010
00000000
00000000
00000001
00000100
00000000
00000000
00000000
00000000
00000000
,
00000110
00000000
00000000
00000000
00000000
00010000
00000100
00000000
00000000
00000000
00000000
00011000
,
00000000
00000000
00101000
00000000
00000000
00010000
01000000
00000000
00000000
00000000
00000000
00000000
,
00000000
00000000
10010000
00000000
00000000
01010000
00000000
00000000
00110000
00000000
00000000
00011000
,
00000000
00000000
00000110
00000000
00000000
00000001
00000100
00000000
00000000
00000000
00000000
00000000
,
00011000
00000000
00000000
00000000
;

//---------------dance-double - ----------------
#NOTES:
     dance-double:
     :
     Challenge:
     15:
     0.808416,0.926487,0.234015,0.042548,1.170076,532.000000,510.000000,22.000000,4.000000,0.000000,0.000000,0.808416,0.926487,0.234015,0.042548,1.170076,532.000000,510.000000,22.000000,4.000000,0.000000,0.000000:
// measure 0
00000000
00000000
00000000
00000000
,  // measure 1
00000000
00000000
00000000
00000000
,  // measure 2
00000000
00000000
00000000
00000000
,  // measure 3
00000011
00000000
00000001
00000100
00000000
00000010
00001000
00000000
00000100
00010000
00000000
00000000
,  // measure 4
00011000
00000000
00001000
01000000
00000000
00010000
00100000
00000000
01000000
10000000
00000000
00000000
,  // measure 5
00100000
00000000
10000000
01000000
00000000
00100000
00001000
00000000
00010000
00000010
00000000
00001000
,  // measure 6
00000100
00000000
00010000
00001000
00000000
00100000
00001000
00000000
00010000
00000010
00000000
00000000
,  // measure 7
00000110
00000000
00000010
00001000
00000000
00000100
00001000
00000000
00000010
00010000
00000000
00000000
,  // measure 8
00011000
00000000
00001000
00100000
00000000
00010000
10000000
00000000
00100000
01000000
00000000
00000000
,  // measure 9
00010000
00000000
10000000
01000000
00000000
00100000
00001000
00000000
00010000
00000010
00000000
00001000
,  // measure 10
00000100
00000000
00000010
00000001
00000010
00000001
00001000
00000000
00000100
00001000
00000010
00001000
00000100
00010000
00001000
01000000
,  // measure 11
00100000
00000000
10000000
00010000
00000000
00010000
01000000
00000000
00100000
00000000
10000000
01000000
00100000
00000000
00010000
00000000
,  // measure 12
01000000
00001000
00010000
00000000
00000100
00000000
00001000
00000000
00000010
00000000
00000100
00000001
00000010
00000100
00001000
00000000
,  // measure 13
00000100
00000000
00010000
00001000
00000000
00001000
00100000
00000000
00010000
00000000
01000000
00100000
10000000
00000000
01000000
00000000
,  // measure 14
10000000
00010000
00100000
00000000
01000000
00000000
10000000
00000000
00100000
00000000
01000000
00001000
00100000
00010000
01000000
00000000
,  // measure 15
00010000
00000000
00100000
01000000
00000000
01000000
10000000
00000000
00100000
00000000
01000000
00001000
00010000
00000000
00001000
00000000
,  // measure 16
00010000
00000010
00000100
00000000
00000001
00000000
00001000
00000000
00000100
00000000
00010000
00001000
01000000
00100000
01000000
00000000
,  // measure 17
00001000
00000000
00010000
00000100
00000000
00000100
00000010
00000000
00000001
00000000
00001000
00000010
00000100
00000000
00000001
00000000
,  // measure 18
00000010
00000000
00000001
00000100
00000010
00000100
00000001
00000000
00000010
00000001
00001000
00000100
00001000
00000010
00010000
00001000
,  // measure 19
00010000
00000000
00001000
01000000
00000000
00100000
01000000
00000000
00001000
00010000
00000000
00000010
,  // measure 20
00001000
00000100
00000010
00000001
00000000
00000000
00000100
00000010
00010000
00001000
00000000
00000000
,  // measure 21
00100000
00000000
00001000
00010000
00000000
00000010
00001000
00000000
00000100
00010000
00000000
00001000
,  // measure 22
01000000
00000000
00100000
10000000
01000000
00100000
01000000
00000000
10000000
00010000
00100000
00010000
10000000
00100000
01000000
00001000
,  // measure 23
00010000
00001000
01000000
00100000
10000000
01000000
00100000
00010000
,  // measure 24
00000000
00100000
00010000
01000000
00100000
10000000
00010000
00000000
,  // measure 25
10000000
00100000
01000000
00001000
00010000
00001000
00010000
00000010
,  // measure 26
00000000
00001000
00000100
00000010
00000001
00001000
00000100
00000000
,  // measure 27
00010000
00001000
00100000
00010000
01000000
00001000
00100000
01000000
,  // measure 28
00000000
10000000
00100000
01000000
00010000
00100000
01000000
00000000
,  // measure 29
10000000
00100000
01000000
00010000
10000000
01000000
00100000
00010000
,  // measure 30
00000000
00000000
00000000
00001000
00000000
00010000
00001000
00000000
00010000
00001000
00000000
00010000
,  // measure 31
00000100
00000000
00001000
00000010
00000000
00000100
00000001
00000000
00000010
00000100
00000000
00001000
,  // measure 32
00000010
00000000
00000100
00000010
00000000
00001000
00000100
00000000
00010000
00001000
00000000
01000000
,  // measure 33
00100000
00000000
10000000
00010000
00000000
00100000
01000000
00000000
00100000
00001000
00000000
00010000
,  // measure 34
00000010
00001000
00000100
00000010
00000001
00000100
00000010
00001000
00000100
00010000
00000000
00000000
,  // measure 35
00001000
01000000
00100000
01000000
00010000
00100000
01000000
10000000
00010000
01000000
00000000
00000000
,  // measure 36
01100000
00000000
01100000
00000000
00000000
00000000
00001000
00010000
00001000
00000000
00011000
00000000
00011000
00000000
00000000
00000000
,  // measure 37
00010000
00000100
00001000
00000010
00010000
00001000
00100000
00001000
00010000
00000010
00000100
00000001
,  // measure 38
00020000
00000000
00000000
00000000
00000000
00000000
00000000
00000000
00000000
00000000
00000000
00000000
00031000
00000000
01000000
00100000
,  // measure 39
02000000
00000000
00000000
00000000
00000000
03001000
00020000
00000000
00000000
00000000
00000000
00000000
,  // measure 40
00002000
00000000
00033000
00011000
,  // measure 41
00010000
00000000
00000010
00000100
00000000
00000001
00000010
00000000
00000100
00001000
00000000
00000010
,  // measure 42
00010000
00000000
00000100
00001000
00000000
00000010
00000100
00000000
00000001
00001000
00000000
00000100
,  // measure 43
00010000
00001000
01000000
00010000
00100000
01000000
10000000
00100000
01000000
00010000
00000000
00000000
,  // measure 44
10000000
00010000
00100000
01000000
10000000
00100000
01000000
00001000
00010000
00000100
00000000
00000000
,  // measure 45
01000000
00000000
00010000
00100000
00000000
00001000
01000000
00000000
00100000
10000000
00000000
01000000
,  // measure 46
00100000
00000000
00001000
01000000
00000000
00001000
00010000
00000000
00000010
00000100
00000000
00000001
,  // measure 47
00000010
00000100
00001000
00000010
00000100
00000001
00001000
00000100
00010000
00000010
00000000
00000000
,  // measure 48
00000100
00000001
00001000
00000100
00010000
00000010
00100000
00001000
10000000
01000000
00000000
00000000
,  // measure 49
10000000
00000000
00010000
00100000
00000000
00001000
01000000
00000000
00100000
10000000
00000000
01000000
,  // measure 50
00100000
00000000
00010000
01000000
00000000
00001000
00100000
00000000
00010000
10000000
00000000
00100000
,  // measure 51
01000000
00000000
00010000
10000000
00000000
00100000
10000000
00000000
00010000
10000000
00000000
00100000
,  // measure 52
01000000
00001000
00010000
00000100
00001000
00000010
00000100
00000001
00000010
00000100
00000000
00000000
,  // measure 53
00000001
00000000
00001000
00000010
00000000
00000100
00000010
00000000
00010000
00000100
00000000
00001000
,  // measure 54
00000010
00000000
00000100
00000010
00000000
00010000
00000100
00000000
00010000
00001000
00000000
01000000
,  // measure 55
00010000
00000000
00100000
00010000
00000000
01000000
00100000
00000000
10000000
01000000
00000000
00100000
,  // measure 56
00010000
01000000
00100000
01000000
00010000
00100000
00001000
00010000
00000010
00000100
00000001
00001000
,  // measure 57
00000100
00000000
00010000
00001000
00000000
01000000
00100000
00000000
10000000
01000000
00000000
00100000
,  // measure 58
00010000
00000000
01000000
00100000
00000000
10000000
01000000
00000000
00000000
00000000
00000000
00000000
,  // measure 59
00000000
00000000
11000000
00000000
00000000
00110000
00000000
00000000
01001000
00000000
00000000
10010000
,  // measure 60
00000000
00000000
11000000
00000000
00000000
10000000
00010000
00000000
00000000
00000000
00000000
00000000
,  // measure 61
00100000
00000000
00010000
01000000
00000000
00100000
10000000
00000000
01000000
00100000
00000000
00010000
,  // measure 62
00000000
00000000
00110000
00000000
00000000
00010000
10000000
00000000
00000000
00000000
00000000
00000000
,  // measure 63
00100000
00000000
01000000
00001000
00000000
00100000
00001000
00000000
00010000
00000010
00000000
00000100
,  // measure 64
00000000
00000000
00000110
00000000
00000000
00000010
00001000
00000000
00000000
00000000
00000000
00000000
,  // measure 65
00000000
00000000
00010100
00000000
00000000
00001010
00000000
00000000
00000101
00000000
00000000
00011000
,  // measure 66
00000000
00000000
01001000
00000000
00000000
00001000
00010000
00000000
00000000
00000000
00000000
00000000
,  // measure 67
00011000
00000000
00000000
00000000
;
