#TITLE:MARS WAR 3;
#SUBTITLE:;
#ARTIST:JET GIRL SPIN;
#TITLETRANSLIT:;
#SUBTITLETRANSLIT:;
#ARTISTTRANSLIT:;
#GENRE:;
#CREDIT:;
#BANNER:MARS WAR 3.png;
#BACKGROUND:MARS WAR 3-bg.png;
#LYRICSPATH:;
#CDTITLE:;
#MUSIC:MARS WAR 3.ogg;
#OFFSET:0.000000;
#SAMPLESTART:20.410000;
#SAMPLELENGTH:15.000000;
#SELECTABLE:YES;
#DISPLAYBPM:200.000000;
#BPMS:0.000000=200.000000
;
#STOPS:
;
#BGCHANGES:;
#KEYSOUNDS:;
#ATTACKS:;

//---------------dance-single - ----------------
#NOTES:
     dance-single:
     :
     Beginner:
     3:
     0.131086,0.238764,0.084270,0.000000,0.000000,98.000000,89.000000,9.000000,0.000000,0.000000,0.000000,0.131086,0.238764,0.084270,0.000000,0.000000,98.000000,89.000000,9.000000,0.000000,0.000000,0.000000:
0000
0000
0000
0000
,
0000
0000
0000
0000
,
0000
0000
0000
0000
,
0000
0000
0000
0000
,
0000
0000
0000
0000
,
0010
0000
0000
0000
,
1000
0000
0000
0000
,
0001
0000
0000
0000
,
0100
0000
0000
0000
,
0010
0000
0000
0000
,
1000
0000
0000
0000
,
0010
0000
0000
0000
,
1000
0000
0000
0000
,
0100
0000
0000
0000
,
0010
0000
0000
0000
,
0100
0000
0000
0000
,
0010
0000
0000
0000
,
0010
0000
0000
0000
,
0001
0000
0000
0000
,
1000
0000
0000
0000
,
0100
0000
0000
0000
,
0100
0000
0000
0000
,
1000
0000
0000
0000
,
0001
0000
0000
0000
,
0010
0000
0000
0000
,
0010
0000
0000
0000
,
1000
0000
0000
0000
,
0001
0000
0000
0000
,
0100
0000
0000
0000
,
0001
0001
0000
0000
,
1000
1000
0000
0000
,
0001
0001
0000
0000
,
1000
1000
0000
0000
,
0001
0000
0000
0000
,
1000
0000
0000
0000
,
0001
0000
0000
0000
,
1000
0000
0000
0000
,
0001
0000
0000
0000
,
1000
0000
0000
0000
,
0001
0000
0000
0000
,
1000
0000
0000
0000
,
1001
0000
0000
0000
,
1001
0000
0000
0000
,
1001
0000
0000
0000
,
1001
0000
0000
0000
,
0001
0000
0000
0000
,
1000
0000
0000
0000
,
0001
0000
0000
0000
,
1000
0000
0000
0000
,
1001
0000
0000
0000
,
0010
0000
0000
0000
,
0010
0000
0000
0000
,
0010
0000
0000
0000
,
0001
0000
0000
0000
,
1000
0000
0000
0000
,
0001
0000
0000
0000
,
1000
0000
0000
0000
,
0001
0001
0000
0000
,
1000
1000
0000
0000
,
0001
0001
0000
0000
,
1000
1000
0000
0000
,
0010
0000
0000
0000
,
0100
0000
0000
0000
,
0010
0000
0000
0000
,
0100
0000
0000
0000
,
0010
0000
0000
0000
,
0100
0000
0000
0000
,
0010
0000
0000
0000
,
0100
0000
0000
0000
,
0010
0000
0000
0000
,
0010
0000
0000
0000
,
1000
0000
0000
0000
,
1000
0000
0000
0000
,
0001
0000
0000
0000
,
0001
0000
0000
0000
,
1001
0000
0000
0000
,
1001
0000
0000
0000
,
0001
0000
0000
0000
,
1000
0000
0000
0000
,
0001
0000
0000
0000
,
1000
0000
0000
0000
,
1001
0000
0000
0000
,
0010
0000
0000
0000
,
0100
0000
0000
0000
,
0010
0000
0000
0000
,
0110
0000
0000
0000
,
0000
0000
0000
0000
;

//---------------dance-single - ----------------
#NOTES:
     dance-single:
     :
     Easy:
     4:
     0.192616,0.278558,0.102996,0.000000,0.000000,144.000000,133.000000,11.000000,0.000000,0.000000,0.000000,0.192616,0.278558,0.102996,0.000000,0.000000,144.000000,133.000000,11.000000,0.000000,0.000000,0.000000:
0000
0000
0000
0000
,
0000
0000
0000
0000
,
0000
0000
0000
0000
,
0000
0000
0000
0000
,
0000
0000
0000
0000
,
0010
0000
0000
0000
,
1000
0000
0000
0000
,
0001
0000
0000
0000
,
0100
0000
0000
0000
,
0010
0000
0001
0000
,
1000
0000
0100
0000
,
0010
0000
0001
0000
,
1000
0000
0100
0000
,
0100
0000
1000
0000
,
0010
0000
0001
0000
,
0100
0000
1000
0000
,
0010
0000
0001
0000
,
0010
0000
0010
0000
,
0001
0000
0010
0000
,
1000
0000
0010
0000
,
0100
0000
0010
0000
,
0100
0000
0100
0000
,
1000
0000
0100
0000
,
0001
0000
0100
0000
,
0010
0000
0100
0000
,
0010
0000
0010
0000
,
1000
0000
0010
0000
,
0001
0000
0010
0000
,
0100
0000
0010
0000
,
0001
0001
0000
0000
,
1000
1000
0000
0000
,
0001
0001
0000
0000
,
1000
1000
0000
0000
,
0001
0000
0001
0000
,
1000
0000
1000
0000
,
0010
0000
0010
0000
,
0100
0100
0100
0000
,
0001
0000
0001
0000
,
1000
0000
1000
0000
,
0100
0000
0100
0000
,
0010
0010
0010
0000
,
1001
0000
0000
0000
,
1001
0000
0000
0000
,
1001
0000
0000
0000
,
1001
0000
0000
0000
,
0001
0000
0000
0000
,
1000
0000
0000
0000
,
0010
0000
0000
0000
,
0100
0000
0000
0000
,
1001
0000
0000
0000
,
0010
0000
0000
0000
,
0010
0000
0000
0000
,
0010
0000
0000
0000
,
0001
0000
0001
0000
,
1000
0000
1000
0000
,
0001
0000
0001
0000
,
1000
0000
1000
0000
,
0001
0001
0000
0000
,
1000
1000
0000
0000
,
0001
0001
0000
0000
,
1000
1000
0000
0000
,
0010
0000
0010
0000
,
0100
0000
0100
0000
,
1000
0000
1000
0000
,
0001
0001
0001
0000
,
0100
0000
0100
0000
,
0010
0000
0010
0000
,
0001
0000
0001
0000
,
1000
1000
1000
0000
,
0010
0000
0000
0000
,
1001
0000
0000
0000
,
0100
0000
0000
0000
,
1001
0000
0000
0000
,
0001
0000
0000
0000
,
0110
0000
0000
0000
,
1000
0000
0000
0000
,
0110
0000
0000
0000
,
0001
0000
0000
0000
,
1000
0000
0000
0000
,
0100
0000
0000
0000
,
0010
0000
0000
0000
,
1001
0000
0000
0000
,
0010
0000
0000
0000
,
0100
0000
0000
0000
,
0010
0000
0000
0000
,
1001
0000
0000
0000
,
0000
0000
0000
0000
;

//---------------dance-single - ----------------
#NOTES:
     dance-single:
     :
     Medium:
     8:
     0.371857,0.477528,0.337079,0.224719,0.000000,278.000000,242.000000,36.000000,24.000000,0.000000,0.000000,0.371857,0.477528,0.337079,0.224719,0.000000,278.000000,242.000000,36.000000,24.000000,0.000000,0.000000:
0000
0000
0000
0000
,
0000
0000
0000
0000
,
0000
0000
0000
0000
,
0000
0000
0000
0000
,
0000
0000
0000
0000
,
0001
0001
0010
0000
,
1000
1000
0100
0000
,
0001
0001
0010
0000
,
1000
0100
0100
0000
,
1000
1000
0010
0010
,
0001
0001
0100
0100
,
1000
1000
0100
0100
,
0001
0001
0010
0010
,
0001
0001
0110
0000
,
0100
0100
1001
0000
,
1000
1000
0110
0000
,
0010
0010
1001
0000
,
0100
1000
0001
0010
,
0100
1000
0001
0010
,
0100
1000
0001
0010
,
0010
0100
1000
0001
,
0100
0001
1000
0010
,
0100
0001
1000
0010
,
0100
0001
1000
0010
,
0010
0100
0001
1000
,
0010
1000
0100
0000
0000
0000
0000
0000
,
0010
0001
0100
0000
0000
0000
0000
0000
,
0010
1000
0100
0000
0000
0000
0000
0000
,
0010
0001
0100
0000
0000
0000
0000
0000
,
0010
0000
0010
0000
1000
0001
1000
0000
,
0100
0000
0100
0000
0001
1000
0001
0000
,
0100
0100
0010
0010
,
0100
0000
0100
0000
0001
1000
0001
0000
,
2000
0000
0010
0000
,
0001
0000
0010
3000
,
0002
0000
0100
0000
,
1000
0000
0100
0003
,
2000
0000
0010
0000
,
0100
0000
0010
3000
,
0002
0000
0100
0000
,
0010
0000
0100
0003
,
1001
0000
0011
0000
,
1001
0000
1100
0000
,
1001
0000
0101
0000
,
1001
0000
1100
0000
,
0010
1000
0001
0000
,
0001
0010
0100
0000
,
0100
0001
1000
0000
,
1000
0100
0010
0000
,
2002
3000
1000
1003
,
2002
0003
0001
3000
,
2002
3000
0010
0013
,
2002
0003
0100
3000
,
0100
1000
0001
0010
,
0100
1000
0001
0010
,
0100
1000
0001
0010
,
0010
0001
1000
0100
,
0010
0000
0010
0000
0010
1000
0001
0000
,
0100
0000
0100
0000
0100
0001
1000
0000
,
1000
1000
0001
0001
,
0100
0000
0100
0000
0100
0001
1000
0000
,
0200
0000
0010
0000
,
1000
0000
0001
0300
,
0020
0000
0100
0000
,
1000
0000
0001
0030
,
0200
0000
1000
0000
,
0010
0000
0001
0300
,
0020
0000
1000
0000
,
0100
0000
0001
0030
,
1001
0000
1100
0000
,
1001
0000
0101
0000
,
1001
0000
1010
0000
,
1001
0000
0011
0000
,
0001
0001
1001
0000
,
1000
1000
1001
0000
,
1001
0000
1001
0000
,
1001
1001
1001
0000
,
0010
0001
1000
0000
,
1000
0010
0100
0000
,
0100
1000
0001
0000
,
0001
0100
0010
0000
,
2002
0003
0001
3001
,
2002
3000
1000
0003
,
2002
0003
0001
3001
,
2002
3000
1000
0003
,
0110
0000
0000
0000
,
0000
0000
0000
0000
;

//---------------dance-single - ----------------
#NOTES:
     dance-single:
     :
     Hard:
     11:
     0.559123,0.676498,0.271536,0.149813,0.000000,418.000000,389.000000,29.000000,16.000000,0.000000,0.000000,0.559123,0.676498,0.271536,0.149813,0.000000,418.000000,389.000000,29.000000,16.000000,0.000000,0.000000:
0000
0000
0000
0000
,
0000
0000
0000
0000
,
0000
0000
0000
0000
,
0000
0000
0000
0000
,
0000
0000
0000
0000
,
0001
0000
0001
0010
0001
0000
0000
0000
,
1000
0000
1000
0100
1000
0000
0000
0000
,
0001
0000
0001
0010
0001
0000
0000
0000
,
1000
0100
0100
0000
,
1000
0010
1000
0100
1000
0000
0000
0000
,
0001
0010
0001
0100
0001
0000
0000
0000
,
1000
0100
1000
0010
1000
0000
0000
0000
,
0100
0001
0001
0000
,
0001
0010
0001
0100
0001
1000
0001
0000
,
1000
0010
1000
0100
1000
0001
1000
0000
,
0001
1000
0001
0100
0001
0010
0001
0000
,
0001
0100
0100
0000
,
0001
1000
0001
0100
0010
1000
0001
0000
,
0001
1000
0001
0100
0010
1000
0001
0000
,
0001
1000
0001
0100
0010
1000
0001
0000
,
0001
0100
0000
0100
0001
1000
0001
0000
,
1000
0001
1000
0010
0100
0001
1000
0000
,
1000
0001
1000
0010
0100
0001
1000
0000
,
1000
0001
1000
0010
0100
0001
1000
0000
,
1000
0010
0000
0010
1000
0001
1000
0000
,
0010
0100
0010
1000
0001
0100
0010
0000
,
0010
0100
0010
1000
0001
0100
0010
0000
,
0010
0100
0010
1000
0001
0100
0010
0000
,
0010
1000
0000
1000
0010
0100
0010
0000
,
0010
0000
0010
0000
1000
0001
1000
0000
,
0100
0000
0100
0000
0001
1000
0001
0000
,
0010
0100
1000
0001
,
0010
0000
0010
0000
1000
0001
1000
0000
,
2000
0000
3200
0010
,
1000
0300
1000
0010
1000
0000
0000
0000
,
0002
0000
0023
0000
,
0001
0001
0001
0030
,
2000
0000
3020
0100
,
1000
0030
1000
0001
1000
0000
0000
0000
,
0002
0000
0203
0000
,
0001
0001
0001
0300
,
1001
0100
0110
1000
,
1001
0010
0110
0001
,
1001
0100
0110
1000
,
1001
0010
0110
0000
,
1000
0100
0010
0001
,
1000
0000
0100
0000
0010
0001
1000
0000
,
0100
0010
0001
0000
1000
0100
0010
0000
,
0001
1000
0100
0010
0001
1000
0100
0000
,
0010
0000
1000
0001
0100
0000
0100
0001
,
1000
0000
1000
0100
0010
0001
1000
0000
,
0100
0000
0001
1000
0010
0000
0010
1000
,
0001
0000
0001
0010
0100
1000
0000
0000
,
0010
0100
0010
1000
0001
1000
0001
0000
,
0010
0100
0010
1000
0001
1000
0001
0000
,
0010
0100
0010
1000
0001
1000
0001
0000
,
0010
0100
0000
0100
0001
0000
0001
0000
,
0001
0000
0001
0000
0010
0100
0010
0000
,
1000
0000
1000
0000
0100
0010
0100
0000
,
0010
0001
0100
1000
,
0010
0000
0010
0000
0100
0001
1000
0000
,
0200
0000
0302
1000
,
0100
0003
0100
0010
0100
0000
0000
0000
,
0020
0000
2030
0100
,
0001
0001
0001
3000
,
0200
0000
2300
0010
,
0001
3000
0001
1000
0001
0000
0000
0000
,
0020
0000
0032
0100
,
1000
1000
1000
0003
,
1001
0100
0110
1000
,
1001
0010
0110
0001
,
1001
0100
0110
1000
,
1001
0010
0110
0000
,
0101
0001
1100
1000
,
0011
0010
1100
0100
,
0011
1100
0011
1100
,
1001
1001
1001
1001
,
0001
0100
0010
1000
,
0001
0000
0100
0000
0010
1000
0001
0000
,
0100
0010
1000
0000
0001
0100
0010
0000
,
1000
0001
0100
0010
1000
0001
0100
0000
,
0010
0000
1000
0001
0100
0000
0100
0001
,
1000
0000
1000
0100
0010
0001
1000
0000
,
0100
0000
0001
1000
0010
0000
0010
1000
,
0001
0000
0001
0010
0100
1000
0000
0000
,
0101
0000
0000
0000
,
0000
0000
0000
0000
;

//---------------dance-double - ----------------
#NOTES:
     dance-double:
     :
     Easy:
     4:
     0.181915,0.238764,0.121723,0.037453,0.000000,136.000000,123.000000,13.000000,4.000000,0.000000,0.000000,0.181915,0.238764,0.121723,0.037453,0.000000,136.000000,123.000000,13.000000,4.000000,0.000000,0.000000:
00000000
00000000
00000000
00000000
,
00000000
00000000
00000000
00000000
,
00000000
00000000
00000000
00000000
,
00000000
00000000
00000000
00000000
,
00000000
00000000
00000000
00000000
,
10000000
00000000
00000000
00000000
,
00010000
00000000
00000000
00000000
,
00001000
00000000
00000000
00000000
,
00000001
00000000
00000000
00000000
,
00000100
00000000
00000000
00000000
,
00001000
00000000
00000000
00000000
,
01000000
00000000
00000000
00000000
,
10000000
00000000
00000000
00000000
,
10000000
00000000
00010000
00000000
,
00001000
00000000
00000001
00000000
,
00000001
00000000
00000100
00000000
,
00001000
00010000
00010000
00000000
,
00100000
00000000
00000000
00000000
,
10000000
00000000
00000000
00000000
,
01000000
00000000
00000000
00000000
,
00010000
00000000
00000000
00000000
,
00000010
00000000
00000000
00000000
,
00000001
00000000
00000000
00000000
,
00000100
00000000
00000000
00000000
,
00001000
00000000
00000000
00000000
,
00010000
00000000
00100000
00000000
,
10000000
00000000
01000000
00000000
,
00001000
00000000
00000010
00000000
,
00000001
00000000
00000100
00000000
,
00000010
00000010
00000000
00000000
,
00000100
00000100
00000000
00000000
,
00100000
00100000
00000000
00000000
,
01000000
01000000
00000000
00000000
,
00000010
00000000
00001000
00000000
,
00000001
00000000
00000100
00000000
,
00010000
00000000
00001000
00000000
,
00010000
00000000
00001000
00000000
,
00100000
00000000
00010000
00000000
,
10000000
00000000
01000000
00000000
,
00001000
00000000
00010000
00000000
,
00001000
00000000
00000000
00000000
,
10010000
00000000
00000000
00000000
,
00011000
00000000
00000000
00000000
,
00001001
00000000
00000000
00000000
,
00011000
00000000
00000000
00000000
,
10000000
00000000
00000000
00000000
,
00010000
00000000
00000000
00000000
,
00000001
00000000
00000000
00000000
,
00000100
00000000
00000000
00000000
,
00002000
00000000
00000010
00003000
,
00000100
00000000
00010000
00000000
,
00002000
00000000
00100000
00003000
,
01000000
00000000
00010000
00000000
,
00100000
00000000
10000000
00000000
,
01000000
00000000
00010000
00000000
,
00000010
00000000
00000001
00000000
,
00000100
00000000
00010000
00000000
,
00000010
00000010
00000000
00000000
,
00000100
00000100
00000000
00000000
,
00100000
00100000
00000000
00000000
,
01000000
01000000
00000000
00000000
,
00010000
00000000
00100000
00000000
,
10000000
00000000
01000000
00000000
,
00001000
00000000
00010000
00000000
,
00001000
00000000
00010000
00000000
,
00001000
00000000
00000010
00000000
,
00000001
00000000
00000100
00000000
,
00010000
00000000
00001000
00000000
,
00010000
00000000
00000000
00000000
,
00001001
00000000
00000000
00000000
,
00011000
00000000
00000000
00000000
,
10010000
00000000
00000000
00000000
,
00011000
00000000
00000000
00000000
,
00000110
00000000
00000000
00000000
,
00011000
00000000
00000000
00000000
,
01100000
00000000
00000000
00000000
,
00011000
00000000
00000000
00000000
,
00000001
00000000
00000000
00000000
,
00001000
00000000
00000000
00000000
,
10000000
00000000
00000000
00000000
,
00001000
00000000
00000000
00000000
,
00020000
00000000
00100000
00030000
,
01000000
00000000
00001000
00000000
,
00020000
00000000
00000010
00030000
,
00000100
00000000
00000000
00000000
,
00011000
00000000
00000000
00000000
,
00000000
00000000
00000000
00000000
;

//---------------dance-double - ----------------
#NOTES:
     dance-double:
     :
     Medium:
     10:
     0.418673,0.557116,0.308989,0.149813,0.000000,313.000000,280.000000,33.000000,16.000000,0.000000,0.000000,0.418673,0.557116,0.308989,0.149813,0.000000,313.000000,280.000000,33.000000,16.000000,0.000000,0.000000:
00000000
00000000
00000000
00000000
,
00000000
00000000
00000000
00000000
,
00000000
00000000
00000000
00000000
,
00000000
00000000
00000000
00000000
,
00000000
00000000
00000000
00000000
,
10000000
00000000
01000000
00000000
,
00010000
00000000
00001000
00000000
,
00000010
00000000
00000001
00000000
,
00000100
00001000
00001000
00000000
,
00000001
00000100
00000010
00000000
,
00001000
00100000
01000000
00000000
,
00100000
01000000
10000000
00000000
,
00100000
00010000
00010000
00000000
,
00001000
00000010
00000100
00000000
,
00000001
00000100
00000010
00000000
,
00000010
00001000
00000100
00000000
,
00001000
00010000
00001000
00000000
,
00000010
00010000
00100000
00010000
,
00000010
00010000
00100000
00010000
,
00000010
00010000
00100000
00010000
,
00010000
00100000
00010000
00000010
,
00100000
00001000
00000010
00001000
,
00100000
00001000
00000010
00001000
,
00100000
00001000
00000010
00001000
,
00001000
00000010
00001000
00100000
,
01000000
00001000
00000010
00001000
,
01000000
00001000
00000010
00001000
,
01000000
00001000
00000010
00001000
,
00001000
00000010
00001000
01000000
,
00100000
00100000
00001000
00001000
,
00000010
00000010
00010000
00010000
,
00100000
00100000
00001000
00001000
,
00000010
00000010
00010000
00010000
,
10000000
01000000
00100000
00001000
,
00010000
00000100
00000010
00000001
,
00000001
00000100
00000010
00010000
,
00001000
01000000
00100000
00000000
,
10000000
01000000
00100000
00001000
,
00010000
00000100
00000010
00000001
,
00000001
00000100
00000010
00010000
,
00001000
01000000
00100000
00100000
,
11000000
00000000
11000000
00000000
,
00110000
00000000
00011000
00000000
,
00011000
00000000
00001010
00000000
,
00000101
00000000
00000101
00000000
,
00000010
00000000
00001000
00000100
00001000
00000000
00000010
00000000
,
00010000
00000000
00001000
00100000
00001000
00000000
01000000
00000000
,
00100000
00000000
10000000
01000000
10000000
00000000
00010000
00000000
,
01000000
00000000
00001000
00010000
00001000
00000000
00100000
00000000
,
22000000
03000000
00010000
30010000
,
02002000
00003000
03001000
00000000
,
00002020
00003000
00001000
00001030
,
00000220
00000030
00001300
00000000
,
01000000
00001000
00000010
00001000
,
01000000
00001000
00000010
00001000
,
01000000
00001000
00000010
00001000
,
00100000
01000000
00001000
00010000
,
00100000
00100000
00001000
00001000
,
00000010
00000010
00010000
00010000
,
00000100
00000100
00010000
00010000
,
01000000
01000000
00001000
00001000
,
10000000
01000000
00100000
00001000
,
00010000
00000100
00000010
00000001
,
00000001
00000100
00000010
00010000
,
00001000
01000000
00100000
00000000
,
10000000
01000000
00100000
00001000
,
00010000
00000100
00000010
00000001
,
00000001
00000100
00000010
00010000
,
00001000
01000000
00100000
00100000
,
11000000
00000000
11000000
00000000
,
11000000
00000000
11000000
00000000
,
00011000
00000000
00011000
00000000
,
00011000
00000000
00011000
00000000
,
00000101
00000000
00000101
00000000
,
00000101
00000000
00000101
00000000
,
00001000
00010000
00001000
00010000
,
00011000
00011000
00011000
00011000
,
00100000
00000000
00010000
01000000
00010000
00000000
00100000
00000000
,
00001000
00000000
00010000
00001000
00010000
00000000
00000100
00000000
,
00000010
00000000
00000001
00000100
00000001
00000000
00001000
00000000
,
00000100
00000000
00010000
00001000
00010000
00000000
00000010
00000000
,
00000202
00000300
00001000
00001003
,
00020200
00030000
00010300
00000000
,
00220000
00030000
00010000
00310000
,
02200000
00300000
03010000
00000000
,
00011000
00000000
00000000
00000000
,
00000000
00000000
00000000
00000000
;

//---------------dance-double - ----------------
#NOTES:
     dance-double:
     :
     Hard:
     13:
     0.506956,0.676498,0.271536,0.149813,0.000000,379.000000,350.000000,29.000000,16.000000,0.000000,0.000000,0.506956,0.676498,0.271536,0.149813,0.000000,379.000000,350.000000,29.000000,16.000000,0.000000,0.000000:
00000000
00000000
00000000
00000000
,
00000000
00000000
00000000
00000000
,
00000000
00000000
00000000
00000000
,
00000000
00000000
00000000
00000000
,
00000000
00000000
00000000
00000000
,
10000000
00000000
01000000
00100000
01000000
00000000
00000000
00000000
,
00010000
00000000
00001000
00000100
00001000
00000000
00000000
00000000
,
00001000
00000000
00000001
00000010
00000001
00000000
00000000
00000000
,
00000100
00000100
00000100
00000000
,
00010000
10000000
00100000
01000000
00010000
00000000
00000000
00000000
,
00000001
00001000
00000010
00000100
00000001
00000000
00000000
00000000
,
00010000
00100000
01000000
00100000
00010000
00000000
00000000
00000000
,
00010000
00010000
00010000
00000000
,
00010000
00100000
01000000
10000000
01000000
00100000
00010000
00000000
,
00001000
00000100
00000010
00000001
00000010
00000100
00001000
00000000
,
00010000
00100000
01000000
10000000
01000000
00100000
00010000
00000000
,
00001000
00001000
00001000
00000000
,
00000001
00000100
00010000
00000100
,
00000001
00000100
00010000
00000100
,
00000001
00000100
00010000
00000100
,
00000001
00000010
00000000
00001000
00010000
00100000
10000000
00000000
,
10000000
01000000
00001000
01000000
,
10000000
01000000
00001000
01000000
,
10000000
01000000
00001000
01000000
,
10000000
00100000
00000000
00010000
00001000
00000100
00000001
00000000
,
00000100
00010000
00100000
00010000
,
00000100
00010000
00100000
00010000
,
00000100
00010000
00100000
00010000
,
00000100
00001000
00000000
00010000
01000000
10000000
10000000
00000000
,
10000000
00000000
10000000
00000000
01000000
00010000
00001000
00000000
,
00001000
00000000
00001000
00000000
00000100
00000010
00000001
00000000
,
00000001
00000001
00000010
00010000
,
10000000
10000000
00100000
00010000
,
00002000
00000000
00003002
00000010
,
00000100
00000003
00000010
00001000
00010000
00000000
00000000
00000000
,
00020000
00000000
20030000
00000000
,
01000000
30100000
00001000
00000000
,
00002000
00000000
00003002
00000010
,
00000100
00000003
00000010
00001000
00010000
00000000
00000000
00000000
,
00020000
00000000
20030000
00000000
,
01000000
30100000
00000000
00000000
,
11000000
00010000
00110000
00001000
,
00101000
00010000
00010010
00000010
,
00001010
00000001
00000101
00001000
,
00011000
00000010
00011000
00000000
,
00001000
00000100
00000010
00000001
,
00000100
00000000
00000010
00000000
00001000
00010000
00100000
00000000
,
00010000
00001000
01000000
00000000
00001000
00100000
01000000
00000000
,
10000000
01000000
00010000
00100000
00001000
00000100
00000001
00000000
,
00000001
00000000
00000100
00001000
00010000
00000000
00001000
00000100
,
00000001
00000000
00000100
00001000
00010000
00100000
10000000
00000000
,
10000000
00000000
01000000
00010000
00001000
00000000
00010000
01000000
,
10000000
00000000
01000000
00010000
00001000
00000010
00000000
00000000
,
00001000
00010000
00001000
00000010
,
00001000
00010000
00001000
00000010
,
00001000
00010000
00001000
00000010
,
00000010
00001000
00010000
00001000
,
00000001
00000000
00000001
00000000
00000010
00001000
00010000
00000000
,
10000000
00000000
10000000
00000000
00100000
00010000
00001000
00000000
,
00000001
00000001
00000100
00010000
,
10000000
10000000
01000000
00010000
,
00002000
00000000
00003002
00001000
,
00000100
00000003
00000010
00001000
00010000
00000000
00000000
00000000
,
00020000
00000000
20030000
00100000
,
01000000
30100000
00001000
00000000
,
00002000
00000000
00003002
00001000
,
00000100
00000003
00000010
00001000
00010000
00000000
00000000
00000000
,
00020000
00000000
20030000
00100000
,
01000000
30100000
00001000
00000000
,
00000101
00000010
00001010
00010000
,
00011000
00100000
00110000
10000000
,
11000000
00100000
01010000
00001000
,
00010100
00001000
00000110
00001000
,
00000011
00000100
00001010
00000010
,
00011000
00100000
00011000
00000100
,
00010010
00101000
00010010
00101000
,
00011000
00011000
00011000
00011000
,
00001000
00000100
00000010
00000001
,
00000100
00000000
00000010
00000000
00001000
00010000
00100000
00000000
,
00010000
00001000
01000000
00000000
00001000
00100000
01000000
00000000
,
10000000
01000000
00010000
00100000
00001000
00000100
00000001
00000000
,
00000001
00000000
00000100
00001000
00010000
00000000
00001000
00000100
,
00000001
00000000
00000100
00001000
00010000
00100000
10000000
00000000
,
10000000
00000000
01000000
00010000
00001000
00000000
00010000
01000000
,
10000000
00000000
01000000
00010000
00001000
00001000
00000000
00000000
,
00011000
00000000
00000000
00000000
,
00000000
00000000
00000000
00000000
;

//---------------dance-single - ----------------
#NOTES:
     dance-single:
     :
     Challenge:
     15:
     0.877475,1.121840,0.833333,0.505618,0.351124,656.000000,567.000000,89.000000,54.000000,0.000000,0.000000,0.877475,1.121840,0.833333,0.505618,0.351124,656.000000,567.000000,89.000000,54.000000,0.000000,0.000000:
// measure 0
0000
0000
0000
0000
,  // measure 1
0000
0000
0000
0000
,  // measure 2
0000
0000
0000
0000
,  // measure 3
0000
0000
0000
0000
,  // measure 4
0000
0000
0000
0000
,  // measure 5
0001
1000
0010
0100
0001
0010
0100
1000
,  // measure 6
0010
0100
0001
0000
1001
0000
0100
0000
,  // measure 7
0010
1010
0000
0001
0101
0000
1000
0000
,  // measure 8
0010
0100
0010
0100
0010
0100
0010
0100
0001
0000
0000
0000
1000
0000
0000
0000
,  // measure 9
1001
0010
1000
0100
0010
0001
1000
0001
,  // measure 10
0100
0010
1000
0000
1100
0000
0001
1000
,  // measure 11
0001
0100
0010
1000
0100
0010
0001
1000
,  // measure 12
0010
1000
0001
0000
0011
0000
0100
0000
,  // measure 13
1010
0001
1000
0010
1000
0100
0010
0001
,  // measure 14
0100
0010
1000
0000
1100
0000
0001
0000
,  // measure 15
1000
1100
0000
0001
0011
0000
0100
0000
,  // measure 16
1000
0010
1000
0010
1000
0010
1000
0010
0100
0000
0000
0000
0100
0000
0000
0000
,  // measure 17
1001
0000
0001
0010
0001
0000
0100
0000
0010
0000
1000
0000
0001
0000
0010
0000
,  // measure 18
0000
0000
0100
1000
0100
0000
0010
0000
0001
0100
0001
0000
1000
0000
0000
0000
,  // measure 19
0110
0000
0010
1000
0010
0000
1000
0000
0100
0000
0010
0000
0001
0000
1000
0000
,  // measure 20
0000
0000
0001
0010
0001
0000
1000
0000
0100
0000
0100
0000
0100
0000
0000
0000
,  // measure 21
0011
0000
0100
0010
0100
0000
0001
0000
0010
0000
0001
0000
1000
0000
0010
0000
,  // measure 22
0000
0000
0100
0010
0100
0000
0001
0000
1000
0100
1000
0000
0010
0000
0000
0000
,  // measure 23
1100
0000
0001
0100
0001
0000
0010
0000
0100
0000
1000
0000
0010
0000
0100
0000
,  // measure 24
0000
0000
0001
0010
0001
0000
0100
0000
0010
1000
0010
0000
1000
0000
0000
0000
,  // measure 25
0101
0000
0010
1000
0001
0000
0010
0000
0100
0010
0001
0000
1000
0000
0010
0000
,  // measure 26
0100
0000
0001
0010
0100
0000
1000
0000
0010
1000
0001
0000
0100
0000
0000
0000
,  // measure 27
1010
0000
0100
1000
0010
0000
0100
0000
0001
0010
0100
0000
1000
0000
0001
0000
,  // measure 28
0100
0000
0010
1000
0100
0010
0001
0000
1000
0000
1000
0000
1000
0000
0000
0000
,  // measure 29
0011
0000
0001
0000
1100
0000
0000
0000
1000
0010
0100
0000
0001
0000
0000
0000
,  // measure 30
1010
0000
0001
0000
0101
0000
0000
0000
1000
0100
0010
0000
0001
0000
0000
0000
,  // measure 31
0110
0010
1010
0000
0110
0100
0101
0000
,  // measure 32
1001
0001
1100
0000
1001
1000
0011
0000
,  // measure 33
2001
3010
0102
0013
,  // measure 34
0001
0100
0010
1000
0100
0010
0001
0000
,  // measure 35
1200
1300
0021
0130
,  // measure 36
0010
0001
1000
0010
1000
0001
0100
0000
,  // measure 37
0120
1030
2100
3001
,  // measure 38
0010
0100
0010
0001
0100
0010
1000
0000
,  // measure 39
0201
0310
1002
0103
,  // measure 40
0001
1000
0010
1000
0100
0010
0001
0000
,  // measure 41
0011
0001
0100
0000
1010
0010
1000
0000
,  // measure 42
1100
0001
0010
0000
0101
1000
0100
0000
,  // measure 43
1001
0010
0100
0000
0110
0001
1000
0000
,  // measure 44
0011
0001
0101
0100
0110
0010
1010
1000
,  // measure 45
1001
0000
0000
0000
1000
0100
1000
0100
0010
0001
0010
0001
0100
0010
0100
0010
,  // measure 46
2000
0000
3200
0000
0320
0000
0032
0000
0203
0000
0320
0000
,  // measure 47
0230
0000
0302
0000
2003
0000
3020
0000
2030
0000
3002
0000
,  // measure 48
0023
0000
0032
0000
0203
0000
0320
0000
2030
0000
3100
0000
,  // measure 49
1001
1000
0010
0100
0010
0001
0010
0100
,  // measure 50
0010
1000
0001
0010
0100
0010
1000
0010
,  // measure 51
0001
0100
0010
0100
1000
0100
0001
0100
,  // measure 52
0010
1000
0100
0010
0011
0002
1003
0000
,  // measure 53
0110
0000
0010
1000
0100
0000
0010
0000
0001
0100
0001
0000
1000
0000
0010
0000
,  // measure 54
0100
0000
0001
0010
0001
0000
1000
0000
0010
1000
0100
0000
0010
0000
0000
0000
,  // measure 55
0011
0000
0010
0001
1000
0000
0010
0000
1000
0100
0010
0000
0001
0000
0100
0000
,  // measure 56
0010
0000
1000
0001
1000
0010
0100
0000
0001
0000
0001
0000
0001
0000
0000
0000
,  // measure 57
0011
0000
1000
0000
1010
0000
0000
0000
0010
0100
0001
0000
1000
0000
0000
0000
,  // measure 58
1100
0000
0001
0000
0101
0000
0000
0000
0010
1000
0001
0000
0100
0000
0000
0000
,  // measure 59
0110
0010
0101
0000
1001
1000
1100
0000
,  // measure 60
0110
0001
0011
0000
1001
0100
1010
0000
,  // measure 61
1002
0013
2100
3001
,  // measure 62
0100
0010
1000
0001
0010
0100
1000
0000
,  // measure 63
0120
1030
1200
0301
,  // measure 64
1000
0001
1000
0010
0100
0001
0100
0000
,  // measure 65
0021
0031
1002
0103
,  // measure 66
0010
1000
0100
0010
0100
1000
0001
0000
,  // measure 67
0201
0310
2010
3100
,  // measure 68
1000
0001
0010
0100
1000
0010
0100
0000
,  // measure 69
0101
0100
0010
0000
1000
0001
0100
0000
,  // measure 70
1010
1000
0100
0000
1000
0001
0010
0000
,  // measure 71
0011
1000
0001
0000
0010
0100
0010
0000
,  // measure 72
1100
0010
0001
0000
1000
0010
0100
0000
,  // measure 73
0110
0010
1000
0000
1001
0001
0100
0000
,  // measure 74
1010
1000
0100
0000
0011
0010
0001
0000
,  // measure 75
0101
1000
0001
0000
1100
0010
0100
0000
,  // measure 76
1100
1000
1010
0010
0110
0100
0101
0001
,  // measure 77
1001
0000
0000
0000
0010
0001
0010
0001
1000
0100
1000
0100
1000
0001
1000
0001
,  // measure 78
0200
0000
0320
0000
2030
0000
3200
0000
0320
0000
0032
0000
,  // measure 79
2003
0000
3002
0000
0203
0000
0302
0000
2003
0000
3020
0000
,  // measure 80
2030
0000
3200
0000
0320
0000
0032
0000
2003
0000
3100
0000
,  // measure 81
1001
0010
0100
0001
0010
1000
0010
0001
,  // measure 82
0100
0010
0100
1000
0100
0010
0100
0001
,  // measure 83
0010
0100
1000
0010
0001
0010
0100
0001
,  // measure 84
0010
1000
0010
0001
0101
0200
0310
0000
,  // measure 85
2002
0000
0000
0000
,  // measure 86
0000
0000
0000
0000
,  // measure 87
0000
0000
0000
0000
,  // measure 88
0000
0000
0000
3003
;
