#VERSION:0.83;
#TITLE:MAKE A JAM!;
#SUBTITLE:;
#ARTIST:U1;
#TITLETRANSLIT:;
#SUBTITLETRANSLIT:;
#ARTISTTRANSLIT:;
#GENRE:;
#ORIGIN:;
#CREDIT:;
#BANNER:MAKE A JAM!.png;
#BACKGROUND:MAKE A JAM!-bg.png;
#PREVIEWVID:;
#JACKET:MAKE A JAM!-jacket.png;
#CDIMAGE:;
#DISCIMAGE:;
#LYRICSPATH:;
#CDTITLE:;
#MUSIC:MAKE A JAM!.ogg;
#OFFSET:0.000000;
#SAMPLESTART:32.901001;
#SAMPLELENGTH:20.000000;
#SELECTABLE:YES;
#DISPLAYBPM:124.000000;
#BPMS:0.000=124.433,
4.000=124.000;
#STOPS:;
#DELAYS:;
#WARPS:;
#TIMESIGNATURES:0.000=4=4;
#TICKCOUNTS:0.000=4;
#COMBOS:0.000=1;
#SPEEDS:0.000=1.000=0.000=0;
#SCROLLS:0.000=1.000;
#FAKES:;
#LABELS:0.000=Song Start;
#BGCHANGES:;
#KEYSOUNDS:;
#ATTACKS:
;

//---------------dance-single - ----------------
#NOTEDATA:;
#CHARTNAME:;
#STEPSTYPE:dance-single;
#DESCRIPTION:;
#CHARTSTYLE:;
#DIFFICULTY:Beginner;
#METER:2;
#RADARVALUES:0.092630,0.122843,0.010131,0.000000,0.000000,64.000000,63.000000,1.000000,0.000000,0.000000,0.000000,0.000000,0.000000,0.000000,0.092630,0.122843,0.010131,0.000000,0.000000,64.000000,63.000000,1.000000,0.000000,0.000000,0.000000,0.000000,0.000000,0.000000;
#CREDIT:;
#DISPLAYBPM:124.000000;
#NOTES:
0000
0000
0000
0000
,
0000
0000
0000
0000
,
0000
0000
0000
0000
,
0000
0000
0000
0000
,
0000
0000
0000
0000
,
0010
0000
0000
0000
,
0010
0000
0000
0000
,
0100
0000
0000
0000
,
0100
0000
0000
0000
,
1000
0000
0000
0000
,
0001
0000
0000
0000
,
1000
0000
0000
0000
,
0001
0000
0000
0000
,
0010
0000
0000
0000
,
0010
0000
0000
0000
,
0100
0000
0000
0000
,
0100
0000
0000
0000
,
1000
0000
0000
0000
,
0001
0000
0000
0000
,
1000
0000
0000
0000
,
0001
0000
0000
0000
,
0010
0000
0010
0000
,
0100
0000
0100
0000
,
1000
0000
0000
0000
,
0001
0000
0000
0000
,
1000
0000
0000
0000
,
0001
0000
0000
0000
,
0010
0000
0010
0000
,
0100
0000
0100
0000
,
1000
0000
0001
0000
,
1000
0000
0001
0000
,
0010
0000
0010
0000
,
0100
0000
0100
0000
,
1000
0000
0000
0000
,
0001
0000
0000
0000
,
1000
0000
0000
0000
,
0001
0000
0000
0000
,
0010
0000
0010
0000
,
0100
0000
0100
0000
,
1000
0000
0001
0000
,
1000
0000
0001
0000
,
0010
0000
0010
0000
,
0100
0000
0100
0000
,
1000
0000
0001
0000
,
1000
0000
0001
0000
,
0010
0000
0010
0000
,
0100
0000
0100
0000
,
1000
0000
0001
0000
,
0000
0000
1001
0000
;

//---------------dance-single - ----------------
#NOTEDATA:;
#CHARTNAME:;
#STEPSTYPE:dance-single;
#DESCRIPTION:;
#CHARTSTYLE:;
#DIFFICULTY:Easy;
#METER:5;
#RADARVALUES:0.234470,0.270255,0.070920,0.000000,0.000000,162.000000,155.000000,7.000000,0.000000,0.000000,0.000000,0.000000,0.000000,0.000000,0.234470,0.270255,0.070920,0.000000,0.000000,162.000000,155.000000,7.000000,0.000000,0.000000,0.000000,0.000000,0.000000,0.000000;
#CREDIT:;
#DISPLAYBPM:124.000000;
#NOTES:
0000
0000
0000
0000
,
0000
0000
0000
0000
,
0000
0000
0000
0000
,
0000
0000
0000
0000
,
0000
0000
0000
0000
,
0010
0010
0100
0100
,
0010
0010
0100
0100
,
0010
0010
0100
0100
,
1000
0001
1000
0001
0000
0000
0000
0000
,
0010
0000
0000
0000
0001
0001
0001
0000
,
0100
0000
0000
0000
1000
1000
1000
0000
,
1000
0000
1000
0000
,
0001
0000
0001
0000
,
0010
0000
0010
0000
,
0100
0000
0100
0000
,
0000
0010
0000
0100
,
0000
0010
0001
0100
,
0010
0010
0100
0100
,
0010
0010
0100
0100
,
0010
0010
0100
0100
,
1000
0001
1000
0001
0000
0000
0000
0000
,
0010
0010
0100
0100
,
0010
0010
0100
0100
,
0010
0010
0100
0100
,
1000
0001
1000
0001
0000
0000
0000
0000
,
0010
0000
0000
0000
0001
0001
0001
0000
,
0100
0000
0000
0000
1000
1000
1000
0000
,
1000
0001
1001
0000
,
0001
1000
1001
0000
,
0010
0100
0110
0000
,
0100
0010
0110
0000
,
0001
1000
1001
0000
,
1000
0001
1001
0000
,
1000
1000
0001
0001
,
1000
0001
1000
0001
,
0000
0010
0000
0100
,
0000
0010
0001
0100
,
0010
0010
0100
0100
,
0010
0010
0100
0100
,
0010
0010
0100
0100
,
1000
0001
1000
0001
0000
0000
0000
0000
,
0010
0010
0100
0100
,
0010
0010
0100
0100
,
0010
0010
0100
0100
,
1000
0001
1000
0001
0000
0000
0000
0000
,
1000
1000
0001
0001
,
1000
0001
1000
0001
,
1000
1000
0001
1000
,
0010
0001
1001
0000
;

//---------------dance-single - ----------------
#NOTEDATA:;
#CHARTNAME:;
#STEPSTYPE:dance-single;
#DESCRIPTION:;
#CHARTSTYLE:;
#DIFFICULTY:Medium;
#METER:7;
#RADARVALUES:0.334336,0.417667,0.384993,0.000000,0.000000,231.000000,193.000000,38.000000,0.000000,0.000000,0.000000,0.000000,0.000000,0.000000,0.334336,0.417667,0.384993,0.000000,0.000000,231.000000,193.000000,38.000000,0.000000,0.000000,0.000000,0.000000,0.000000,0.000000;
#CREDIT:;
#DISPLAYBPM:124.000000;
#NOTES:
0000
0000
0000
0000
,
0000
0000
0000
0000
,
0000
0000
0000
0000
,
0000
0000
0000
0000
,
0000
0000
0000
0000
,
0010
0000
0011
0000
0100
0100
1000
0000
,
0010
0000
1010
0000
0100
0100
0001
0000
,
0010
0010
0001
0000
0100
0000
1100
0000
,
1000
0001
1000
0001
0000
0000
0000
0000
,
1010
0000
0000
0000
0001
0001
0001
0000
,
0101
0000
0000
0000
1000
1000
1000
0000
,
1010
0011
0101
1001
,
0011
1010
1100
0110
,
0010
0100
0010
0100
,
0001
0100
1000
0010
,
0000
0010
0100
1000
,
0010
0000
0010
0000
1000
1000
0000
0000
,
0010
0010
1000
0000
0100
0000
0101
0000
,
0010
0010
0001
0000
0100
0100
1000
0000
,
0010
0011
0100
1100
,
1000
0001
1000
0001
0000
0000
0000
0000
,
0010
0010
0001
0000
0100
0000
1100
0000
,
0010
0010
1000
0000
0100
0100
0001
0000
,
0010
0010
0001
0000
0100
0100
1000
0000
,
1000
0001
1000
0001
0000
0000
0000
0000
,
1010
0000
0100
0000
0001
0001
0001
0000
,
0101
0000
0010
0000
1000
1000
1000
0000
,
1010
0101
1001
0000
,
1100
0101
1100
0000
,
1010
1001
1100
0000
,
0100
0000
0100
0000
1000
0001
1000
0001
,
0000
0100
1000
0010
,
1010
1001
0110
0000
,
1000
0000
1000
0010
0010
0000
0000
0000
,
0001
0000
0001
0100
0100
0000
0000
0000
,
0010
0001
0100
1000
,
0010
0100
0001
0100
,
0010
0010
1000
0000
0100
0100
0001
0000
,
0010
0010
0001
0000
0100
0100
1000
0000
,
0010
0011
0100
1100
,
1000
0001
1000
0001
0000
0000
0000
0000
,
0010
0000
0011
0000
0100
0100
1000
0000
,
0010
1010
0100
0101
,
0010
0010
0001
0000
0100
0100
1000
0000
,
1000
0001
1000
0001
0000
0000
0000
0000
,
1000
0001
1000
0000
0010
0000
0010
0000
,
0001
0000
0100
0000
1000
0001
0010
0000
,
1000
0010
0001
0100
,
0010
1001
0110
0000
;

//---------------dance-single - ----------------
#NOTEDATA:;
#CHARTNAME:;
#STEPSTYPE:dance-single;
#DESCRIPTION:;
#CHARTSTYLE:;
#DIFFICULTY:Hard;
#METER:9;
#RADARVALUES:0.409598,0.442236,0.435650,0.000000,0.000000,283.000000,240.000000,43.000000,0.000000,0.000000,0.000000,0.000000,0.000000,0.000000,0.409598,0.442236,0.435650,0.000000,0.000000,283.000000,240.000000,43.000000,0.000000,0.000000,0.000000,0.000000,0.000000,0.000000;
#CREDIT:;
#DISPLAYBPM:124.000000;
#NOTES:
0000
0000
0000
0000
,
0000
0000
0000
0000
,
0000
0000
0000
0000
,
0000
0000
0000
0000
,
0000
0000
0000
0000
,
0010
1000
0001
0000
0100
0100
1000
0000
,
0010
1000
0010
0000
0100
0100
0001
0000
,
0010
0001
0010
0000
0100
0000
1100
0000
,
1000
0001
1000
0001
1000
1000
0010
0000
,
1010
0000
0110
0000
0001
0001
0001
0000
,
0001
0100
0010
0000
1000
1000
1000
0000
,
1000
0010
0011
0000
0101
0000
1001
0000
,
0001
0010
1010
0000
1100
0000
0110
0000
,
0010
0001
1100
0000
1001
0000
0110
0000
,
0100
0001
0100
0000
1000
1000
1000
0000
,
0010
1000
0010
0000
0001
0001
0001
0000
,
0010
0001
0100
0000
1000
1000
1000
0000
,
0010
1000
0010
0000
0100
0000
0101
0000
,
0010
0000
0011
0000
0100
0100
1000
0000
,
0010
0001
1000
0000
0100
0100
1000
0000
,
1000
0001
1000
0001
1000
1000
0001
0000
,
0010
0010
0001
0000
0100
1000
0001
0000
,
0010
0000
1010
0000
0100
0100
0001
0000
,
0010
0001
0010
0000
0100
0000
1100
0000
,
1000
0001
1000
0001
0001
0001
1000
0000
,
1001
0000
0110
0000
0001
0001
0001
0000
,
0101
0000
1000
0010
1000
1000
1000
0000
,
1010
0101
1001
0001
,
1100
0101
1100
0110
,
1010
1001
1100
0101
,
0100
0010
0010
0000
1000
0001
1000
0001
,
0000
1100
0101
0010
,
1010
1001
0110
0101
,
1000
0001
1000
0010
0010
0000
0000
0000
,
0001
1000
0001
0100
0100
0000
0000
0000
,
0010
0010
0001
0000
0100
0001
1000
0000
,
0010
1000
0100
0000
0001
0001
0100
0000
,
0010
0001
1000
0000
0100
0100
1000
0000
,
0010
0001
1000
0000
0100
0000
1100
0000
,
0010
0001
1000
0000
0100
0100
0001
0000
,
1000
0001
1000
0001
0001
0001
1000
0000
,
0010
0001
1000
0000
0100
0100
1000
0000
,
0010
1000
0010
0000
0100
0100
0001
0000
,
0010
0010
0001
0000
0100
0000
1100
0000
,
1000
0001
1000
0001
1000
1000
0001
0000
,
1000
0010
1001
0000
0110
0000
0010
0000
,
0001
1000
0100
0000
1000
0000
0110
0000
,
1000
0001
0100
0000
1000
0001
0010
0000
,
0010
1001
0110
0000
;

//---------------dance-double - ----------------
#NOTEDATA:;
#CHARTNAME:;
#STEPSTYPE:dance-double;
#DESCRIPTION:;
#CHARTSTYLE:;
#DIFFICULTY:Easy;
#METER:6;
#RADARVALUES:0.235917,0.270255,0.081051,0.000000,0.000000,163.000000,155.000000,8.000000,0.000000,0.000000,0.000000,0.000000,0.000000,0.000000,0.235917,0.270255,0.081051,0.000000,0.000000,163.000000,155.000000,8.000000,0.000000,0.000000,0.000000,0.000000,0.000000,0.000000;
#CREDIT:;
#DISPLAYBPM:124.000000;
#NOTES:
00000000
00000000
00000000
00000000
,
00000000
00000000
00000000
00000000
,
00000000
00000000
00000000
00000000
,
00000000
00000000
00000000
00000000
,
00000000
00000000
00000000
00000000
,
10000000
10000000
00010000
00010000
,
00001000
00001000
00000001
00000001
,
00000010
00000010
00000100
00000100
,
00010000
00001000
00010000
00001000
00000000
00000000
00000000
00000000
,
00100000
00000000
00000000
00000000
00001000
00001000
00001000
00000000
,
01000000
00000000
00000000
00000000
00010000
00010000
00010000
00000000
,
10000000
00000000
00010000
00000000
,
00001000
00000000
00000001
00000000
,
00000001
00001000
00001001
00000000
,
00000000
00010000
10000000
10010000
,
00000000
00000010
00000000
00000100
,
00000000
00000010
00000001
00000100
,
00000001
00000001
00001000
00001000
,
00010000
00010000
10000000
10000000
,
00100000
00100000
01000000
01000000
,
00010000
00001000
00010000
00001000
00000000
00000000
00000000
00000000
,
00010000
00010000
00001000
00001000
,
00000001
00000001
00001000
00001000
,
00000010
00000010
00000100
00000100
,
00010000
00001000
00010000
00001000
00000000
00000000
00000000
00000000
,
01000000
00000000
00000000
00000000
00001000
00001000
00001000
00000000
,
00000010
00000000
00000000
00000000
00010000
00010000
00010000
00000000
,
00001000
00010000
00011000
00000000
,
00010000
00001000
00011000
00000000
,
00100000
01000000
01100000
00000000
,
01000000
00100000
01100000
00000000
,
10000000
00000000
00010000
00000000
,
00001000
00000000
00000001
00000000
,
00001000
00001000
00000001
00000001
,
00001000
00000001
00001000
00000001
,
00000000
00100000
00000000
01000000
,
00000000
00100000
00010000
01000000
,
10000000
10000000
00010000
00010000
,
00001000
00001000
00000001
00000001
,
00000010
00000010
00000100
00000100
,
00010000
00001000
00010000
00001000
00000000
00000000
00000000
00000000
,
00000001
00000001
00001000
00001000
,
00010000
00010000
10000000
10000000
,
00100000
00100000
01000000
01000000
,
00010000
00001000
00010000
00001000
00000000
00000000
00000000
00000000
,
00010000
00010000
00001000
00001000
,
00010000
10000000
00010000
10000000
,
00001000
00001000
00010000
00010000
,
10000000
00110000
10010000
00000000
;

//---------------dance-double - ----------------
#NOTEDATA:;
#CHARTNAME:;
#STEPSTYPE:dance-double;
#DESCRIPTION:;
#CHARTSTYLE:;
#DIFFICULTY:Medium;
#METER:8;
#RADARVALUES:0.325652,0.393098,0.253285,0.000000,0.000000,225.000000,200.000000,25.000000,0.000000,0.000000,0.000000,0.000000,0.000000,0.000000,0.325652,0.393098,0.253285,0.000000,0.000000,225.000000,200.000000,25.000000,0.000000,0.000000,0.000000,0.000000,0.000000,0.000000;
#CREDIT:;
#DISPLAYBPM:124.000000;
#NOTES:
00000000
00000000
00000000
00000000
,
00000000
00000000
00000000
00000000
,
00000000
00000000
00000000
00000000
,
00000000
00000000
00000000
00000000
,
00000000
00000000
00000000
00000000
,
00100000
01000000
00010000
00000000
00001000
00001000
00000100
00000000
,
00000010
00000001
00000010
00000000
00000100
00000000
00001000
00000000
,
00010000
00100000
00010000
00000000
01000000
00000000
11000000
00000000
,
10000000
00010000
10000000
00010000
00000000
00000000
01000000
00000000
,
00001000
00000000
00000010
00000000
00001000
00001000
00001000
00000000
,
00001000
00000000
00000010
00000000
00000001
00000001
00000001
00000000
,
00000010
00000001
00000100
00001000
,
00010000
00100000
01000000
00010000
,
00001000
00000001
00000100
00001000
,
00010000
00000000
01000000
00000000
00010000
00010000
00010000
00000000
,
00001000
00000000
00000010
00000000
00000001
00000001
00000001
00000000
,
00000001
00000010
00000100
00000000
00001000
00001000
00001000
00000000
,
00010000
00100000
00010000
00000000
01000000
10000000
01000000
00000000
,
00010000
00000000
00010000
00000000
00001000
00001000
00010000
00000000
,
00001000
00010000
00001000
00000000
01000000
01000000
00010000
00000000
,
00001000
00010000
00001000
00010000
00000000
00000000
00000000
00000000
,
00001000
00000100
00010000
00100000
,
00110000
00000000
00001000
00000000
00000100
00000100
00000001
00000000
,
00000010
00001000
00000010
00000000
00001000
00000000
00010000
00000000
,
00001000
00010000
00001000
00010000
00000000
00000000
00000000
00000000
,
00000010
00001000
00000100
00000000
00010000
00010000
00010000
00000000
,
01000000
00010000
00001000
00000000
00000100
00000100
00000100
00000000
,
00000010
00001010
00011000
00000000
,
00110000
10100000
01100000
00000000
,
00010000
00001010
00000011
00000000
,
00000100
00000000
00000100
00000000
00001000
00000001
00001000
00000001
,
00000000
00000011
00000110
00011000
,
00110000
10100000
01100000
00010000
,
00001000
00000000
00010000
00000010
00000010
00000000
00000000
00000000
,
00001000
00010000
00001000
00100000
00100000
00000000
00000000
00000000
,
00001000
00001000
00000010
00000000
00000100
00000000
00010000
00000000
,
00010000
00000000
01100000
00000000
10000000
10000000
00010000
00000000
,
00001000
00000001
00001100
00011000
,
00100000
10000000
01100000
00001000
,
00000010
00000001
00000100
00001000
,
00010000
00001000
00010000
00001000
00000000
00000000
00000000
00000000
,
00100000
00000000
10000000
00000000
01000000
01000000
00010000
00000000
,
00001000
00000000
00010000
00000000
00000100
00000001
00000100
00000000
,
00001000
00010000
01010000
10100000
,
10000000
00010000
10000000
00010000
00000000
00000000
00000000
00000000
,
00001000
00000010
00000110
00000100
,
00001000
01000000
10000000
01100000
,
00010000
00001000
00000100
00000010
,
00000010
00001001
00000110
00000000
;

//---------------dance-double - ----------------
#NOTEDATA:;
#CHARTNAME:;
#STEPSTYPE:dance-double;
#DESCRIPTION:;
#CHARTSTYLE:;
#DIFFICULTY:Hard;
#METER:11;
#RADARVALUES:0.464597,0.515942,0.253285,0.000000,0.000000,321.000000,296.000000,25.000000,0.000000,0.000000,0.000000,0.000000,0.000000,0.000000,0.464597,0.515942,0.253285,0.000000,0.000000,321.000000,296.000000,25.000000,0.000000,0.000000,0.000000,0.000000,0.000000,0.000000;
#CREDIT:;
#DISPLAYBPM:124.000000;
#NOTES:
00000000
00000000
00000000
00000000
,
00000000
00000000
00000000
00000000
,
00000000
00000000
00000000
00000000
,
00000000
00000000
00000000
00000000
,
00000000
00000000
00000000
00000000
,
00100000
10000000
00010000
01000000
00001000
00010000
00000010
00000100
,
00000001
00001000
00000010
00000100
00000010
00001000
00000001
00000100
,
00000010
00000001
00001000
00000100
00010000
00001000
00100000
01000000
,
10000000
00010000
00100000
01000000
00100000
00010000
10000000
01000000
,
00001000
00010000
00000010
00001000
00001001
00001001
00001001
00000000
,
00000000
00000000
00000010
00000000
00000001
00000001
00000001
00000000
,
00000000
00000010
00000000
00001000
00000000
00000100
00001000
00000000
,
00000000
00001000
00000000
00010000
00000000
10000000
00100000
00000000
,
00000000
00010000
00000000
00000010
00000000
00001000
00000001
00000000
,
00001000
00010000
00100000
01000000
00000000
00001000
00011000
00000000
,
00001000
00000001
00001000
00000001
00001000
00000001
00001000
00000001
,
00000010
00000100
00000010
00000100
00000001
00001000
00000001
00001000
,
00000100
00000001
00001000
00000010
00010000
00001000
01000000
00100000
,
10000000
00010000
01000000
00100000
01000000
00010000
10000000
00100000
,
01000000
10000000
00010000
00100000
00001000
00010000
00000100
00000010
,
00000001
00001000
00000100
00000001
00001001
00001001
00001001
00000000
,
00000010
00000001
00001000
00000100
00010000
00001000
00100000
01000000
,
10000000
00010000
00100000
01000000
00100000
00010000
10000000
01000000
,
00100000
10000000
00010000
01000000
00001000
00010000
00000010
00000100
,
00000001
00001000
00000010
00000001
00001001
00001001
00001001
00000000
,
00000000
00001000
00000001
00000100
00000000
00000010
00001000
00000001
,
00000100
00000010
00001000
00000100
00010000
00010000
00010000
00000000
,
00000000
10000000
10000000
10000000
00000000
00100000
00100000
00100000
,
01000000
00010000
10000000
00100000
01000000
01000000
00010000
10000000
,
01000000
00000000
00000010
00000000
,
00100000
00000000
00000100
00000000
,
00010010
00011000
01001000
00011000
,
00010010
00011000
01001000
00011000
,
00000000
00000010
00000000
00001000
00000100
00000100
00000100
00000000
,
00000001
00001000
00000001
00001000
00000010
00000010
00000010
00000000
,
00001000
00001000
00000010
00000000
00000001
00000001
00000010
00000000
,
00001000
00010000
00000010
00000100
00001000
00100000
00010000
00000100
,
00000001
00001000
00000010
00000100
00000010
00001000
00000001
00000100
,
00000010
00000001
00001000
00000100
00010000
00001000
00100000
01000000
,
10000000
00010000
00100000
01000000
00100000
00010000
10000000
01000000
,
00001000
00010000
00000010
00001000
00001001
00001001
00001001
00000000
,
00000100
00000001
00001000
00000010
00010000
00001000
01000000
00100000
,
10000000
00010000
01000000
00100000
01000000
00010000
10000000
00100000
,
01000000
10000000
00010000
00100000
00001000
00010000
00000100
00000010
,
00000001
00001000
00000100
00000010
00000100
00001000
00000001
00000010
,
00001000
00010000
00000100
00010000
00001000
00010000
00100000
00010000
,
01000000
10000000
00100000
01100000
01000000
00010000
10000000
00010000
,
01000000
10000000
00010000
01000000
10010000
10010000
10010000
01000000
,
00100000
00010000
00001000
00000100
00000001
00000000
00000000
00000000
;

//---------------dance-couple - ----------------
#NOTEDATA:;
#CHARTNAME:;
#STEPSTYPE:dance-couple;
#DESCRIPTION:;
#CHARTSTYLE:;
#DIFFICULTY:Easy;
#METER:3;
#RADARVALUES:0.182365,0.270255,0.050657,0.000000,0.000000,126.000000,121.000000,5.000000,0.000000,0.000000,0.000000,0.000000,0.000000,0.000000,0.185260,0.245687,0.050657,0.000000,0.000000,128.000000,123.000000,5.000000,0.000000,0.000000,0.000000,0.000000,0.000000,0.000000;
#CREDIT:;
#DISPLAYBPM:124.000000;
#NOTES:
00000000
00000000
00000000
00000000
,
00000000
00000000
00000000
00000000
,
00000000
00000000
00000000
00000000
,
00000000
00000000
00000000
00000000
,
00000000
00000000
00000000
00000000
,
00100010
00100010
01000100
01000100
,
00100010
00100010
01000100
01000100
,
00100010
00100010
01000100
01000100
,
10001000
00010001
10001000
00010001
00000000
00000000
00000000
00000000
,
00100001
00000000
00000000
00000000
00010010
00010010
00010010
00000000
,
01001000
00000000
00000000
00000000
10000100
10000100
10000100
00000000
,
00011000
00000000
00011000
00000000
,
10000001
00000000
10000001
00000000
,
00100010
00000000
00100010
00000000
,
01000100
00000000
01000100
00000000
,
00000000
00100010
00000000
01000100
,
00000000
00100010
10000001
01000100
,
00010010
00000010
01000100
00000100
,
10000010
00000010
00100100
00000100
,
00000010
00000010
00000100
00000100
,
10001000
00010001
10001000
00010001
00000000
00000000
00000000
00000000
,
00100001
00100000
01000100
01000000
,
00101000
00100000
01000010
01000000
,
00100000
00100000
01000000
01000000
,
10001000
00010001
10001000
00010001
00000000
00000000
00000000
00000000
,
10000010
00000000
00000000
00000000
00101000
00101000
00101000
00000000
,
00010100
00000000
00000000
00000000
01000001
01000001
01000001
00000000
,
10000000
00010000
10010000
00000000
,
00001000
00000001
00001001
00000000
,
00100000
01000000
01100110
00000000
,
00000100
00000010
01100110
00000000
,
00010000
10000000
10010000
00000000
,
00000001
00001000
00001001
00000000
,
10000000
10000000
00010000
00010000
,
00000001
00001000
00000001
00001000
,
00000000
00100010
00000000
01000100
,
00000000
00100010
10000001
01000100
,
00010010
00000010
01000100
00000100
,
10000010
00000010
00100100
00000100
,
00000010
00000010
00000100
00000100
,
10001000
00010001
10001000
00010001
00000000
00000000
00000000
00000000
,
00100001
00100000
01000100
01000000
,
00101000
00100000
01000010
01000000
,
00100000
00100000
01000000
01000000
,
10001000
00010001
10001000
00010001
00000000
00000000
00000000
00000000
,
00001000
00001000
00000001
00000001
,
00010000
10000000
00010000
10000000
,
00011000
00011000
10000001
00011000
,
00000010
00001000
01101001
00000000
;

//---------------dance-couple - ----------------
#NOTEDATA:;
#CHARTNAME:;
#STEPSTYPE:dance-couple;
#DESCRIPTION:;
#CHARTSTYLE:;
#DIFFICULTY:Medium;
#METER:5;
#RADARVALUES:0.266311,0.343961,0.243154,0.000000,0.000000,184.000000,160.000000,24.000000,0.000000,0.000000,0.000000,0.000000,0.000000,0.000000,0.266311,0.343961,0.253285,0.000000,0.000000,184.000000,159.000000,25.000000,0.000000,0.000000,0.000000,0.000000,0.000000,0.000000;
#CREDIT:;
#DISPLAYBPM:124.000000;
#NOTES:
00000000
00000000
00000000
00000000
,
00000000
00000000
00000000
00000000
,
00000000
00000000
00000000
00000000
,
00000000
00000000
00000000
00000000
,
00000000
00000000
00000000
00000000
,
00100010
00000000
00110011
00000000
01000100
01000100
10001000
00000000
,
00100010
00000000
10101010
00000000
01000100
01000100
00010001
00000000
,
00100010
00100010
00010001
00000000
01000100
00000000
11001100
00000000
,
10001000
00010001
10001000
00010001
00000000
00000000
00000000
00000000
,
10001010
00000000
00100000
00000000
00010001
00000001
01000001
00000000
,
11000001
00000000
00000100
00000000
10001000
10000000
10000010
00000000
,
00011010
00000011
00010101
00001001
,
00111000
10100000
11001000
01100000
,
00100010
01000100
00100010
01000100
,
00010001
01000100
10001000
00100010
,
00000000
00100010
01000100
10001000
,
00100010
00000000
00100010
00000000
10001000
10001000
00000000
00000000
,
10000010
00000010
00001000
00000000
01000100
00000000
00000101
00000000
,
00010010
00000010
00000001
00000000
00100100
00000100
00001000
00000000
,
10000010
00000011
01000100
00001100
,
10001000
00010001
10001000
00010001
00000000
00000000
00000000
00000000
,
00101000
00100000
00010000
00000000
01000100
00000000
11000000
00000000
,
00100001
00100000
10000000
00000000
01000010
01000000
00010000
00000000
,
00101000
00100000
00010000
00000000
01000100
01000000
10000000
00000000
,
10001000
00010001
10001000
00010001
00000000
00000000
00000000
00000000
,
00001010
00000000
00000100
00000000
00000001
00000001
00000001
00000000
,
01010000
00000000
00100000
00000000
10000000
10000000
10000000
00000000
,
00001010
00000101
00001001
00000000
,
11000000
01010000
11000000
00000000
,
10101010
10011001
11001100
00000000
,
01000100
00000000
01000100
00000000
10001000
00010001
10001000
00010001
,
00000000
01000100
10001000
00100010
,
10101010
10011001
01100110
00000000
,
00001000
00000000
00001000
00000010
00000010
00000000
00000000
00000000
,
00010000
00000000
00010000
01000000
01000000
00000000
00000000
00000000
,
00100010
00010001
01000100
10001000
,
00100010
01000100
00010001
01000100
,
10000010
00000010
00001000
00000000
01000100
00000100
00000001
00000000
,
00010010
00000010
00000001
00000000
00100100
00000100
00001000
00000000
,
10000010
00000011
01000100
00001100
,
10001000
00010001
10001000
00010001
00000000
00000000
00000000
00000000
,
00101000
00000000
00110000
00000000
01000100
01000000
10000000
00000000
,
00100001
10100000
01000010
01010000
,
00101000
00100000
00010000
00000000
01000100
01000000
10000000
00000000
,
10001000
00010001
10001000
00010001
00000000
00000000
00000000
00000000
,
10000001
00011000
10000001
00000000
00100100
00000000
00100100
00000000
,
00011000
00000000
01000100
00000000
10000001
00011000
00100010
00000000
,
00011000
00100010
10000001
01000100
,
00100010
01101001
10010110
00000000
;

//---------------dance-couple - ----------------
#NOTEDATA:;
#CHARTNAME:;
#STEPSTYPE:dance-couple;
#DESCRIPTION:;
#CHARTSTYLE:;
#DIFFICULTY:Hard;
#METER:7;
#RADARVALUES:0.369073,0.393098,0.314074,0.000000,0.000000,255.000000,224.000000,31.000000,0.000000,0.000000,0.000000,0.000000,0.000000,0.000000,0.367625,0.417667,0.303942,0.000000,0.000000,254.000000,224.000000,30.000000,0.000000,0.000000,0.000000,0.000000,0.000000,0.000000;
#CREDIT:;
#DISPLAYBPM:124.000000;
#NOTES:
00000000
00000000
00000000
00000000
,
00000000
00000000
00000000
00000000
,
00000000
00000000
00000000
00000000
,
00000000
00000000
00000000
00000000
,
00000000
00000000
00000000
00000000
,
00100010
10001000
00010001
00000000
01000100
01000100
10001000
00000000
,
00100010
10001000
00100010
00000000
01000100
01000100
00010001
00000000
,
00100010
00010001
00100010
00000000
01000100
00000000
11001100
00000000
,
10001000
00010001
10001000
00010001
10001000
10001000
00100010
00000000
,
10100010
00000000
01100001
00000000
00010100
00010000
00011000
00000000
,
00100001
00000100
10000010
00000000
01001000
00001000
00011000
00000000
,
10001000
00100000
00110100
00000000
01010001
00000000
10010010
00000000
,
00100001
00000010
00011010
00000000
01001100
00000000
10000110
00000000
,
00100010
00010001
11001100
00000000
10011001
00000000
01100110
00000000
,
00100010
10000001
01000100
00000000
00011000
00011000
00011000
00000000
,
00100010
10000001
00100010
00000000
00011000
00011000
00011000
00000000
,
00100010
10000001
01000100
00000000
00011000
00011000
00011000
00000000
,
00100010
10000001
00100000
00000000
01001000
00000100
01010000
00000000
,
00100010
00010000
00000011
00000000
10000100
01000100
00001000
00000000
,
00100010
00010001
10001000
00000000
01000100
01000100
10001000
00000000
,
10001000
00010001
10001000
00010001
10001000
10001000
00010001
00000000
,
00100010
00100000
00011000
00000000
01000100
10000000
00010001
00000000
,
00100010
00000000
10001010
00000000
01000100
00000100
00010001
00000000
,
00100010
00010001
00100010
00000000
01000100
00000000
11001100
00000000
,
10001000
00010001
10001000
00010001
00010001
00010001
10001000
00000000
,
10010010
00000000
01100010
00000000
00010001
00000001
00010001
00000000
,
00100101
00000000
00101010
00000000
10000000
10000000
10000000
00000000
,
10101000
01010100
10010001
00010010
,
00011100
01000101
10001100
00100110
,
10101010
10011001
11001100
01010101
,
01000100
00100010
00100010
00000000
10001000
00010001
10001000
00010001
,
00000000
11001100
01010101
00100010
,
10101010
10011001
01100110
01010101
,
10001000
00010000
10001000
00100000
00100001
00000000
00000001
00000000
,
00010001
00001000
00010001
00000100
10000100
00000000
10000000
00000000
,
00100010
00100010
00010001
00000000
01000100
00010001
10001000
00000000
,
00100010
10001000
01000100
00000000
00010001
00010001
01000100
00000000
,
00100010
00010001
10001000
00000000
01000100
01000100
10001000
00000000
,
00100010
00010001
10000000
00000000
01000001
00000100
11000000
00000000
,
10000010
01000001
00001000
00000000
00010100
01000100
00000001
00000000
,
10001000
00010001
10001000
00010001
00010000
00010000
10000000
00000000
,
00100010
00010001
00001000
00000000
10000100
01000100
00001000
00000000
,
00100010
10001000
00100010
00000000
01000100
01000100
00010001
00000000
,
00100010
00100001
00010000
00000000
01000100
00001000
11000000
00000000
,
10001000
00010001
10001000
00010001
00001000
00001000
00000001
00000000
,
10001000
01000010
00001001
00000000
01000110
00010000
00000010
00000000
,
00010001
10000010
01000000
00000000
10001000
00000100
01100000
00000000
,
10001000
00010001
01000100
00000000
10001000
00010001
00100010
00000000
,
00100010
10011001
01100110
00000000
;

//---------------dance-solo - ----------------
#NOTEDATA:;
#CHARTNAME:;
#STEPSTYPE:dance-solo;
#DESCRIPTION:;
#CHARTSTYLE:;
#DIFFICULTY:Easy;
#METER:5;
#RADARVALUES:0.173681,0.219978,0.000000,0.000000,0.000000,120.000000,120.000000,0.000000,0.000000,0.000000,0.000000,0.000000,0.000000,0.000000,0.173681,0.219978,0.000000,0.000000,0.000000,120.000000,120.000000,0.000000,0.000000,0.000000,0.000000,0.000000,0.000000,0.000000;
#CREDIT:;
#DISPLAYBPM:124.000000;
#NOTES:
000000
000000
000000
000000
,
000000
000000
000000
000000
,
000000
000000
000000
000000
,
000000
000000
000000
000000
,
000000
000000
000000
000000
,
000000
000000
000000
000000
,
000001
000001
100000
100000
,
000010
000010
000100
000100
,
010000
010000
001000
001000
,
100000
000001
000000
000000
,
000100
000000
000010
000000
,
010000
000000
000100
000000
,
000001
000000
100000
000000
,
001000
000100
001000
000000
,
010000
000000
000100
000000
,
000001
000000
000010
000000
,
010000
000000
100000
000000
,
000100
001000
000100
000000
,
000010
000001
000100
001000
,
010000
100000
000100
001000
,
000010
000001
000100
001000
,
100000
000001
000000
000000
,
010000
000100
100000
001000
,
000100
000010
001000
000001
,
010000
000100
100000
001000
,
000100
001000
000000
000000
,
000010
000000
100000
000000
,
000001
000000
010000
000000
,
001000
000000
000100
000000
,
000001
001000
000001
000000
,
100000
000000
000010
000000
,
001000
000000
000001
000000
,
000100
000000
001000
000000
,
010000
100000
010000
000000
,
000001
000000
000000
000000
,
000001
000000
000000
000000
,
100000
000000
000000
000000
,
100000
000000
000000
000000
,
000100
001000
000001
100000
,
000010
010000
001000
000100
,
000001
100000
000010
001000
,
000001
100000
000000
000000
,
000010
000100
000001
100000
,
000100
010000
000001
100000
,
001000
010000
000001
000100
,
000010
010000
000000
000000
,
001000
001000
000100
000100
,
000001
000001
100000
100000
,
000010
010000
000000
000000
;

//---------------dance-solo - ----------------
#NOTEDATA:;
#CHARTNAME:;
#STEPSTYPE:dance-solo;
#DESCRIPTION:;
#CHARTSTYLE:;
#DIFFICULTY:Medium;
#METER:8;
#RADARVALUES:0.246048,0.318569,0.000000,0.000000,0.000000,170.000000,170.000000,0.000000,0.000000,0.000000,0.000000,0.000000,0.000000,0.000000,0.246048,0.318569,0.000000,0.000000,0.000000,170.000000,170.000000,0.000000,0.000000,0.000000,0.000000,0.000000,0.000000,0.000000;
#CREDIT:;
#DISPLAYBPM:124.000000;
#NOTES:
000000
000000
000000
000000
,
000000
000000
000000
000000
,
000000
000000
000000
000000
,
000000
000000
000000
000000
,
000000
000000
000000
000000
,
000000
000000
000000
000000
,
000010
001000
000010
000000
010000
001000
010000
000000
,
000001
001000
000001
000000
100000
001000
100000
000000
,
000001
000100
000001
000000
100000
000100
100000
000000
,
000010
010000
000100
001000
000000
000000
000000
000000
,
000001
000000
000000
100000
000000
000000
000000
000000
,
000010
000000
000000
001000
000000
000000
000100
000000
,
100000
000000
000000
000010
000000
000000
000000
000000
,
000100
000000
000000
000001
000000
000000
000000
000000
,
000010
000000
000000
001000
000000
000000
000000
000000
,
000100
000000
000000
001000
000000
000000
010000
000000
,
000001
000000
000000
100000
000000
000000
000000
000000
,
001000
000000
000000
000010
000000
000000
000000
000000
,
000001
100000
000001
000000
010000
001000
010000
000000
,
000100
000001
000100
000000
000010
001000
000010
000000
,
000100
100000
000100
000000
000010
010000
000010
000000
,
001000
000100
100000
001000
000000
000000
000000
000000
,
000001
000100
000001
000000
001000
100000
001000
000000
,
010000
000100
010000
000000
000010
000100
000010
000000
,
001000
000001
001000
000000
000100
100000
000100
000000
,
000010
001000
000100
100000
000000
000000
000000
000000
,
001000
000000
000000
010000
000000
000000
000000
000000
,
000001
000000
000000
000100
000000
000000
000010
000000
,
010000
000000
000000
001000
000000
000000
000000
000000
,
000100
000000
000000
000001
000000
000000
000000
000000
,
001000
000000
000000
000010
000000
000000
000000
000000
,
100000
000000
000000
000100
000000
000000
010000
000000
,
001000
000000
000000
000100
000000
000000
000000
000000
,
000001
000000
000000
000010
000000
000000
000000
000000
,
001000
000000
000000
000000
,
000100
000000
000000
000000
,
000001
000000
000001
000000
,
100000
100000
100000
100000
,
000010
001000
000010
000000
000100
100000
000100
000000
,
010000
001000
010000
000000
000100
000001
000100
000000
,
100000
001000
100000
000000
000001
001000
000001
000000
,
000010
100000
001000
000100
000000
000000
000000
000000
,
010000
000001
010000
000000
000010
100000
000010
000000
,
000001
000100
000001
000000
100000
000100
100000
000000
,
000001
001000
000001
000000
100000
001000
100000
000000
,
000100
000001
010000
000010
000000
000000
000000
000000
,
001000
000100
001000
000000
000001
100000
000001
000000
,
010000
001000
010000
000000
000100
000001
000100
000000
,
100000
000100
001000
000010
000000
000000
000000
000000
;

//---------------dance-solo - ----------------
#NOTEDATA:;
#CHARTNAME:;
#STEPSTYPE:dance-solo;
#DESCRIPTION:;
#CHARTSTYLE:;
#DIFFICULTY:Hard;
#METER:10;
#RADARVALUES:0.371967,0.417667,0.000000,0.000000,0.162102,257.000000,257.000000,0.000000,0.000000,0.000000,0.000000,0.000000,0.000000,0.000000,0.371967,0.417667,0.000000,0.000000,0.162102,257.000000,257.000000,0.000000,0.000000,0.000000,0.000000,0.000000,0.000000,0.000000;
#CREDIT:;
#DISPLAYBPM:124.000000;
#NOTES:
000000
000000
000000
000000
,
000000
000000
000000
000000
,
000000
000000
000000
000000
,
000000
000000
000000
000000
,
000000
000000
000000
000000
,
000000
000000
000000
000000
,
000001
001000
000001
000100
001000
100000
001000
010000
,
000100
001000
000100
100000
000010
000100
000010
001000
,
000001
000100
000001
001000
000100
100000
000100
010000
,
001000
000100
000001
001000
000010
000000
000000
000000
,
100000
001000
000000
000000
000000
000000
000100
000001
000000
000000
000000
000000
000000
000000
000000
000000
,
000010
100000
000000
000000
000000
000000
000100
001000
000000
000000
000000
000000
000001
000000
000000
000000
,
100000
000001
000000
000000
000000
000000
010000
000100
000000
000000
000000
000000
000000
000000
000000
000000
,
000001
100000
000000
000000
000000
000000
001000
010000
000000
000000
000001
000000
000100
000000
000000
000000
,
000010
100000
000000
000000
000000
000000
001000
010000
000000
000000
000000
000000
000000
000000
000000
000000
,
000001
001000
000000
000000
000000
000000
000100
100000
000000
000000
000000
000000
001000
000000
000000
000000
,
000100
000001
000000
000000
000000
000000
001000
000100
000000
000000
000000
000000
000000
000000
000000
000000
,
100000
000010
000000
000000
000000
000000
010000
000001
000000
000000
000100
000000
001000
000000
000000
000000
,
010000
000001
010000
000100
100000
010000
100000
000100
,
010000
000010
010000
000001
000100
001000
000100
000001
,
010000
000010
010000
000100
100000
001000
100000
000100
,
001000
000010
100000
001000
000100
000000
000000
000000
,
000001
100000
000001
000100
000010
001000
000010
100000
,
000100
001000
000100
100000
000010
000100
000010
001000
,
000100
100000
000100
010000
001000
000100
001000
010000
,
000001
001000
000100
100000
000010
000000
000000
000000
,
000100
000001
000000
000000
000000
000000
010000
000100
000000
000000
000000
000000
000000
000000
000000
000000
,
100000
001000
000000
000000
000000
000000
010000
000001
000000
000000
000000
000000
001000
000000
000000
000000
,
000010
100000
000000
000000
000000
000000
000100
010000
000000
000000
000000
000000
000000
000000
000000
000000
,
000010
000100
000000
000000
000000
000000
000001
001000
000000
000000
000100
000000
100000
000000
000000
000000
,
001000
010000
000000
000000
000000
000000
000001
000100
000000
000000
000000
000000
000000
000000
000000
000000
,
000010
010000
000000
000000
000000
000000
000100
001000
000000
000000
000000
000000
000001
000000
000000
000000
,
000100
001000
000000
000000
000000
000000
010000
000001
000000
000000
000000
000000
000000
000000
000000
000000
,
100000
000010
000000
000000
000000
000000
001000
000100
000000
000000
100000
000000
000001
000000
000000
000000
,
010000
010000
010000
010000
,
001000
001000
001000
001000
,
000100
000100
000001
000001
,
001000
000100
100000
000010
,
000100
000001
000100
001000
100000
000001
100000
000010
,
001000
000100
001000
000001
100000
001000
100000
000100
,
001000
000010
001000
000001
010000
001000
010000
000010
,
000000
001000
000100
100000
001000
000000
000000
000000
,
000100
000001
000100
000010
010000
000100
010000
001000
,
000100
000001
000100
000010
100000
001000
100000
000001
,
001000
000100
001000
010000
100000
000010
100000
000001
,
000100
001000
010000
000001
001000
000000
000000
000000
,
000010
000100
000010
001000
000100
100000
000100
010000
,
001000
000100
001000
100000
000001
000100
000001
001000
,
000010
100000
001000
000100
000001
000000
000000
000000
;

//---------------dance-single - ----------------
#NOTEDATA:;
#CHARTNAME:;
#STEPSTYPE:dance-single;
#DESCRIPTION:;
#CHARTSTYLE:;
#DIFFICULTY:Challenge;
#METER:14;
#RADARVALUES:0.677357,0.705652,0.354599,0.040526,0.962483,468.000000,433.000000,35.000000,4.000000,0.000000,0.000000,0.000000,0.000000,0.000000,0.677357,0.705652,0.354599,0.040526,0.962483,468.000000,433.000000,35.000000,4.000000,0.000000,0.000000,0.000000,0.000000,0.000000;
#CREDIT:;
#DISPLAYBPM:124.000000;
#NOTES:
0000
0000
0000
0000
,
0000
0000
0000
0000
,
0000
0000
0000
0000
,
0000
0000
0000
0000
,
0000
0000
0000
0000
,
1001
0000
0001
0100
0000
0010
0000
0000
1001
0000
1000
0010
0000
0100
0000
0000
,
1001
0000
1000
0001
0000
0100
0010
0000
1000
0100
0000
0010
0000
0001
0000
0000
,
0010
0010
0100
0100
1000
0001
1000
0001
,
0101
0000
0110
0000
1010
0000
1100
0000
1000
0001
0000
1000
0001
0000
0100
0000
,
0000
0001
0010
0100
1000
0010
0100
0000
0001
1000
0100
0000
1100
0000
0000
0000
,
1000
0001
0000
1000
0001
0000
0010
0001
0100
0010
1000
0000
0101
0000
0000
0000
,
0010
0000
1000
0100
0000
1000
0000
0001
0100
0010
0000
1000
0001
0000
0000
0000
,
0010
0001
0000
0001
1000
0010
0000
0010
1000
0100
0010
0000
0110
0000
0000
0000
,
1001
0000
0010
1000
0100
0000
0100
0000
1000
0000
1000
0000
0001
0100
0001
0000
,
0010
0000
0000
0001
0010
0100
2000
0000
0010
0000
0000
0000
3001
1000
0000
0001
,
0100
0010
0000
1000
0100
0000
0000
0000
1000
0001
1000
0010
0100
0000
0000
0000
,
0001
0000
0011
0000
0011
0000
0010
0100
0000
1000
0000
0001
0200
0000
0000
0300
,
0110
0000
0010
1000
0000
0100
0000
0000
0110
0000
0010
0001
0000
0100
0000
0000
,
0110
0000
0010
1000
0000
0001
0100
0000
0001
0010
0000
0100
0000
1000
0000
0000
,
0100
1000
0100
1000
0001
0000
0000
0000
0100
0001
0100
0001
1000
0000
0000
0010
,
1000
0100
1000
0100
0010
0001
0010
0001
0100
0010
1000
0001
0000
0000
0000
0000
,
0101
0000
0001
1000
0000
0100
0000
0000
1100
0000
1000
0001
0000
0100
0000
0000
,
1001
0000
0001
0100
0000
0010
1000
0000
0100
1000
0000
0001
0000
0010
0000
0000
,
0010
0001
0010
0001
1000
0000
0000
0000
0010
1000
0010
1000
0001
0000
0000
0100
,
0001
1000
0001
1000
0001
0010
0001
0010
0100
0000
1000
0001
0100
0000
0000
0000
,
0110
0000
0010
1000
0100
0000
0000
0000
0110
0000
0010
0001
0100
0000
0000
0000
,
1000
0000
0000
0000
0100
0000
0000
0000
0010
0000
0000
0000
0001
0000
0000
0000
0100
0000
0000
0000
0000
0010
0000
0000
1000
0000
0000
0010
0000
0000
0100
0000
0000
0000
0000
0000
1010
0000
0000
0000
0000
0000
0000
0000
0000
0000
0000
0000
,
0000
0001
0010
0001
0100
0010
0000
0010
1000
0100
1000
0000
0011
0000
0000
0000
,
0001
0010
0000
0010
0001
0010
0100
1000
0010
1000
0100
0000
1100
0000
1100
0000
,
1001
0000
0000
0001
0010
0001
0100
0000
0000
0000
0010
1000
0100
0000
0100
0000
,
0000
0000
1000
0100
0010
0001
0010
0100
1000
0100
0010
0001
0010
0100
1000
0000
,
0000
0001
1000
0100
1000
0000
0010
0100
0000
0001
0010
0100
1000
0000
0001
0100
,
0010
0000
0110
0000
0110
0000
0100
0001
0000
1000
0100
0010
0001
0000
0001
0000
,
0010
1000
0000
0000
0000
0000
0010
0001
0000
0000
0000
0000
0000
0000
0000
0000
,
0100
0001
0000
0000
0010
0000
0100
1000
0000
0000
0001
0000
0100
0010
0000
0000
,
1000
0001
0000
0000
0010
0000
0001
0100
0000
0000
0001
0000
1000
0100
0000
0000
,
1000
0001
1000
0001
1000
0001
1000
0001
1000
0001
1000
0001
1000
0001
1000
0001
,
1000
0000
0010
0100
0000
0100
0001
0000
0010
0000
0001
1000
0000
1000
0100
0000
,
1000
0000
0001
0100
0000
0100
0010
1000
0001
0010
0000
0001
0000
1000
0100
0000
,
1001
0000
1000
0001
0100
0000
0000
0000
0001
0010
1000
0010
0001
0000
0000
0000
,
1000
0001
1000
0100
0010
0001
0100
0010
0000
1001
0000
1000
0100
0000
0000
0000
,
0010
0000
1000
0001
0000
0001
0100
0000
0001
0000
1000
0010
0000
0010
0100
0000
,
1000
0000
0001
1000
0000
1000
0100
0010
0001
0100
0000
0010
0000
0100
0001
0000
,
1000
0001
0000
0100
0000
0001
1000
0001
0010
0100
0010
0000
1100
0000
0000
1000
,
0001
0100
0010
0100
0001
0010
0100
1000
0000
1000
0000
1000
0001
0000
0000
0000
,
0010
0000
1000
0001
0000
0100
0001
0000
1000
0000
0100
0010
0000
0001
0100
0000
,
0010
0000
1000
0100
0000
1000
0100
0010
0001
0100
0000
0001
0000
1000
0100
0000
,
1100
0000
1100
0000
1001
0000
0101
0000
0000
0000
0000
0001
0100
0001
0100
0001
,
1000
0100
0010
0001
1000
0010
0100
0001
0020
0000
0000
0000
0000
0000
0000
0000
,
0002
0000
0000
0033
;

//---------------dance-solo - ----------------
#NOTEDATA:;
#CHARTNAME:;
#STEPSTYPE:dance-solo;
#DESCRIPTION:;
#CHARTSTYLE:;
#DIFFICULTY:Challenge;
#METER:14;
#RADARVALUES:0.616568,0.680450,0.263416,0.060788,0.628147,426.000000,400.000000,26.000000,6.000000,0.000000,0.000000,0.000000,0.000000,0.000000,0.616568,0.680450,0.263416,0.060788,0.628147,426.000000,400.000000,26.000000,6.000000,0.000000,0.000000,0.000000,0.000000,0.000000;
#CREDIT:;
#DISPLAYBPM:124.000000;
#NOTES:
000000
000000
000000
000000
,
000000
000000
000000
000000
,
000000
000000
000000
000000
,
000000
000000
000000
000000
,
000000
000000
000000
000000
,
000010
100000
000100
001000
000001
000100
001000
100000
,
000100
010000
001000
100000
000010
010000
000001
001000
,
000100
001000
000010
000100
001000
100000
000001
010000
,
011000
010100
001010
000110
000000
000000
000000
000000
,
000000
000010
100000
000100
010000
000001
001000
000000
000100
100000
000001
000000
000101
000000
000000
000000
,
000001
100000
000000
100000
000100
000000
010000
000010
100000
000100
001000
000000
010010
000000
000000
000000
,
000001
000000
100000
001000
000000
010000
000000
000100
001000
000010
000000
100000
000001
000000
000000
000000
,
100000
010000
000000
100000
000001
000010
000000
000001
001000
000100
100000
000000
101000
000000
000000
000000
,
100001
000000
000100
000001
001000
000000
000010
000000
100000
000000
100000
000000
100000
001000
010000
000000
,
000001
000000
000000
000100
000010
100000
002000
000000
010000
000000
000000
000000
103000
001000
000000
000010
,
100000
000001
000000
000100
001000
000000
000000
000000
010000
000010
010000
000100
000000
100000
001000
000000
,
010000
000000
000011
000000
000011
000000
001000
000100
000000
100000
000000
000001
000010
000000
010000
000000
,
000100
100000
001000
010000
000001
100000
000010
000100
,
001000
100000
000100
001000
000010
010000
000001
010000
,
000010
100000
001000
100000
000000
000000
000000
000000
010000
000001
001000
000001
000000
000000
000000
000100
,
000010
010000
000010
010000
000001
100000
000001
100000
000100
001000
000100
001000
000000
000000
000000
000000
,
000001
100000
000100
010000
001000
100000
000100
001000
,
000100
010000
000010
000100
000001
001000
000100
100000
,
001000
010000
000001
010000
000000
000000
000000
000000
000100
100000
000010
100000
000000
000000
000000
001000
,
100000
000100
001000
000001
010000
000001
001000
000100
010000
000000
000010
100000
000010
000000
000000
000000
,
000110
000000
010000
001000
010000
000000
000000
000000
010100
000000
000010
001000
000010
000000
000000
000000
,
100000
000000
000000
000000
000010
000000
000000
000000
000100
000000
000000
000000
000001
000000
000000
000000
010000
000000
000000
000000
001000
000000
000000
000000
100000
000000
000000
000001
000000
000000
100000
000000
000000
000000
000000
000000
001010
000000
000000
000000
000000
000000
000000
000000
000000
000000
000000
000000
,
000000
010000
000100
001000
000100
010000
000000
000010
100000
000001
001000
000000
010010
000000
000000
000000
,
100000
000100
000000
000100
001000
000010
010000
000010
010000
000001
000100
000000
000101
000000
001100
000000
,
101000
000000
000000
000010
000100
001000
010000
000000
000000
000000
000001
100000
000001
000000
001000
000000
,
000000
000000
010000
000010
010000
000010
010000
000010
100000
000001
100000
000001
001000
000100
001000
000000
,
000000
000001
000100
001000
100000
000000
000010
010000
000000
000001
001000
000100
100000
000000
000010
010000
,
000000
000000
110000
000000
110000
000000
000100
001000
000000
000010
010000
000100
100000
000000
000001
001000
,
000200
010000
100000
010300
,
000002
001000
000100
001003
,
200000
000010
010000
300010
,
001000
000100
001000
000100
001000
000100
001000
000100
001000
000100
001000
000100
001000
000100
001000
000100
,
100000
000010
000100
000001
001000
000100
010000
001000
,
100000
000010
000100
000001
001000
000100
010000
000010
,
100000
000000
000100
001000
000010
000000
000000
000000
010000
000001
001000
000001
010000
000000
000000
000000
,
000100
100000
000100
100000
000010
001000
000010
010000
000000
100100
000000
100000
000001
000000
000000
000000
,
000010
000100
000001
001000
000100
100000
001000
000100
,
001000
010000
000100
100000
000010
000100
000001
001000
,
000010
000000
000100
000001
000000
100000
001000
010000
000001
000100
000010
000000
010001
000000
000000
000100
,
100000
001000
100000
001000
010000
000100
001000
000010
000000
100001
000000
000010
000100
000000
000000
000000
,
000001
010000
001000
100000
000100
001000
000010
010000
,
001000
100000
000100
001000
000001
000100
000010
010000
,
011000
000000
010100
000000
001010
000000
000110
000000
000000
000000
000000
000100
100000
000001
100000
000001
,
010000
001000
000100
001000
010000
000010
100000
000010
020000
000000
000000
000000
000000
000000
000000
000000
,
000020
000000
000000
030030
;

//---------------dance-solo - ----------------
#NOTEDATA:;
#CHARTNAME:;
#STEPSTYPE:dance-solo;
#DESCRIPTION:;
#CHARTSTYLE:;
#DIFFICULTY:Beginner;
#METER:3;
#RADARVALUES:0.153418,0.173754,0.030394,0.000000,0.000000,106.000000,103.000000,3.000000,0.000000,0.000000,0.000000,0.000000,0.000000,0.000000,0.153418,0.173754,0.030394,0.000000,0.000000,106.000000,103.000000,3.000000,0.000000,0.000000,0.000000,0.000000,0.000000,0.000000;
#CREDIT:;
#DISPLAYBPM:124.000000;
#NOTES:
// measure 0
000000
000000
000000
000000
,  // measure 1
000000
000000
000000
000000
,  // measure 2
000000
000000
000000
000000
,  // measure 3
000000
000000
000000
000000
,  // measure 4
000000
000000
000000
000000
,  // measure 5
010000
010000
000000
000000
,  // measure 6
000010
000010
000000
000000
,  // measure 7
010000
010000
000000
000000
,  // measure 8
000010
000010
000000
000000
,  // measure 9
001000
000000
001000
000000
,  // measure 10
000010
000000
000010
000000
,  // measure 11
010000
000000
010000
000000
,  // measure 12
000010
000010
000010
000000
,  // measure 13
010000
010000
010000
000000
,  // measure 14
001000
000000
010000
000000
,  // measure 15
000010
000000
010000
000000
,  // measure 16
010010
000000
000000
000000
,  // measure 17
001000
001000
001000
000000
,  // measure 18
010000
010000
010000
000000
,  // measure 19
000010
000010
000010
000000
,  // measure 20
010000
010000
000000
000000
,  // measure 21
001000
001000
001000
000000
,  // measure 22
010000
010000
010000
000000
,  // measure 23
000010
000010
000010
000000
,  // measure 24
001000
001000
000000
000000
,  // measure 25
000010
000000
010000
000000
,  // measure 26
000010
000010
000010
000010
,  // measure 27
000000
000000
010000
000000
,  // measure 28
001000
001000
001000
000000
,  // measure 29
010000
000000
000010
000000
,  // measure 30
001000
001000
001000
001000
,  // measure 31
000000
000010
000000
010000
,  // measure 32
000000
000000
000000
000000
,  // measure 33
010010
000000
000000
000000
,  // measure 34
010000
000000
000000
000000
,  // measure 35
000010
000000
000000
000000
,  // measure 36
001000
000000
000000
000000
,  // measure 37
000010
000010
000010
000000
,  // measure 38
001000
001000
001000
000000
,  // measure 39
000010
000010
000010
000000
,  // measure 40
010000
010000
000000
000000
,  // measure 41
010000
010000
010000
000000
,  // measure 42
000010
000010
000010
000000
,  // measure 43
010000
010000
010000
000000
,  // measure 44
001000
001000
000000
000000
,  // measure 45
010000
010000
010000
000000
,  // measure 46
000010
000010
000010
000000
,  // measure 47
001000
001000
000000
000000
,  // measure 48
000010
000010
000010
000000
,  // measure 49
010010
000000
000000
000000
;
