#VERSION:0.83;
#TITLE:MAGIC PARADE;
#SUBTITLE:;
#ARTIST:Lea Drop feat. Katie Dellenbach;
#TITLETRANSLIT:;
#SUBTITLETRANSLIT:;
#ARTISTTRANSLIT:;
#GENRE:;
#ORIGIN:;
#CREDIT:;
#BANNER:MAGIC PARADE-bn.png;
#BACKGROUND:MAGIC PARADE-bg.png;
#PREVIEWVID:;
#JACKET:MAGIC PARADE-jacket.png;
#CDIMAGE:;
#DISCIMAGE:;
#LYRICSPATH:;
#CDTITLE:;
#MUSIC:MAGIC PARADE.ogg;
#OFFSET:0.000000;
#SAMPLESTART:39.900002;
#SAMPLELENGTH:20.000000;
#SELECTABLE:YES;
#DISPLAYBPM:127.000000;
#BPMS:0.000=127.208,
4.000=127.003;
#STOPS:;
#DELAYS:;
#WARPS:;
#TIMESIGNATURES:0.000=4=4;
#TICKCOUNTS:0.000=4;
#COMBOS:0.000=1;
#SPEEDS:0.000=1.000=0.000=0;
#SCROLLS:0.000=1.000;
#FAKES:;
#LABELS:0.000=Song Start;
#BGCHANGES:;
#KEYSOUNDS:;
#ATTACKS:
;

//---------------dance-single - ----------------
#NOTEDATA:;
#CHARTNAME:;
#STEPSTYPE:dance-single;
#DESCRIPTION:;
#CHARTSTYLE:;
#DIFFICULTY:Beginner;
#METER:2;
#RADARVALUES:0.068437,0.120854,0.000000,0.017420,0.000000,55.000000,55.000000,0.000000,2.000000,0.000000,0.000000,0.000000,0.000000,0.000000,0.068437,0.120854,0.000000,0.017420,0.000000,55.000000,55.000000,0.000000,2.000000,0.000000,0.000000,0.000000,0.000000,0.000000;
#CREDIT:;
#DISPLAYBPM:127.000000;
#NOTES:
0000
0000
0000
0000
,
0000
0000
0000
0000
,
0000
0000
0000
0000
,
0000
0000
0000
0000
,
0000
0000
0000
0000
,
1000
0000
0000
0000
,
0000
0000
0000
0000
,
0001
0000
0000
0000
,
0000
0000
0000
0000
,
1000
0000
0000
0000
,
0000
0000
0000
0000
,
0001
0000
0000
0000
,
0000
0000
0000
0000
,
0010
0000
0000
0000
,
0010
0000
0000
0000
,
1000
0000
0000
0000
,
0001
0000
0000
0000
,
0010
0000
0000
0000
,
0010
0000
0000
0000
,
0001
0000
0000
0000
,
1000
0000
0000
0000
,
1000
1000
0000
0000
,
0001
0001
0000
0000
,
1000
0000
0000
0000
,
0001
0000
1000
0000
,
0001
0001
0000
0000
,
1000
1000
0000
0000
,
0001
0000
0000
0000
,
1000
0000
0001
0000
,
0010
0000
0010
0000
,
0010
0000
0000
0000
,
1000
0000
1000
0000
,
0000
0000
0000
0000
,
0010
0000
0010
0000
,
0010
0000
0000
0000
,
0001
0000
0001
0000
,
0000
0000
0000
0000
,
2000
0000
0000
0000
,
0000
0000
0000
3000
,
0000
0000
0000
0000
,
0000
0000
0000
0000
,
0002
0000
0000
0000
,
0000
0000
0000
0003
,
0000
0000
0000
0000
,
0000
0000
0000
0000
,
1000
1000
0000
0000
,
0001
0001
0000
0000
,
1000
0000
0000
0000
,
0001
0000
1000
0000
,
0010
0000
0010
0000
,
0010
0000
0000
0000
,
0001
0000
0001
0000
,
0000
0000
0000
0000
,
0010
0000
0010
0000
,
0010
0000
0000
0000
,
1000
0000
1000
0000
,
;

//---------------dance-single - ----------------
#NOTEDATA:;
#CHARTNAME:;
#STEPSTYPE:dance-single;
#DESCRIPTION:;
#CHARTSTYLE:;
#DIFFICULTY:Easy;
#METER:4;
#RADARVALUES:0.140607,0.193366,0.017420,0.000000,0.000000,113.000000,111.000000,2.000000,0.000000,0.000000,0.000000,0.000000,0.000000,0.000000,0.140607,0.193366,0.017420,0.000000,0.000000,113.000000,111.000000,2.000000,0.000000,0.000000,0.000000,0.000000,0.000000,0.000000;
#CREDIT:;
#DISPLAYBPM:127.000000;
#NOTES:
0000
0000
0000
0000
,
0000
0000
0000
0000
,
0000
0000
0000
0000
,
0000
0000
0000
0000
,
0000
0000
0000
0000
,
0010
0000
0010
0000
,
1000
0100
1000
0000
,
0010
0000
0010
0000
,
0001
0010
0001
0000
,
0010
0000
0010
0000
,
0001
0100
0001
0000
,
0010
0000
0010
0000
,
1000
0001
1000
0000
,
1000
0000
0100
0000
,
0001
0001
0100
0000
,
0100
0000
0010
0010
,
0000
0000
0000
0000
,
0001
0000
0100
0000
,
1000
1000
0100
0000
,
0100
0000
0010
0010
,
0000
0000
0000
0000
,
0010
1000
0010
0000
,
0010
0001
0010
0000
,
0100
0000
0100
0000
,
0010
1000
0001
0000
,
1000
0010
1000
0000
,
0001
0010
0001
0000
,
0100
0000
0010
0000
,
1000
0001
1001
0000
,
1000
0100
1000
0000
,
0010
0100
0010
0000
,
0001
0010
0001
0000
,
0000
0000
0000
0000
,
0001
0100
0001
0000
,
0010
0100
0010
0000
,
1000
0010
1000
0000
,
0000
0000
0000
0000
,
0100
0000
0000
0000
,
0010
0000
0000
0000
,
0100
0000
0000
0000
,
0010
0000
0000
0000
,
0000
0000
0000
0000
,
1000
0000
0000
0000
,
0000
0000
0000
0000
,
0001
0000
0000
0000
,
0001
0010
0001
0000
,
1000
0010
1000
0000
,
0100
0000
0010
0000
,
0001
1000
1001
0000
,
1000
0100
0010
0000
,
0100
0010
0001
0000
,
0001
0100
0010
0000
,
0000
0000
0000
0000
,
0001
0100
0010
0000
,
0100
0010
1000
0000
,
1000
0100
0010
0000
,
;

//---------------dance-single - ----------------
#NOTEDATA:;
#CHARTNAME:;
#STEPSTYPE:dance-single;
#DESCRIPTION:;
#CHARTSTYLE:;
#DIFFICULTY:Medium;
#METER:8;
#RADARVALUES:0.297391,0.322713,0.148073,0.000000,0.000000,239.000000,222.000000,17.000000,0.000000,0.000000,0.000000,0.000000,0.000000,0.000000,0.297391,0.322713,0.148073,0.000000,0.000000,239.000000,222.000000,17.000000,0.000000,0.000000,0.000000,0.000000,0.000000,0.000000;
#CREDIT:;
#DISPLAYBPM:127.000000;
#NOTES:
0000
0000
0000
0000
,
0000
0000
0000
0000
,
0000
0000
0000
0000
,
0000
0000
0000
0000
,
0000
0000
0000
0000
,
0001
0010
1000
0100
,
0100
1000
0100
0001
,
0001
0010
1000
0100
,
0100
0010
0001
0000
0100
0000
0010
0000
,
0001
0010
1000
0100
,
0010
1000
0010
0001
,
0001
0010
1000
0100
,
0100
1000
0010
0000
0100
0001
0100
0000
,
0101
1100
0001
0010
,
1000
0010
0100
0010
,
0010
0100
1000
0000
1000
0100
0100
0000
,
0000
0000
0000
0000
,
1100
0101
1000
0010
,
0001
0010
0100
0010
,
0010
0100
0001
0000
0001
0100
0100
0000
,
0000
0000
0000
0000
,
1000
0100
0000
0001
0000
0100
0000
0010
,
0000
1000
0000
0100
0000
0010
0001
0000
,
0001
0100
0000
0010
0000
1000
0010
0000
,
0010
0010
1000
0000
0100
0000
0010
0000
,
1000
0100
0000
0001
0000
0100
0000
0010
,
0000
1000
0000
0100
0000
0010
0001
0000
,
1000
0100
0000
0010
0000
0001
0010
0000
,
0100
0010
0100
0000
0010
0000
1000
0000
,
0011
1010
0010
0001
,
1000
0000
0100
0000
0010
1000
0010
0000
,
0100
0000
0010
0000
1000
0001
1001
0000
,
0001
0100
0000
0100
0001
0000
0000
0000
,
1010
0011
0010
1000
,
0001
0000
0100
0000
0010
0001
0010
0000
,
0100
0000
0010
0000
0001
1000
1001
0000
,
1000
0100
0000
0100
1000
0000
0000
0000
,
0001
0100
0010
0000
0001
0100
0010
0000
,
1000
0100
1000
0100
,
0001
0100
0010
0000
0001
0100
0010
0000
,
1000
0100
1000
0100
,
0000
0000
0000
0000
0000
0000
0000
0010
,
0000
0010
0000
0000
0000
0000
0000
0100
,
0000
0100
0000
0000
0000
0000
0000
1000
,
0000
0100
0100
0100
,
0001
0010
0000
1000
0000
0010
0000
0100
,
0000
0001
0000
0010
0000
0100
1000
0000
,
1000
0010
0000
0100
0000
0001
0100
0000
,
0100
0100
0001
0000
0010
0000
0100
0000
,
0011
1100
1000
0100
,
0001
0000
0010
0000
0001
0100
0010
0000
,
0100
0000
1000
0000
0010
1000
1001
0000
,
0010
0001
0000
1000
0100
0000
0000
0000
,
1010
0101
0001
0100
,
1000
0000
0010
0000
1000
0100
0010
0000
,
0100
0000
0001
0000
0010
0001
1001
0000
,
0010
1000
0000
0001
0100
0000
0100
0000
,
1001
0000
0000
0000
,
;

//---------------dance-single - ----------------
#NOTEDATA:;
#CHARTNAME:;
#STEPSTYPE:dance-single;
#DESCRIPTION:;
#CHARTSTYLE:;
#DIFFICULTY:Hard;
#METER:10;
#RADARVALUES:0.421822,0.422009,0.052261,0.034841,0.104522,339.000000,333.000000,6.000000,4.000000,0.000000,0.000000,0.000000,0.000000,0.000000,0.421822,0.422009,0.052261,0.034841,0.104522,339.000000,333.000000,6.000000,4.000000,0.000000,0.000000,0.000000,0.000000,0.000000;
#CREDIT:;
#DISPLAYBPM:127.000000;
#NOTES:
0000
0000
0000
0000
,
0000
0000
0000
0000
,
0000
0000
0000
0000
,
0000
0000
0000
0000
,
0000
0000
0000
0000
,
1000
0100
1000
0010
0100
0001
0010
0001
,
0000
0000
0001
0000
0010
0000
0001
0000
0010
0100
0000
0000
0100
1000
0000
0000
,
1000
0100
1000
0010
0100
0001
0010
0001
,
0000
0000
0100
0000
0010
0000
1000
0000
0100
0000
1000
0100
1000
0000
0000
0000
,
1000
0100
1000
0010
0100
0001
0010
0001
,
0000
0000
1000
0000
0010
0000
1000
0000
0010
0100
0000
0000
0100
0001
0000
0000
,
1000
0100
1000
0010
0100
0001
0010
0001
,
0100
0010
1000
0100
1000
0010
1000
0000
,
1000
0100
0000
0000
0001
0100
0000
0000
1000
0000
0100
0000
0001
0000
0000
0000
,
1000
0100
0001
0000
0010
0100
1000
0000
,
0010
0000
0100
0000
0001
0000
0000
0000
0001
0000
1000
0100
1000
0000
0000
0000
,
2000
3000
0002
0003
,
0001
0100
0000
0000
1000
0100
0000
0000
0001
0000
0100
0000
1000
0000
0000
0000
,
0001
0100
1000
0000
0010
0100
0001
0000
,
0010
0000
0100
0000
1000
0000
0000
0000
1000
0000
0001
0100
0001
0000
0000
0000
,
2002
0000
0000
3003
,
1000
0010
1000
0100
1000
0010
0100
0001
,
0000
0010
0001
0010
0100
0010
0001
0100
,
0000
0010
1000
0100
1000
0010
1000
0001
,
0000
0000
0010
0000
0001
0000
1000
0000
0100
0000
1000
0010
1000
0000
0000
0000
,
0001
0010
0001
0100
0001
0010
0100
1000
,
0000
0010
1000
0010
0100
0010
1000
0100
,
0000
0010
0001
0100
0001
0010
0001
1000
,
0000
0001
0100
0001
0101
0000
1100
0000
,
1000
0010
0000
0000
0010
0001
0000
0000
0010
0000
0001
0000
0010
0000
0000
0000
,
0001
0100
0001
0000
1000
0100
1000
0000
,
1000
0000
0100
0000
0001
0000
0000
0000
1000
0000
0001
0010
0001
0000
0000
0000
,
1000
1000
1000
0100
0100
0000
0000
0000
,
0001
0010
0000
0000
0010
1000
0000
0000
0010
0000
1000
0000
0010
0000
0000
0000
,
1000
0100
1000
0000
0001
0100
0001
0000
,
0001
0000
0100
0000
1000
0000
0000
0000
0001
0000
1000
0010
1000
0000
0000
0000
,
0001
0001
0001
0100
0100
0000
0000
0000
,
1000
0100
0010
0001
1000
0100
0010
0001
,
1000
0010
0100
0001
1000
0010
0100
0001
,
1000
0100
0010
0001
1000
0100
0010
0001
,
1000
0010
0100
0001
1000
0010
0100
0001
,
0000
0000
0000
0000
0000
0000
0000
1000
,
1000
1000
0000
0000
0000
0000
0000
0001
,
0001
0001
0000
0000
0000
0000
0000
0100
,
0100
0100
0100
0100
,
1000
0001
1000
0010
1000
0100
0010
0100
,
0000
0010
0001
0010
0001
0100
0010
0100
,
0000
0010
1000
0010
0100
0010
1000
0100
,
0000
0010
0001
0010
0011
0000
1010
0000
,
1000
0100
0000
0000
0010
0001
0000
0000
0010
0000
0001
0000
0100
0000
0000
0000
,
1000
0010
1000
0000
0100
0001
0100
0000
,
0010
0000
0001
0000
0010
0000
0000
0000
0010
0000
0100
1000
0100
0000
0000
0000
,
1000
1000
1000
0001
0001
0000
0000
0000
,
0001
0100
0000
0000
0010
1000
0000
0000
0010
0000
1000
0000
0100
0000
0000
0000
,
0001
0010
0001
0000
0100
1000
0100
0000
,
0010
0000
1000
0000
0010
0000
0000
0000
0010
0000
0100
0001
0100
0000
0000
0000
,
0001
0001
0001
1000
1000
0100
0100
0100
,
1001
0000
0000
0000
;

//---------------dance-double - ----------------
#NOTEDATA:;
#CHARTNAME:;
#STEPSTYPE:dance-double;
#DESCRIPTION:;
#CHARTSTYLE:;
#DIFFICULTY:Easy;
#METER:4;
#RADARVALUES:0.175448,0.222437,0.052261,0.121943,0.000000,141.000000,135.000000,6.000000,14.000000,0.000000,0.000000,0.000000,0.000000,0.000000,0.175448,0.222437,0.052261,0.121943,0.000000,141.000000,135.000000,6.000000,14.000000,0.000000,0.000000,0.000000,0.000000,0.000000;
#CREDIT:;
#DISPLAYBPM:127.000000;
#NOTES:
00000000
00000000
00000000
00000000
,
00000000
00000000
00000000
00000000
,
00000000
00000000
00000000
00000000
,
00000000
00000000
00000000
00000000
,
00000000
00000000
00000000
00000000
,
01000000
00000000
01000000
00000000
,
00010000
01000000
00010000
00000000
,
00100000
00000000
00100000
00000000
,
00010000
00100000
00010000
00000000
,
00000100
00000000
00000100
00000000
,
00001000
00000100
00001000
00000000
,
00000010
00000000
00000010
00000000
,
00001000
00000010
00001000
00000000
,
00000020
00000000
00000000
00000030
,
00000100
00000100
00001000
00000000
,
00200000
00000000
00000000
00300000
,
01000000
01000000
00010000
00000000
,
00001000
00000000
00000100
00000000
,
00000010
00000100
00001000
00000000
,
00010000
00000000
01000000
00100000
,
00000000
00000000
00000000
00000000
,
10000000
01000000
10000000
01000000
,
01000000
00010000
01000000
00000000
,
00010000
00001000
00010000
00001000
,
00001000
00000100
00001000
00000000
,
00000001
00000100
00000001
00000001
,
00000010
00000001
00000010
00000000
,
00001000
00000010
00001000
00001000
,
00010000
00001000
00011000
00000000
,
00001000
00100000
00010000
00100000
,
00001000
00010000
00000100
00010000
,
00001000
00000100
00001000
00010000
,
02000000
00000000
00000000
03000000
,
10000000
01000000
00100000
00100000
,
00010000
00001000
00000100
00000100
,
00000010
00000001
00000100
00000100
,
00002000
00000000
00000000
00003000
,
00010000
00000000
00100000
00000000
,
00001000
00000000
00000100
00000000
,
00010000
00000000
01000000
00000000
,
00001000
00000000
00000010
00000000
,
00022000
00000000
00033000
00000000
,
02200000
00000000
03300000
00000000
,
00022000
00000000
00033000
00000000
,
00000220
00000000
00000330
00000000
,
00001000
00000100
00001000
00000100
,
00000010
00000100
00000001
00000000
,
00000100
00000000
00001000
00000000
,
00010000
00001000
00010000
00000000
,
00010000
01000000
00010000
01000000
,
00100000
01000000
10000000
00000000
,
01000000
00000000
00010000
00000000
,
10010000
00000000
00000000
00000000
,
10000000
00100000
01000000
00000000
,
00100000
01000000
00010000
00000000
,
01000000
00010000
00001000
00000000
,
00020000
00030000
00002000
00003000
,
;

//---------------dance-double - ----------------
#NOTEDATA:;
#CHARTNAME:;
#STEPSTYPE:dance-double;
#DESCRIPTION:;
#CHARTSTYLE:;
#DIFFICULTY:Medium;
#METER:8;
#RADARVALUES:0.299880,0.422009,0.217755,0.113233,0.000000,241.000000,216.000000,25.000000,13.000000,0.000000,0.000000,0.000000,0.000000,0.000000,0.299880,0.422009,0.217755,0.113233,0.000000,241.000000,216.000000,25.000000,13.000000,0.000000,0.000000,0.000000,0.000000,0.000000;
#CREDIT:;
#DISPLAYBPM:127.000000;
#NOTES:
00000000
00000000
00000000
00000000
,
00000000
00000000
00000000
00000000
,
00000000
00000000
00000000
00000000
,
00000000
00000000
00000000
00000000
,
00000000
00000000
00000000
00000000
,
00001000
00100000
00001000
01000000
,
01000000
00001000
01000000
00001000
,
00010000
00000010
00010000
00000100
,
00000100
00010000
00000100
00010000
,
00001000
00100000
00001000
01000000
,
00200000
01300000
00200000
00310000
,
00010000
00000010
00010000
00000100
,
00000020
00000130
00000020
00001030
,
00000100
00010100
00010000
00001000
,
01000000
00000000
00100000
01000000
00100000
00000000
00000000
00000000
,
10000000
00100000
00010000
01000000
,
02200000
00000000
00000000
03300000
,
01000000
01001000
00001000
00010000
,
00000100
00000000
00000010
00000100
00000010
00000000
00000000
00000000
,
00001000
00000100
00000001
00000020
,
00000200
00000000
00000000
00000330
,
00000100
00000000
00000001
00000000
00000100
00000001
00000010
00000000
,
00000100
00001000
00000100
00010000
,
01000000
00000000
10000000
00000000
01000000
10000000
00010000
00000000
,
00200000
00001000
00301000
00010000
,
00000200
00000001
00000310
00000001
,
00000100
00001000
00010000
00000000
00001000
00000000
00100000
00000000
,
02000000
10000000
03100000
10000000
,
01000000
00100000
00010000
00000000
01000000
00100000
10000000
00000000
,
01100000
00110000
01000000
00010000
,
10000000
00000000
01000000
00000000
00100000
00001000
00010000
00000000
,
00001000
00000100
00000001
00000100
,
00000010
00000100
00000010
00000000
00000010
00000100
00000010
00000000
,
00000110
00001010
00000100
00001000
,
00000001
00000000
00000100
00000000
00000010
00010000
00001000
00000000
,
00010000
01000000
10000000
01000000
,
00100000
01000000
00100000
01000000
00100000
00000000
00000000
00000000
,
01000000
01000000
10000000
10000000
,
00100000
00100000
00010000
00011000
,
00000100
00000100
00000001
00000001
,
00000010
00000010
00001000
00011000
,
00000000
00000000
00000000
00000000
00000000
00000000
00000000
00100000
,
00000000
00100000
00000000
00000000
01000000
00000000
01000000
00000000
,
00000000
00000000
00000000
00000000
00000000
00000000
00000000
00010000
,
00000000
00010000
00001000
00000000
00000100
00000000
00000010
00000000
,
00000210
00000001
00000310
00000001
,
00000100
00001000
00010000
00000000
00001000
00010000
00100000
00000000
,
02000000
10000000
00100000
13000000
,
01000000
00100000
00010000
00000000
01000000
00100000
10000000
00000000
,
01100000
10100000
01010000
00100000
,
00001000
00000000
00000100
00000000
00000010
00001000
00000100
00000000
,
00000010
00000101
00001010
00001001
,
00000010
00000100
00000010
00000000
00000010
00000100
00000010
00000000
,
00000110
00000011
00001100
00000010
,
00010000
00000000
00001000
00000000
00100000
00010000
01000000
00000000
,
01100000
10010000
01100000
10010000
,
00100000
01000000
00100000
01000000
00100000
00000000
01100000
00000000
,
10010000
00000000
00000000
00000000
,
;

//---------------dance-double - ----------------
#NOTEDATA:;
#CHARTNAME:;
#STEPSTYPE:dance-double;
#DESCRIPTION:;
#CHARTSTYLE:;
#DIFFICULTY:Hard;
#METER:10;
#RADARVALUES:0.424311,0.446833,0.095812,0.139363,0.091457,341.000000,330.000000,11.000000,16.000000,0.000000,0.000000,0.000000,0.000000,0.000000,0.424311,0.446833,0.095812,0.139363,0.091457,341.000000,330.000000,11.000000,16.000000,0.000000,0.000000,0.000000,0.000000,0.000000;
#CREDIT:;
#DISPLAYBPM:127.000000;
#NOTES:
00000000
00000000
00000000
00000000
,
00000000
00000000
00000000
00000000
,
00000000
00000000
00000000
00000000
,
00000000
00000000
00000000
00000000
,
00000000
00000000
00000000
00000000
,
00000000
01000000
00010000
00100000
01000000
00010000
00001000
00100000
,
00001000
00000000
00010000
00000000
00000100
00000000
00001000
00000000
00000010
00001000
00000000
00000000
00001000
00000100
00000000
00000000
,
00000000
00000100
00001000
00000010
00000100
00001000
00010000
00001000
,
00100000
00000000
00010000
00000000
01000000
00000000
00010000
00000000
00100000
00000000
00010000
01000000
00010000
00000000
00000000
00000000
,
00000000
01000000
00010000
00100000
00001000
00010000
00000100
00001000
,
00000010
00000000
00010000
00000000
00000100
00000000
00001000
00000000
00000010
00000100
00000000
00000000
00000100
00000010
00000000
00000000
,
00000000
00000100
00000010
00010000
00000100
00001000
00000010
00010000
,
00001000
00100000
00001000
01000000
00010000
00100000
01100000
00000000
,
00100000
00010000
00000000
00000000
00010000
00001000
00000000
00000000
00001000
00000000
00000010
00000000
00000100
00000000
00000000
00000000
,
00000100
00001000
00010000
00000000
00001000
00100000
01000000
00000000
,
01000000
00100000
00000000
00000000
00100000
00001000
00000000
00000000
00010000
00000000
00001000
00000000
00010000
00000000
00000000
00000000
,
00000020
00000030
00000200
00000300
,
00000010
00001000
00000000
00000000
00001000
00010000
00000000
00000000
00010000
00000000
00100000
00000000
01000000
00000000
00000000
00000000
,
01000000
00010000
00001000
00000000
00010000
00000010
00000100
00000000
,
00000100
00000010
00001000
00000100
00010000
00001000
00200000
01000000
,
02000000
00000000
00000000
03300000
,
10000000
00010000
10000000
10000000
01000000
00100000
00001000
00020000
,
00000000
00030100
00000010
00000001
00000100
00000100
00000001
00000001
,
00000000
00001000
00000001
00000010
00000001
00000100
00000001
00000020
,
00000000
00000031
00000100
00000010
00001000
00000100
00010000
00011000
,
00000000
00001000
00100000
00100000
00010000
01000000
00100000
20000000
,
00000000
30100000
01000000
00001000
00010000
00010000
00001000
00001000
,
00000000
00000010
00000001
00000100
00000001
00001000
00000001
00000100
,
00000000
00000100
00000001
00001000
00001100
00000000
00010010
00000000
,
00001000
00010000
00000000
00000000
00010000
00001000
00000000
00000000
00001000
00000000
00100000
00000000
00010000
00000000
00000000
00000000
,
00010000
01000000
00010000
10000000
01000000
10000000
00010000
00000000
,
10000000
01000000
00010000
00000000
00010000
01000000
10000000
00000000
,
10000000
10000000
10000000
01000000
01000000
00000000
00000000
00000000
,
00010000
00001000
00000000
00000000
00001000
00010000
00000000
00000000
00010000
00000000
00000010
00000000
00001000
00000000
00000000
00000000
,
00001000
00000100
00001000
00000001
00000100
00000001
00001000
00000000
,
00000001
00000100
00001000
00000000
00001000
00000100
00000001
00000000
,
00000001
00000001
00000001
00000100
00000100
00000000
00000000
00000000
,
00002000
00000100
00003100
00000000
00002000
00000001
00003001
00000000
,
00002000
00000010
00003010
00000000
00002000
00010000
00013000
00000000
,
00020000
01000000
01030000
00000000
00020000
10000000
10030000
00000000
,
00020000
00100000
00130000
00000000
00020000
00001000
00001000
00031000
,
00000000
00000000
00000000
00000000
,
00001000
00000100
00000010
00000000
00000001
00000100
00000010
00000000
,
00000000
00000000
00000000
00000000
,
00010000
01000000
00100000
00000000
10000000
01000000
00100000
00000000
,
00010000
01000000
00100000
00100000
10000000
01000000
00100000
00002000
,
00000000
00013000
00000100
00001000
00000010
00000010
00000100
00000110
,
00000000
00000100
00000001
00001000
00000001
00000100
00000010
00000010
,
00000000
00010000
00001000
00010000
00010100
00000000
01001000
00000000
,
00001000
00010000
00000000
00000000
00010000
00001000
00000000
00000000
00001000
00000000
00010000
00000000
01000000
00000000
00000000
00000000
,
10000000
00100000
10000000
00010000
01000000
00010000
10010000
00000000
,
00100000
00000000
00001000
00000000
00010000
00000000
00000010
00000000
00000100
00000000
00000001
00000100
00000001
00000000
00000000
00000000
,
00000001
00000001
00001001
00000100
00000100
00000000
00000000
00000000
,
00010000
00001000
00000000
00000000
00001000
00010000
00000000
00000000
00010000
00000000
00001000
00000000
00000010
00000000
00000000
00000000
,
00000001
00000100
00000001
00001000
00000010
00001000
00001001
00000000
,
00000010
00000000
00010000
00000000
00001000
00000000
00100000
00000000
00010000
00000000
01000000
00010000
01000000
00000000
00000000
00000000
,
10000000
10000000
10000000
00010000
00010000
00100000
00001000
00001000
,
00011000
00000000
00000000
00000000
,
;

//---------------dance-single - ----------------
#NOTEDATA:;
#CHARTNAME:;
#STEPSTYPE:dance-single;
#DESCRIPTION:;
#CHARTSTYLE:;
#DIFFICULTY:Challenge;
#METER:12;
#RADARVALUES:0.528833,0.503014,0.130653,0.174204,0.095812,425.000000,410.000000,15.000000,20.000000,0.000000,0.000000,0.000000,0.000000,0.000000,0.528833,0.503014,0.130653,0.174204,0.095812,425.000000,410.000000,15.000000,20.000000,0.000000,0.000000,0.000000,0.000000,0.000000;
#CREDIT:;
#DISPLAYBPM:127.000000;
#NOTES:
// measure 0
0000
0000
0000
0000
,  // measure 1
0000
0000
0000
0000
,  // measure 2
0000
0000
0000
0000
,  // measure 3
0000
0000
0000
0000
,  // measure 4
0000
0000
0000
0000
,  // measure 5
0010
1000
0100
0010
0001
1000
0010
0100
,  // measure 6
0001
0010
0100
1000
0010
0100
1000
0001
,  // measure 7
0100
0001
0010
0001
1000
0010
0100
0001
,  // measure 8
0010
0001
0100
0010
1000
0001
0010
0100
,  // measure 9
0010
0100
1000
0001
1000
0001
1000
0100
,  // measure 10
0010
0100
1000
0010
1000
0001
0100
0010
,  // measure 11
1000
0001
0010
0001
0100
0001
1000
0100
,  // measure 12
0010
0100
1000
0010
0100
0001
1000
0100
,  // measure 13
0020
0000
0031
0000
0200
0000
0301
0000
1000
0001
1000
0000
0010
0000
0100
0000
,  // measure 14
0001
0000
0010
0000
0100
0000
1000
0000
0010
0100
0010
0000
1000
0000
0001
0000
,  // measure 15
0010
0001
0100
0001
1000
0100
0001
0000
,  // measure 16
2001
3010
1002
0013
,  // measure 17
2000
0000
3100
0000
0020
0000
0130
0000
1000
0001
1000
0000
0010
0000
0100
0000
,  // measure 18
0001
0000
0010
0000
0100
0000
1000
0000
0010
1000
0010
0000
0100
0000
0001
0000
,  // measure 19
0010
0001
0100
0010
1000
0100
0001
0000
,  // measure 20
0220
0000
0000
0000
0300
1000
1000
1030
,  // measure 21
0000
1100
0001
1000
0010
0100
0001
0010
,  // measure 22
0100
0000
1000
0000
0010
0000
0100
0000
0001
1000
0001
0000
0010
0000
0100
0000
,  // measure 23
1000
0010
0100
0001
0010
0100
1000
0010
,  // measure 24
0100
0000
0001
0000
1000
0000
0100
0000
1000
0010
1000
0000
0001
0100
0001
0000
,  // measure 25
0000
0101
1000
0001
0100
0001
0010
0100
,  // measure 26
1000
0000
0001
0000
0010
0000
0001
0000
0100
0010
0100
0000
0001
0000
1000
0000
,  // measure 27
0010
1000
0100
0010
0100
1000
0001
0000
,  // measure 28
0010
1000
0001
0100
0000
1001
0010
0100
,  // measure 29
0020
0000
1030
0000
0002
0000
1003
0000
0001
0010
0001
0000
0100
0000
0010
0000
,  // measure 30
1000
0000
0100
0000
0010
0000
0001
0000
0100
0001
0100
0000
0010
0000
1000
0000
,  // measure 31
0100
0000
0010
0000
0001
0000
0100
0000
0010
1000
0010
0000
0100
0000
0000
0000
,  // measure 32
0001
0001
0010
0010
1000
1000
0100
0100
,  // measure 33
2000
0000
3001
0000
0020
0000
0031
0000
0100
0010
0100
0000
0001
0000
1000
0000
,  // measure 34
0010
0000
1000
0000
0100
0000
0010
0000
0100
0001
0100
0000
1000
0000
0010
0000
,  // measure 35
0100
0000
0001
0000
1000
0000
0100
0000
0010
0001
0010
0000
0001
0000
0000
0000
,  // measure 36
1000
1000
0010
0010
0100
0100
0001
0001
,  // measure 37
0000
1010
0010
0100
0001
0010
0100
1000
,  // measure 38
0010
0000
0100
0000
0001
0000
1000
0000
0100
1000
0100
0000
1001
0000
0000
0000
,  // measure 39
0010
0001
0100
0010
1000
0100
0010
0001
,  // measure 40
0100
0001
0010
0100
1000
0010
0100
0000
,  // measure 41
0000
0011
0100
1000
0010
0100
0001
0210
,  // measure 42
0000
0001
0301
0100
0010
1000
0100
0100
,  // measure 43
0000
1100
0001
0100
0010
0000
0000
1002
,  // measure 44
1000
1003
0001
0001
0100
0100
0010
0010
,  // measure 45
0000
0110
1000
0100
0010
0001
0100
0010
,  // measure 46
1000
0000
0001
0000
0010
0000
0100
0000
1000
0010
1000
0000
0001
0000
0100
0000
,  // measure 47
0001
0010
0100
1000
0010
0100
0001
0000
,  // measure 48
1000
0001
0010
0100
0000
1001
0010
0100
,  // measure 49
0002
0000
0013
0000
2000
0000
3010
0000
0001
0100
0001
0000
0010
0000
0100
0000
,  // measure 50
1000
0000
0010
0000
1000
0000
0001
0000
0010
0100
1000
0000
0001
0000
0100
0000
,  // measure 51
0001
0000
1000
0000
0100
0000
0010
0000
0100
1000
0001
0000
0010
0000
0000
0000
,  // measure 52
0001
0001
1000
1000
0010
0010
0100
0100
,  // measure 53
0020
0000
0130
0000
0002
0000
0103
0000
0010
1000
0010
0000
1000
0000
0100
0000
,  // measure 54
0010
0000
0001
0000
0100
0000
0001
0000
1000
0010
0100
0000
0010
0000
1000
0000
,  // measure 55
0001
0000
1000
0000
0100
0000
0010
0000
0100
1000
0001
0000
0010
0000
0000
0000
,  // measure 56
0100
0100
0010
0010
0001
0001
1000
1000
,  // measure 57
0220
0000
0000
0330
;
