#VERSION:0.83;
#TITLE:魔法の扉(スペース☆マコのテーマ);
#SUBTITLE:;
#ARTIST:a.s.a.;
#TITLETRANSLIT:MAGIC DOOR (Theme of SPACE MACO);
#SUBTITLETRANSLIT:;
#ARTISTTRANSLIT:;
#GENRE:;
#ORIGIN:;
#CREDIT:;
#BANNER:MAGIC DOOR (Theme of SPACE MACO)-bn.png;
#BACKGROUND:MAGIC DOOR (Theme of SPACE MACO)-bg.png;
#PREVIEWVID:;
#JACKET:MAGIC DOOR (Theme of SPACE MACO)-jacket.png;
#CDIMAGE:;
#DISCIMAGE:;
#LYRICSPATH:;
#CDTITLE:;
#MUSIC:MAGIC DOOR (Theme of SPACE MACO).ogg;
#OFFSET:0.000000;
#SAMPLESTART:13.035000;
#SAMPLELENGTH:20.000000;
#SELECTABLE:YES;
#DISPLAYBPM:184.000000;
#BPMS:0.000=183.400,
4.000=184.000;
#STOPS:;
#DELAYS:;
#WARPS:;
#TIMESIGNATURES:0.000=4=4;
#TICKCOUNTS:0.000=4;
#COMBOS:0.000=1;
#SPEEDS:0.000=1.000=0.000=0;
#SCROLLS:0.000=1.000;
#FAKES:;
#LABELS:0.000=Song Start;
#BGCHANGES:;
#KEYSOUNDS:;
#ATTACKS:
;

//---------------dance-single - ----------------
#NOTEDATA:;
#CHARTNAME:;
#STEPSTYPE:dance-single;
#DESCRIPTION:;
#CHARTSTYLE:;
#DIFFICULTY:Beginner;
#METER:3;
#RADARVALUES:0.201928,0.284891,0.098616,0.000000,0.000000,129.000000,120.000000,9.000000,0.000000,0.000000,0.000000,0.000000,0.000000,0.000000,0.201928,0.284891,0.098616,0.000000,0.000000,129.000000,120.000000,9.000000,0.000000,0.000000,0.000000,0.000000,0.000000,0.000000;
#CREDIT:;
#DISPLAYBPM:184.000000;
#NOTES:
0000
0000
0000
0000
,
0000
0000
0000
0000
,
0000
0000
0000
0000
,
0000
0000
0000
0000
,
0000
0000
0000
0000
,
0000
0000
0000
0000
,
0100
0000
0100
0000
,
0010
0000
0010
0000
,
1000
0000
0001
0000
,
0100
0000
1001
0000
,
1000
0000
0100
0000
,
0010
0000
0001
0000
,
0010
0000
0100
0000
,
1000
0000
0001
0000
,
0001
0000
0100
0000
,
0010
0000
1000
0000
,
0100
0000
0010
0000
,
0001
0000
1000
0000
,
0001
0000
0100
0000
,
0010
0000
1000
0000
,
0010
0000
0100
0000
,
0001
0000
1000
0000
,
1000
0000
0100
0000
,
0010
0000
0001
0000
,
0100
0000
0010
0000
,
1000
0000
0001
0000
,
0100
0000
0100
0000
,
1000
0000
1000
0000
,
1000
0000
1000
0000
,
0001
0000
0001
0000
,
0001
0000
0001
0000
,
1000
0000
0001
0000
,
1000
0000
0001
0000
,
1000
0000
0001
0000
,
0010
0000
0100
0000
,
1000
0000
1000
0000
,
1000
0000
1000
0000
,
0001
0000
0001
0000
,
0001
0000
0001
0000
,
1000
0000
0001
0000
,
1000
0000
0001
0000
,
1000
0000
0001
0000
,
0100
0000
0010
0000
,
1000
0000
1001
0000
,
0001
0000
1001
0000
,
0100
0100
0100
0000
,
0010
0000
0010
0000
,
0100
0000
0110
0000
,
0001
0000
0100
0000
,
1000
0000
0100
0000
,
1000
0000
0010
0000
,
0001
0000
0010
0000
,
0100
0000
0100
0000
,
0001
0000
0001
0000
,
1000
0000
1000
0000
,
0110
0000
1001
0000
,
1000
0000
0010
0000
,
0001
0000
0010
0000
,
0001
0000
0100
0000
,
1000
0000
0100
0000
,
0010
0000
0010
0000
,
1000
0000
1000
0000
,
0001
0000
0001
0000
,
0110
0000
1001
0000
,
0010
0000
0100
0000
,
1001
0000
0000
0000
,
0000
0000
0000
0000
;

//---------------dance-single - ----------------
#NOTEDATA:;
#CHARTNAME:;
#STEPSTYPE:dance-single;
#DESCRIPTION:;
#CHARTSTYLE:;
#DIFFICULTY:Easy;
#METER:6;
#RADARVALUES:0.322459,0.462948,0.186275,0.000000,0.000000,206.000000,189.000000,17.000000,0.000000,0.000000,0.000000,0.000000,0.000000,0.000000,0.322459,0.462948,0.186275,0.000000,0.000000,206.000000,189.000000,17.000000,0.000000,0.000000,0.000000,0.000000,0.000000,0.000000;
#CREDIT:;
#DISPLAYBPM:184.000000;
#NOTES:
0000
0000
0000
0000
,
0000
0000
0000
0000
,
0000
0000
0000
0000
,
0000
0000
0000
0000
,
0000
0000
0000
0000
,
0000
0000
0000
0000
,
0100
0000
0100
0100
,
0010
0000
0010
0010
,
1000
1000
0001
0001
,
0010
0100
0010
1001
,
1000
0000
0100
0000
,
0010
0000
0001
0000
,
0010
0000
0100
0000
,
1000
0000
0001
0000
,
0001
0000
0100
0000
,
0010
0000
1000
0000
,
0100
0000
0010
0000
,
0001
0000
1000
1001
,
0001
0000
0100
0000
,
0010
0000
1000
0000
,
0010
0000
0100
0000
,
0001
0000
1000
0000
,
1000
0000
0100
0000
,
0010
0000
0001
0000
,
0100
0000
0010
0000
,
1000
0000
0001
1001
,
0100
0000
0100
1001
,
1000
0100
1000
0000
,
1000
0100
1000
0100
,
0001
0100
0001
0000
,
0001
0100
0001
0100
,
1000
0100
0001
0100
,
1000
0100
0001
0100
,
1000
0100
0001
0100
,
0010
0000
0100
0110
,
1000
0010
1000
0000
,
1000
0010
1000
0010
,
0001
0010
0001
0000
,
0001
0010
0001
0010
,
1000
0010
0001
0010
,
1000
0010
0001
0010
,
1000
0010
0001
0010
,
0100
0000
0010
0110
,
1000
0000
1000
1001
,
0001
0000
0001
1001
,
0100
0100
0010
0010
,
0100
0010
0100
0010
,
1000
0000
0001
1001
,
0001
0010
0100
1000
,
0100
0010
0001
1000
,
1000
0010
0100
0001
,
0010
0100
1000
0001
,
0010
0100
0010
0100
,
0001
1000
0001
1000
,
0010
0000
0010
0000
,
0110
0000
1001
1001
,
1000
0010
0100
0001
,
0100
0010
1000
0001
,
0001
0010
0100
1000
,
0010
0100
0001
1000
,
0010
0100
0010
0100
,
1000
0001
1000
0001
,
0010
0000
0010
0000
,
0110
0000
1001
1001
,
0010
0010
0010
0110
,
1001
0000
0000
0000
,
0000
0000
0000
0000
;

//---------------dance-single - ----------------
#NOTEDATA:;
#CHARTNAME:;
#STEPSTYPE:dance-single;
#DESCRIPTION:;
#CHARTSTYLE:;
#DIFFICULTY:Medium;
#METER:8;
#RADARVALUES:0.460208,0.534171,0.493080,0.000000,0.000000,294.000000,249.000000,45.000000,0.000000,0.000000,0.000000,0.000000,0.000000,0.000000,0.460208,0.534171,0.493080,0.000000,0.000000,294.000000,249.000000,45.000000,0.000000,0.000000,0.000000,0.000000,0.000000,0.000000;
#CREDIT:;
#DISPLAYBPM:184.000000;
#NOTES:
0000
0000
0000
0000
,
0000
0000
0000
0000
,
0000
0000
0000
0000
,
0000
0000
0000
0000
,
0000
0000
0000
0000
,
0000
0000
0000
0000
,
0100
0010
0100
0010
,
1000
0001
1000
0001
,
0010
0100
0010
0100
,
0010
1001
0100
1001
,
0010
1000
0010
1010
,
0100
0001
0100
0101
,
0010
1000
0100
0001
,
0010
0001
0100
1001
,
0100
0001
0100
1000
,
0100
0001
0100
1001
,
1000
1100
0001
0101
,
0010
1000
0010
0000
1010
0000
1001
0000
,
0100
0001
0100
0101
,
0010
1000
0010
1010
,
0100
0001
0010
1000
,
0100
1000
0010
1001
,
0010
1000
0010
0001
,
0010
1000
0010
1001
,
0001
0011
1000
1010
,
0100
0001
0100
0000
0101
0000
1001
0000
,
0100
0100
0100
0110
,
0001
0100
0001
0000
0100
0000
0100
0000
,
0010
1000
0001
1000
,
1000
0100
1000
0000
0100
0000
0100
0000
,
0010
0001
1000
1001
,
0100
1000
0100
1000
,
0100
0001
0100
0001
,
0010
1000
0010
1000
,
0010
0001
0010
1001
,
0001
0010
0001
0000
0010
0000
0010
0000
,
0100
1000
0001
1000
,
1000
0010
1000
0000
0010
0000
0010
0000
,
0100
0001
1000
1001
,
0010
1000
0010
1000
,
0010
0001
0010
0001
,
0100
1000
0100
1000
,
0100
0001
0100
1001
,
0100
0000
0100
0010
0100
0000
1001
0000
,
0010
0000
0010
0100
0010
0000
1001
0000
,
1000
0000
1000
0001
1000
0000
0110
0000
,
0001
0000
0001
1000
0001
0000
0110
0000
,
0000
0100
0000
0100
0000
0100
0010
0000
,
0100
0001
0100
0101
,
0010
1000
0010
1010
,
0100
0001
0010
1000
,
0100
1000
0010
1001
,
0010
1000
0010
0001
,
0010
1000
0010
1001
,
0001
0011
1000
1010
,
0100
0001
0100
0000
0101
0000
1001
0000
,
0010
1000
0010
1010
,
0100
0001
0100
0101
,
0010
1000
0100
0001
,
0010
0001
0100
1001
,
0100
0001
0100
1000
,
0100
0001
0100
1001
,
1000
1100
0001
0101
,
0010
1000
0010
0000
1010
0000
1001
0000
,
0010
0010
0010
0110
,
1001
0000
0000
0000
,
0000
0000
0000
0000
;

//---------------dance-single - ----------------
#NOTEDATA:;
#CHARTNAME:;
#STEPSTYPE:dance-single;
#DESCRIPTION:;
#CHARTSTYLE:;
#DIFFICULTY:Hard;
#METER:11;
#RADARVALUES:0.572913,0.569782,0.767014,0.000000,0.000000,366.000000,296.000000,70.000000,0.000000,0.000000,0.000000,0.000000,0.000000,0.000000,0.572913,0.569782,0.767014,0.000000,0.000000,366.000000,296.000000,70.000000,0.000000,0.000000,0.000000,0.000000,0.000000,0.000000;
#CREDIT:;
#DISPLAYBPM:184.000000;
#NOTES:
0000
0000
0000
0000
,
0000
0000
0000
0000
,
0000
0000
0000
0000
,
0000
0000
0000
0000
,
0000
0000
0000
0000
,
0000
0000
0000
0000
,
0100
0010
0100
0010
,
1000
0001
1000
0001
,
0010
0100
0010
0100
,
1010
1001
0101
0110
,
0100
0000
0010
1000
0010
0000
1001
0000
,
0010
0001
0010
0001
1000
0000
1100
0000
,
0010
0000
0001
0100
0001
0000
1001
0000
,
1000
0100
1000
0100
0010
0000
0011
0000
,
0101
1000
0100
1000
,
1100
0001
0100
0001
,
0011
0100
0001
0100
,
0010
1001
0100
0110
,
0100
0000
0010
0001
0010
0000
1001
0000
,
0010
1000
0010
1000
0001
0000
0101
0000
,
0010
0000
1000
0100
1000
0000
1001
0000
,
0001
0100
0001
0100
0010
0000
1010
0000
,
1100
0001
0100
0001
,
0101
1000
0100
1000
,
1010
0100
1000
0100
,
1010
1001
0101
0110
,
0010
0010
0110
1001
,
0100
0000
0100
0000
1000
0100
1000
0000
,
0100
0000
0100
0000
1000
0100
1000
0001
,
0010
0000
0010
0000
0001
0010
0001
0000
,
0010
0000
0010
0000
0001
0010
0001
1000
,
0100
0000
0100
0010
0100
0000
1100
0000
,
0010
0000
0010
0100
0010
0000
0011
0000
,
0100
1000
0001
0010
,
1100
1001
0101
1001
,
0010
0000
0010
0000
0001
0010
0001
0000
,
0010
0000
0010
0000
0001
0010
0001
1000
,
0100
0000
0100
0000
1000
0100
1000
0000
,
0100
0000
0100
0000
1000
0100
1000
0001
,
0010
0000
0010
0100
0010
0000
0011
0000
,
0100
0000
0100
0010
0100
0000
1100
0000
,
0010
0001
1000
0100
,
0011
1001
1010
1001
,
0100
0000
0100
0010
1000
0000
0101
0000
,
0010
0000
0010
0100
0001
0000
1010
0000
,
0101
0011
1100
1010
,
0100
0100
0101
1100
,
0010
1000
0010
1000
0010
0001
0010
0001
,
0100
0000
0010
1000
0010
0000
1001
0000
,
0010
0001
0010
0001
1000
0000
1100
0000
,
0010
0000
0001
0100
0001
0000
1001
0000
,
1000
0100
1000
0100
0010
0000
0011
0000
,
0101
0000
1000
0001
0100
0010
1000
0000
,
1100
0000
0001
1000
0100
0010
0001
0000
,
0011
0000
0100
0010
0001
0100
0010
0000
,
0011
1001
1100
0110
,
0010
0000
0100
0001
0100
0000
1001
0000
,
0100
1000
0100
1000
0001
0000
0011
0000
,
0100
0000
1000
0010
1000
0000
1001
0000
,
0001
0010
0001
0010
0100
0000
1100
0000
,
1010
0000
0001
1000
0010
0100
0001
0000
,
0011
0000
1000
0001
0010
0100
1000
0000
,
1100
0000
0010
0100
1000
0010
0100
0000
,
1100
1001
0011
0110
,
1000
0000
0001
0000
1001
0000
0100
0010
,
0110
0000
0000
0000
;

//---------------dance-double - ----------------
#NOTEDATA:;
#CHARTNAME:;
#STEPSTYPE:dance-double;
#DESCRIPTION:;
#CHARTSTYLE:;
#DIFFICULTY:Easy;
#METER:6;
#RADARVALUES:0.253584,0.391725,0.153403,0.000000,0.000000,162.000000,148.000000,14.000000,0.000000,0.000000,0.000000,0.000000,0.000000,0.000000,0.253584,0.391725,0.153403,0.000000,0.000000,162.000000,148.000000,14.000000,0.000000,0.000000,0.000000,0.000000,0.000000,0.000000;
#CREDIT:;
#DISPLAYBPM:184.000000;
#NOTES:
00000000
00000000
00000000
00000000
,
00000000
00000000
00000000
00000000
,
00000000
00000000
00000000
00000000
,
00000000
00000000
00000000
00000000
,
00000000
00000000
00000000
00000000
,
00000000
00000000
00000000
00000000
,
00100000
00000000
00100000
10000000
,
00100000
00000000
00010000
00001000
,
00000010
00000000
00000010
00000001
,
00000001
00000100
00001000
00011000
,
00100000
00000000
10000000
00000000
,
01000000
00000000
00010000
00000000
,
01000000
00000000
10000000
00000000
,
00100000
00000000
00010000
00000000
,
00001000
00000000
00000010
00000000
,
00000001
00000000
00000100
00000000
,
00000001
00000000
00000010
00000000
,
00001000
00000000
00010000
00011000
,
01000000
00000000
10000000
00000000
,
00100000
00000000
00010000
00000000
,
00100000
00000000
10000000
00000000
,
01000000
00000000
00010000
00000000
,
00001000
00000000
00000100
00000000
,
00000001
00000000
00000010
00000000
,
00000001
00000000
00000100
00000000
,
00001000
00000000
00010000
00011000
,
00001000
00011000
00010000
00011000
,
00010000
00000000
00100000
00100000
,
10000000
00000000
00010000
00000000
,
10000000
00000000
01000000
01000000
,
00010000
00001000
00010000
00001000
,
00000010
00000000
00000001
00000000
,
00001000
00000000
00000001
00000000
,
00000100
00000000
00001000
00000000
,
00010000
00000000
00001000
00011000
,
00010000
00000000
01000000
01000000
,
10000000
00000000
00010000
00000000
,
10000000
00000000
00100000
00100000
,
00010000
00001000
00010000
00001000
,
00000100
00000000
00000001
00000000
,
00001000
00000000
00000001
00000000
,
00000010
00000000
00001000
00000000
,
00010000
00000000
00001000
00011000
,
00010000
00000000
00101000
00000000
,
00001000
00000000
00010100
00000000
,
00010000
00010000
00001000
00001000
,
00010000
01000000
00010000
00001000
,
00000010
00001000
00010000
00011000
,
01000000
00000000
10000000
00000000
,
00100000
00000000
00010000
00000000
,
00100000
00000000
10000000
00000000
,
01000000
00000000
00010000
00000000
,
00001000
00000000
00000100
00000000
,
00000001
00000000
00000010
00000000
,
00000001
00000000
00000100
00000000
,
00001000
00000000
00010000
00011000
,
00100000
00000000
10000000
00000000
,
01000000
00000000
00010000
00000000
,
01000000
00000000
10000000
00000000
,
00100000
00000000
00010000
00000000
,
00001000
00000000
00000010
00000000
,
00000001
00000000
00000100
00000000
,
00000001
00000000
00000010
00000000
,
00001000
00000000
00010000
00011000
,
00001000
00011000
00010000
00001000
,
00011000
00000000
00000000
00000000
;

//---------------dance-double - ----------------
#NOTEDATA:;
#CHARTNAME:;
#STEPSTYPE:dance-double;
#DESCRIPTION:;
#CHARTSTYLE:;
#DIFFICULTY:Medium;
#METER:8;
#RADARVALUES:0.411683,0.427336,0.131488,0.000000,0.000000,263.000000,251.000000,12.000000,0.000000,0.000000,0.000000,0.000000,0.000000,0.000000,0.411683,0.427336,0.131488,0.000000,0.000000,263.000000,251.000000,12.000000,0.000000,0.000000,0.000000,0.000000,0.000000,0.000000;
#CREDIT:;
#DISPLAYBPM:184.000000;
#NOTES:
00000000
00000000
00000000
00000000
,
00000000
00000000
00000000
00000000
,
00000000
00000000
00000000
00000000
,
00000000
00000000
00000000
00000000
,
00000000
00000000
00000000
00000000
,
00000000
00000000
00000000
00000000
,
00100000
10000000
01000000
00010000
,
00001000
00010000
00100000
10000000
,
01000000
00010000
00001000
00000010
,
00000001
00000100
00001000
00011000
,
00100000
10000000
00100000
10000000
,
01000000
00000000
00010000
00000000
00001000
00010000
00001000
00000000
,
00000010
00000001
00000010
00000001
,
00000100
00000000
00001000
00000000
00010000
00001000
00010000
00000000
,
01000000
00010000
00001000
00010000
,
01000000
00010000
00001000
00010000
,
00001000
00000010
00000001
00000010
,
00000001
00000100
00001000
00011000
,
00000100
00000001
00000100
00000001
,
00000010
00000000
00001000
00000000
00010000
00001000
00010000
00000000
,
01000000
10000000
01000000
10000000
,
00100000
00000000
00010000
00000000
00001000
00010000
00001000
00000000
,
00000010
00001000
00010000
00001000
,
00000010
00001000
00010000
00001000
,
00010000
01000000
10000000
01000000
,
10000000
00100000
00010000
00011000
,
00010000
00001000
00010000
00011000
,
00001000
00000010
00001000
00000000
00000010
00000000
00000010
00000000
,
00000001
00000100
00000001
00000010
,
00000100
00010000
00001000
00000000
00000010
00000000
00000010
00000000
,
00000001
00000100
00001000
00011000
,
00010000
00100000
00010000
00100000
,
10000000
00100000
00010000
00001000
,
00001000
00000010
00001000
00000010
,
00000001
00000010
00001000
00011000
,
00010000
01000000
00010000
00000000
01000000
00000000
01000000
00000000
,
10000000
00100000
10000000
01000000
,
00100000
00001000
00010000
00000000
01000000
00000000
01000000
00000000
,
10000000
00100000
00010000
00011000
,
00001000
00000100
00001000
00000100
,
00000001
00000100
00001000
00010000
,
00010000
01000000
00010000
01000000
,
10000000
01000000
00010000
00011000
,
00001000
00000010
00001000
00000000
00010000
00000000
00010000
00000000
,
00010000
00100000
00010000
00000000
00001000
00000000
00001000
00000000
,
00001000
00000010
00001000
00001000
,
00010000
00100000
00010000
00010000
,
00000000
00001000
00000000
00010000
00000000
00001000
00011000
00000000
,
00000100
00000001
00001000
00000001
,
00000010
00000000
00001000
00000000
00010000
00001000
00010000
00000000
,
01000000
10000000
00010000
10000000
,
00100000
00000000
00010000
00000000
00001000
00010000
00001000
00000000
,
00000010
00001000
00010000
00001000
,
00000010
00001000
00010000
00001000
,
00010000
01000000
10000000
00010000
,
10000000
00100000
00010000
00011000
,
00000010
00000001
00001000
00000001
,
00000100
00000000
00001000
00000000
00010000
00001000
00010000
00000000
,
00100000
10000000
00010000
10000000
,
01000000
00000000
00010000
00000000
00001000
00010000
00001000
00000000
,
00000100
00001000
00010000
00001000
,
00000100
00001000
00010000
00001000
,
00010000
00100000
10000000
00010000
,
10000000
01000000
00010000
00011000
,
00010000
00001000
00010000
00001000
,
00011000
00000000
00000000
00000000
;

//---------------dance-double - ----------------
#NOTEDATA:;
#CHARTNAME:;
#STEPSTYPE:dance-double;
#DESCRIPTION:;
#CHARTSTYLE:;
#DIFFICULTY:Hard;
#METER:11;
#RADARVALUES:0.472731,0.569782,0.197232,0.000000,0.000000,302.000000,284.000000,18.000000,0.000000,0.000000,0.000000,0.000000,0.000000,0.000000,0.472731,0.569782,0.197232,0.000000,0.000000,302.000000,284.000000,18.000000,0.000000,0.000000,0.000000,0.000000,0.000000,0.000000;
#CREDIT:;
#DISPLAYBPM:184.000000;
#NOTES:
// measure 0
00000000
00000000
00000000
00000000
,  // measure 1
00000000
00000000
00000000
00000000
,  // measure 2
00000000
00000000
00000000
00000000
,  // measure 3
00000000
00000000
00000000
00000000
,  // measure 4
00000000
00000000
00000000
00000000
,  // measure 5
00000000
00000000
00000000
00000000
,  // measure 6
00010000
00001000
00010000
00001000
,  // measure 7
00000100
00000010
00000100
00001000
,  // measure 8
00010000
00001000
00010000
00001000
,  // measure 9
00010000
00100000
01000000
00010000
,  // measure 10
10000000
01000000
00010000
00001000
,  // measure 11
00010000
00001000
00000010
00001000
00010000
00000000
00001000
00000000
,  // measure 12
00001000
00000100
00000001
00000100
,  // measure 13
00001000
00010000
00100000
00010000
00001000
00000000
00010000
00000000
,  // measure 14
00001000
00000010
00001000
00010000
00001000
00000000
00001000
00000000
,  // measure 15
00010000
00100000
00010000
00001000
00010000
00000000
00010000
00000000
,  // measure 16
00001000
00000100
00001000
00010000
,  // measure 17
00001000
00000010
00000001
00001000
,  // measure 18
00000001
00000100
00001000
00010000
,  // measure 19
00001000
00010000
00100000
00010000
00001000
00000000
00010000
00000000
,  // measure 20
00010000
01000000
10000000
01000000
,  // measure 21
00010000
00001000
00000010
00001000
00010000
00000000
00001000
00000000
,  // measure 22
00010000
00100000
00010000
00001000
00010000
00000000
00010000
00000000
,  // measure 23
00001000
00000010
00001000
00010000
00001000
00000000
00001000
00000000
,  // measure 24
00010000
01000000
00010000
00001000
,  // measure 25
00010000
00100000
10000000
01000000
,  // measure 26
00010000
00001000
00000010
00001000
,  // measure 27
00010000
00100000
00010000
00000000
01000000
00000000
01000000
00000000
,  // measure 28
00100000
10000000
01000000
00010000
,  // measure 29
00001000
00000010
00001000
00000000
00000100
00000000
00000100
00000000
,  // measure 30
00000010
00000001
00000100
00001000
,  // measure 31
00010000
00010100
00001000
00101000
,  // measure 32
00010000
00100000
10000000
01000000
,  // measure 33
00010000
00001000
00000100
00000001
,  // measure 34
00000100
00001000
00000100
00000000
00001000
00000000
00011000
00000000
,  // measure 35
00010000
01000000
00010000
00000000
00100000
00000000
00100000
00000000
,  // measure 36
01000000
10000000
00100000
00010000
,  // measure 37
00001000
00000100
00001000
00000000
00000010
00000000
00000010
00000000
,  // measure 38
00000100
00000001
00000010
00001000
,  // measure 39
00010000
00010010
00001000
01001000
,  // measure 40
00010000
01000000
10000000
00100000
,  // measure 41
00010000
00001000
00000010
00000001
,  // measure 42
00000010
00001000
00000010
00000000
00001000
00000000
00011000
00000000
,  // measure 43
00010000
00100000
00010000
00000000
00001000
00000000
00010000
00000000
,  // measure 44
00001000
00000100
00001000
00000000
00010000
00000000
00001000
00000000
,  // measure 45
00010000
00110000
00100000
10100000
,  // measure 46
10000000
11000000
01000000
01010000
,  // measure 47
00001000
00010000
00010000
00001000
00001000
00010000
00011000
00000000
,  // measure 48
00010000
00000000
00100000
00000000
10000000
01000000
00100000
01000000
,  // measure 49
00010000
00000000
00001000
00000010
00000000
00000100
00000010
00000001
,  // measure 50
00001000
00000000
00000001
00000000
00000100
00000010
00000100
00000001
,  // measure 51
00000010
00000000
00001000
00000000
00010000
00001000
01000000
00000000
,  // measure 52
00100000
00000000
10000000
01000000
10000000
00010000
01000000
00100000
,  // measure 53
10000000
01000000
00010000
00001000
,  // measure 54
00000010
00001010
00001000
00011000
,  // measure 55
00010000
00001000
00000100
00000110
,  // measure 56
00001000
00000000
00000010
00000000
00000001
00000100
00000010
00000100
,  // measure 57
00001000
00000000
00010000
00100000
00000000
01000000
00100000
10000000
,  // measure 58
00010000
00000000
10000000
00000000
01000000
00100000
01000000
10000000
,  // measure 59
00100000
00000000
00010000
00000000
00001000
00010000
00000100
00000000
,  // measure 60
00000010
00000000
00000001
00000100
00000001
00001000
00000100
00000010
,  // measure 61
00000001
00000100
00001000
00010000
,  // measure 62
00100000
00110000
00010000
00011000
,  // measure 63
00001000
00010000
01000000
01100000
,  // measure 64
01000000
10000000
00100000
00010000
,  // measure 65
00011000
00000000
00000000
00000000
;

//---------------dance-single - ----------------
#NOTEDATA:;
#CHARTNAME:;
#STEPSTYPE:dance-single;
#DESCRIPTION:;
#CHARTSTYLE:;
#DIFFICULTY:Challenge;
#METER:13;
#RADARVALUES:0.662137,0.612378,0.328720,0.208190,0.016436,423.000000,393.000000,30.000000,19.000000,0.000000,0.000000,0.000000,0.000000,0.000000,0.662137,0.612378,0.328720,0.208190,0.016436,423.000000,393.000000,30.000000,19.000000,0.000000,0.000000,0.000000,0.000000,0.000000;
#CREDIT:;
#DISPLAYBPM:184.000000;
#NOTES:
0000
0000
0000
0000
,
0000
0000
0000
0000
,
0000
0000
0000
0000
,
0000
0000
0000
0000
,
0000
0000
0000
0000
,
0000
0000
0000
0000
,
0110
0000
0001
0000
1000
0010
0100
0001
,
0010
0100
1000
0000
0001
1000
0100
0000
,
1001
0000
0010
0001
0100
0001
1000
0100
,
0010
0001
0100
0001
0010
0100
1000
0010
,
0100
0000
0101
0001
0010
0100
1000
0000
,
0010
1000
0001
0010
0100
1000
0010
0000
,
1010
0000
1000
0100
0010
0001
0100
0000
,
0010
0100
0001
1000
0100
1000
0010
0100
,
0001
0000
1000
0001
0010
0100
1000
0010
,
0100
0000
0001
1000
0010
1000
0001
0000
,
0011
0000
0010
0100
1000
0010
0100
0010
,
1000
0001
0010
0100
0010
0001
1000
0000
,
0100
0000
1100
1000
0001
0010
0100
0000
,
0010
0001
0100
0010
1000
0010
0100
0000
,
1010
0000
0001
1000
0010
1000
0001
0000
,
0010
0100
0010
0001
0100
0001
1000
0001
,
0100
0000
0010
0000
1001
0000
1000
0001
,
0010
0100
1000
0010
1000
0001
0100
0000
,
0001
0010
0100
1000
0010
0100
0001
1000
,
0100
0010
0100
1000
0010
1000
0001
0000
,
0010
0001
1000
0100
0010
0100
1000
0001
,
0100
0010
1000
0001
0000
0020
0230
2300
,
3001
0000
1000
0100
1100
0000
0101
0000
,
0010
0100
0001
1000
0000
0002
0023
0230
,
0000
0000
2300
0000
0000
0000
3020
0000
0000
0000
1030
0001
1000
0000
0010
0000
,
0100
0000
0110
0010
1000
0001
0100
0000
,
0101
0000
0001
1000
0100
0010
0100
0000
,
1000
0010
0100
0001
0000
0010
0010
0010
,
0001
0011
0000
1000
1010
0010
0100
0000
,
0001
0100
0010
1000
0000
0020
2030
3002
,
0013
0000
0001
1000
1010
0000
0011
0000
,
0010
0100
1000
0001
0000
0200
0320
2030
,
0000
0000
3002
0000
0000
0000
0023
0000
0000
0000
0031
1000
0001
0000
0100
0000
,
0010
0000
1001
0100
0001
1000
0010
0000
,
1100
0000
1000
0001
0010
0001
0100
0000
,
1000
0001
0001
0001
0100
0100
0010
1000
,
0001
0100
0010
0000
0110
0000
1001
0000
,
2100
0001
3001
0000
0010
0100
1000
0000
,
0102
1000
1003
0000
0001
0010
0100
0000
,
0010
0001
1000
0010
0100
0001
1000
0100
,
0010
0100
0010
0100
1000
0001
1000
0001
,
0010
0000
0000
0000
0010
0000
0000
0000
0010
0000
0000
0001
1000
0000
0100
0000
,
1000
0000
1010
0001
1000
0100
0010
0000
,
0001
1000
0100
0010
0001
1000
0100
0000
,
0011
0000
0010
0100
1000
0010
0100
0000
,
0001
1000
0100
0010
0001
0100
0010
1000
,
0001
0000
0110
0000
0100
0010
1000
0001
,
0010
0100
1000
0001
0100
0000
1010
0000
,
0001
1000
0010
0100
0001
0010
0100
1000
,
0010
1000
0001
0010
0001
0100
0010
0000
,
1000
0000
0110
0100
0010
1000
0001
0000
,
0010
0001
0010
0100
1000
0010
0100
0000
,
0101
0000
0001
1000
0100
0010
0001
0000
,
0100
0001
0010
0001
1000
0010
1000
0100
,
0010
0000
1001
0000
0100
0001
0010
0100
,
1100
0000
0010
0100
0001
1000
0100
0000
,
1000
0001
0010
0001
0100
0010
1000
0001
,
0010
0001
0100
0000
0010
1000
0100
0000
,
1000
0001
0010
0100
1000
0010
0100
0001
,
0020
0000
0000
0030
;
