#VERSION:0.83;
#TITLE:Love Runs Out;
#SUBTITLE:;
#ARTIST:One Republic;
#TITLETRANSLIT:;
#SUBTITLETRANSLIT:;
#ARTISTTRANSLIT:;
#GENRE:;
#ORIGIN:;
#CREDIT:;
#BANNER:Love Runs Out-bn.png;
#BACKGROUND:Love Runs Out-bg.png;
#PREVIEWVID:;
#JACKET:Love Runs Out-jacket.png;
#CDIMAGE:;
#DISCIMAGE:;
#LYRICSPATH:;
#CDTITLE:;
#MUSIC:Love Runs Out.ogg;
#OFFSET:0.000000;
#SAMPLESTART:55.365700;
#SAMPLELENGTH:20.000000;
#SELECTABLE:YES;
#DISPLAYBPM:120.000000;
#BPMS:0.000=119.960;
#STOPS:;
#DELAYS:;
#WARPS:;
#TIMESIGNATURES:0.000=4=4;
#TICKCOUNTS:0.000=4;
#COMBOS:0.000=1;
#SPEEDS:0.000=1.000=0.000=0;
#SCROLLS:0.000=1.000;
#FAKES:;
#LABELS:0.000=Song Start;
#BGCHANGES:;
#KEYSOUNDS:;
#ATTACKS:
;

//---------------dance-single - x scale 13----------------
#NOTEDATA:;
#CHARTNAME:;
#STEPSTYPE:dance-single;
#DESCRIPTION:x scale 13;
#CHARTSTYLE:;
#DIFFICULTY:Challenge;
#METER:13;
#RADARVALUES:0.544558,0.622461,0.351508,0.078113,0.023434,488.000000,443.000000,45.000000,10.000000,0.000000,0.000000,0.000000,0.000000,0.000000,0.544558,0.622461,0.351508,0.078113,0.023434,488.000000,443.000000,45.000000,10.000000,0.000000,0.000000,0.000000,0.000000,0.000000;
#CREDIT:;
#DISPLAYBPM:120.000000;
#NOTES:
// measure 0
0000
0000
0000
0000
,  // measure 1
0000
0000
0000
0000
,  // measure 2
1000
0001
1000
0001
1000
0001
1000
0001
,  // measure 3
1000
0001
1000
0001
1000
0001
1000
0001
,  // measure 4
1000
0001
1000
0001
1000
0001
1000
0001
,  // measure 5
1000
0001
1000
0001
1000
0001
1000
0001
,  // measure 6
1000
0001
1000
0001
1000
0001
1000
0001
,  // measure 7
1000
0001
1000
0001
1000
0001
1000
0001
,  // measure 8
0100
0010
0100
0010
0100
0010
0100
0010
,  // measure 9
0100
0010
0100
0010
0100
0010
0100
0010
,  // measure 10
1000
0001
1000
0001
1000
0001
1000
0001
,  // measure 11
1000
0001
1000
0001
1000
0001
1000
0001
,  // measure 12
1000
0100
1000
0100
1000
0100
1000
0100
,  // measure 13
1000
0100
1000
0100
1000
0100
1000
0100
,  // measure 14
1000
0001
1000
0001
1000
0001
1000
0001
,  // measure 15
1000
0001
1000
0001
1000
0000
0000
0000
,  // measure 16
0001
0100
1100
0000
0001
0100
1100
0000
,  // measure 17
0001
0100
1100
0000
0001
0100
1100
0000
,  // measure 18
0001
0100
1100
0000
0001
0100
1100
0000
,  // measure 19
0001
0100
1100
0000
0001
0100
1100
0000
,  // measure 20
1000
0010
0011
0000
1000
0010
0011
0000
,  // measure 21
1000
0010
0011
0000
1000
0010
0011
0000
,  // measure 22
0001
0100
1100
0000
0001
0100
1100
0000
,  // measure 23
0001
0100
1100
0000
0001
0100
1100
0000
,  // measure 24
0100
0010
1001
0000
0100
0010
1001
0000
,  // measure 25
0100
0010
1001
0000
0100
0010
1001
0000
,  // measure 26
0001
0100
1100
0000
0001
0100
1100
0000
,  // measure 27
1000
0001
1000
0001
1000
0010
0010
0010
,  // measure 28
0110
0100
0001
1000
0010
1000
0100
1000
,  // measure 29
0001
0000
0010
0000
0100
0000
1000
0000
0000
0000
1000
0000
0010
0100
0010
0000
,  // measure 30
1010
1000
0100
0001
0010
0001
0010
0100
,  // measure 31
1000
0000
0100
0000
0010
0000
0001
0000
0000
0000
0100
0000
0100
0001
0100
0000
,  // measure 32
0101
0000
0101
0000
1100
0000
1100
0000
0000
0000
0010
0000
0010
1000
0010
0000
,  // measure 33
1010
1010
0011
0011
0000
0001
0001
0001
,  // measure 34
1000
0100
0010
0001
0010
0100
1000
0000
,  // measure 35
0001
0010
0100
1000
0100
0010
0001
0000
,  // measure 36
1000
0100
0001
1000
0010
0001
1000
0100
,  // measure 37
0001
1000
0010
0001
1000
0100
0001
0000
,  // measure 38
0010
1000
0010
1000
0001
1000
0001
2002
,  // measure 39
0000
3000
0203
0020
0300
1000
1000
1030
,  // measure 40
0010
0001
0010
0100
0010
1000
0010
0000
,  // measure 41
0010
1000
0010
0100
0010
0001
0010
0000
,  // measure 42
1000
0010
0001
0010
1000
0100
0001
0100
,  // measure 43
1000
0010
0001
0010
1000
0100
0001
0100
,  // measure 44
1000
0001
0010
0001
0010
0001
1000
0000
,  // measure 45
0001
0100
0010
0100
0010
0100
0001
0000
,  // measure 46
0001
0010
1000
0010
0001
0100
1000
0100
,  // measure 47
0001
0010
1000
0010
0001
0100
1000
0100
,  // measure 48
0001
0010
1000
0001
0100
0010
1000
0000
,  // measure 49
1000
0100
0001
1000
0010
0100
0001
0000
,  // measure 50
1000
1000
0001
0001
0100
0100
0010
0220
,  // measure 51
0000
0300
2030
0002
3000
0010
0010
0013
,  // measure 52
1010
0001
0100
0010
0001
1000
0100
1000
,  // measure 53
0010
0000
0100
0000
0001
0000
1000
0000
0000
0000
1000
0000
0001
0010
0001
0000
,  // measure 54
1001
0100
0010
0001
0010
1000
0100
0001
,  // measure 55
0100
0000
0010
0000
1000
0000
0001
0000
0000
0000
1000
0000
1000
0001
1000
0000
,  // measure 56
1100
0000
1100
0000
0011
0000
0011
0000
0000
0000
0100
0000
0100
1000
0100
0000
,  // measure 57
0101
0101
1010
1010
0000
0010
0010
0010
,  // measure 58
1000
0100
0010
0001
0010
0100
1000
0000
,  // measure 59
0001
0010
0100
1000
0100
0010
0001
0000
,  // measure 60
0001
0100
1000
0001
0010
1000
0001
0100
,  // measure 61
1000
0001
0010
1000
0001
0100
1000
0000
,  // measure 62
0010
0010
1000
1000
0100
0100
0001
0202
,  // measure 63
0000
0000
0000
0303
;

//---------------dance-single - x scale 12----------------
#NOTEDATA:;
#CHARTNAME:;
#STEPSTYPE:dance-single;
#DESCRIPTION:x scale 12;
#CHARTSTYLE:;
#DIFFICULTY:Hard;
#METER:11;
#RADARVALUES:0.478720,0.442021,0.281206,0.093735,0.015623,429.000000,393.000000,36.000000,12.000000,0.000000,0.000000,0.000000,0.000000,0.000000,0.478720,0.442021,0.281206,0.093735,0.015623,429.000000,393.000000,36.000000,12.000000,0.000000,0.000000,0.000000,0.000000,0.000000;
#CREDIT:;
#DISPLAYBPM:120.000000;
#NOTES:
0000
0000
0000
0000
,
0000
0000
0000
0000
,
1000
0001
1000
0001
1000
0001
1000
0001
,
1000
0001
1000
0001
1000
0001
1000
0001
,
1001
0000
0010
0100
0110
0000
1000
0001
,
1000
0010
0100
0001
0000
0001
1000
0100
,
1100
0000
0001
1000
0101
0000
0010
0100
,
0001
1000
0100
1000
0000
0010
0001
0020
,
0000
0000
0000
0031
1000
0000
0000
0000
1010
0000
0010
0000
1000
0000
0002
0000
,
0000
0000
0000
0103
0010
0000
0000
0000
0011
0000
1000
0000
0010
0000
0100
0000
,
0001
0010
0100
1000
0100
0010
0001
0000
,
1000
0100
0010
0001
0010
0100
1000
0000
,
0010
1000
0001
1000
0010
1000
0001
0000
,
0100
0001
1000
0001
0100
0001
1000
0000
,
1000
0001
1000
0001
1000
0001
1000
0001
,
1000
0001
1000
0001
2000
0000
3000
0000
,
0120
0000
1030
0010
0011
0000
0001
0100
,
0010
1000
0100
2100
0000
3001
0100
0010
,
1001
0000
0010
0001
1010
0000
1000
0100
,
1000
0001
0010
0201
0000
0310
0100
0002
,
0000
0000
0000
0103
1000
0000
0000
0000
0010
0000
0001
0000
0100
0000
0020
0000
,
0000
0000
0000
0130
0001
0000
0000
0000
1000
0000
0001
0000
0010
0000
1000
0000
,
0100
0010
1000
0100
1000
0010
0100
0000
,
0010
0100
0001
0010
0001
0100
0010
0000
,
0001
0010
0100
1000
0100
0010
0001
0000
,
1000
0100
0010
0001
0010
0100
1000
0000
,
1000
0001
1000
0001
1000
0001
1000
0001
,
1000
0001
1000
0002
2000
0000
3003
0000
,
1001
0000
0010
1000
0100
0000
0100
0010
,
1000
0100
0010
0001
0000
0100
0010
0000
,
0110
0000
1000
0100
1000
0001
0100
0001
,
0010
0100
0001
1000
0000
0001
1000
0000
,
1000
0001
0011
1010
0000
0100
0010
0000
,
0001
1000
1100
0101
0000
0010
1000
0000
,
0001
0100
0010
0100
0010
1000
0100
0000
,
1000
0010
0100
0010
0100
0001
0010
0000
,
1000
0100
0010
0100
0010
0001
1000
0000
,
0001
0010
0100
0010
0100
1000
0001
0000
,
1000
0001
1000
0001
0100
0010
0200
0020
,
0000
0000
0330
0000
,
1000
0100
0101
0000
1000
0100
0101
0000
,
0001
0010
1010
0000
0001
0010
1010
0000
,
1000
0001
0110
0000
1000
0001
0110
0000
,
0010
1000
0100
0000
0001
0001
1000
1000
,
0010
1000
1100
0000
0010
1000
1100
0000
,
0100
0001
0011
0000
0100
0001
0011
0000
,
0100
0010
1001
0000
0100
0010
1001
0000
,
1000
0001
0100
0000
0010
0010
0100
0100
,
0001
0100
1000
0100
0001
0100
1000
0000
,
1000
0010
0001
0010
1000
0010
0001
0000
,
0100
0010
1000
0001
1000
0001
0100
0010
,
0000
1000
0000
1000
,
0110
0000
0010
1000
0001
0000
0100
0010
,
0001
0010
0100
1000
0000
0010
0100
0000
,
1001
0000
0010
0001
0100
0000
0010
1000
,
0100
0010
1000
0001
0000
0001
0010
0000
,
0100
0010
1010
0101
0000
0001
1000
0000
,
0010
0100
1100
0011
0000
1000
0001
0000
,
0100
0010
0001
0010
0100
1000
0100
0000
,
0010
0100
1000
0100
0010
0001
0010
0000
,
0001
0010
0100
1000
0100
0010
0001
0000
,
1000
0100
0010
0001
0010
0100
1000
0000
,
0100
0010
0100
0010
0100
0010
0100
0010
;

//---------------dance-single - x scale 9----------------
#NOTEDATA:;
#CHARTNAME:;
#STEPSTYPE:dance-single;
#DESCRIPTION:x scale 9;
#CHARTSTYLE:;
#DIFFICULTY:Medium;
#METER:9;
#RADARVALUES:0.371594,0.368351,0.140603,0.187471,0.000000,333.000000,315.000000,18.000000,24.000000,0.000000,0.000000,0.000000,0.000000,0.000000,0.371594,0.368351,0.140603,0.187471,0.000000,333.000000,315.000000,18.000000,24.000000,0.000000,0.000000,0.000000,0.000000,0.000000;
#CREDIT:;
#DISPLAYBPM:120.000000;
#NOTES:
0000
0000
0000
0000
,
0000
0000
0000
0000
,
1000
0001
1000
0000
1000
0001
1000
0000
,
1000
0001
1000
0000
1000
0001
1000
0000
,
0010
0000
0000
0010
1000
0000
0000
1000
,
0001
2000
0000
3200
0000
1300
0001
1000
,
0100
0000
0000
0100
0010
0000
0000
0010
,
0001
1000
0001
1000
0000
0100
0001
0020
,
0000
0000
1000
0000
0031
0000
1000
0002
,
0000
0100
0010
1003
,
0001
0100
0001
0000
0000
0100
1000
0000
,
0010
0100
0010
0000
0000
1000
0001
0000
,
1000
0100
1000
0000
0000
0010
0001
0000
,
0010
1000
0010
0000
0000
1000
0100
0000
,
0001
1000
0001
0000
0000
0010
0100
0000
,
0010
0001
0010
0001
0010
0000
0000
0000
,
1001
0000
1000
0001
1000
0000
0001
0010
,
0001
0100
0000
0210
0000
0310
1000
0000
,
1100
0000
1000
0100
1000
0000
0010
0100
,
0001
0100
0001
0020
0000
0130
0010
2000
,
0000
0000
0100
0000
3001
0000
1000
0002
,
0000
0010
1003
0011
,
0001
1000
0001
0000
0100
0010
0100
0000
,
0010
1000
0010
0000
0100
0001
0100
0000
,
0010
0001
0010
0000
1000
0100
1000
0000
,
0001
0010
0001
0000
1000
0010
1000
0000
,
0100
1000
0100
0000
0001
0100
0001
0000
,
1000
0001
1000
0001
1000
0000
0000
0000
,
1020
0000
2030
0000
3010
0000
0100
0001
,
0010
0001
0000
0100
0000
0001
0010
0000
,
0201
0000
0302
0000
1003
0010
0100
0000
,
0010
1000
0000
0001
0000
1000
0010
0000
,
0001
0001
1000
0001
0000
0000
0110
0000
,
0100
0100
0010
0100
0000
0000
1001
0000
,
1000
0100
0010
0000
0100
0010
0001
0000
,
1000
0001
0010
0000
0100
1000
0001
0000
,
1000
0100
0001
0000
1000
0100
0010
0000
,
0001
0010
0100
0000
0001
0010
1000
0000
,
0100
0010
0100
0000
0001
1000
0001
0000
,
1000
0100
1000
0100
1000
0000
0000
0000
,
0010
0100
1000
0000
0000
1000
0001
0000
,
0010
0001
0100
0000
0000
0010
1000
0000
,
0001
0100
0000
0101
0000
0010
1000
0100
,
1000
0010
0000
0000
0100
0010
0100
0000
,
0001
0010
0002
0000
0000
1000
1003
0000
,
0100
1000
0200
0000
0000
0010
0310
0000
,
1000
0100
0010
0001
0000
0001
0100
0010
,
0000
1000
0001
0000
0000
0100
0010
0000
,
1000
0010
2000
0000
0000
0100
3100
0000
,
0010
0100
0020
0000
0000
1000
1030
0000
,
0001
0010
0001
0000
0000
1000
0010
2000
,
0000
0000
3000
0000
,
1200
0000
0302
0000
0013
0000
1000
0001
,
0100
0010
0000
1010
0000
1000
0001
0000
,
0021
0000
0032
0000
0103
0010
1000
0000
,
0001
1000
0000
1100
0000
0010
0100
0000
,
1000
1000
0100
1000
0000
0000
1010
0000
,
0010
0010
0001
0010
0000
0000
1001
0000
,
0100
0010
0100
0000
0000
0010
1000
0000
,
0001
0010
0001
0000
0000
0010
0100
0000
,
1000
0001
2000
0000
3000
0001
0011
0000
,
0010
0100
0020
0000
0030
0100
0101
0000
,
1000
0001
0200
0000
0300
0001
1000
0110
;

//---------------dance-single - x scale 5----------------
#NOTEDATA:;
#CHARTNAME:;
#STEPSTYPE:dance-single;
#DESCRIPTION:x scale 5;
#CHARTSTYLE:;
#DIFFICULTY:Easy;
#METER:5;
#RADARVALUES:0.209789,0.248985,0.234338,0.179659,0.000000,188.000000,158.000000,30.000000,23.000000,0.000000,0.000000,0.000000,0.000000,0.000000,0.209789,0.248985,0.234338,0.179659,0.000000,188.000000,158.000000,30.000000,23.000000,0.000000,0.000000,0.000000,0.000000,0.000000;
#CREDIT:;
#DISPLAYBPM:120.000000;
#NOTES:
0000
0000
0000
0000
,
0000
0000
0000
0000
,
1000
1000
1000
1000
,
1000
1000
1000
1000
,
1001
0000
0100
0000
,
1000
0001
0100
0000
,
0110
0000
0001
0000
,
0010
1000
0001
0000
,
0100
0100
0001
0000
,
0010
0010
0001
0000
,
1000
1100
0000
0000
,
0001
0011
0000
0000
,
0100
0101
0000
0000
,
0010
1010
0000
0000
,
1000
0001
0000
0000
,
1000
1000
1000
0000
,
0110
0000
0100
0000
,
0100
0010
1000
0000
,
1001
0000
1000
0000
,
0001
0010
0100
0000
,
0010
0010
0001
0000
,
0100
0100
0001
0000
,
1000
0011
0000
0000
,
0100
1010
0000
0000
,
0010
0101
0000
0000
,
0001
1100
0000
0000
,
0010
0100
0000
0000
,
1000
1000
1000
0000
,
0002
2003
3020
0230
,
0310
0000
0010
0000
,
2000
3200
0320
0032
,
0103
0000
0100
0000
,
0010
0011
0000
0000
,
0100
0101
0000
0000
,
0001
1001
0000
0000
,
1000
1010
0000
0000
,
1000
1100
0000
0000
,
0100
0110
0000
0000
,
0001
0010
0000
0000
,
0200
0000
0020
0330
,
1000
0100
1000
0001
,
0100
0010
0001
0010
,
1000
1000
0001
0100
,
0010
0100
0010
0001
,
0010
2000
0000
3100
,
1000
0002
0000
0013
,
0001
1000
0010
0100
,
0010
1000
0100
0001
,
0010
1100
0000
0000
,
0010
0101
0000
0000
,
0010
1001
0000
0000
,
0220
0000
0330
0000
,
2000
3002
0023
0230
,
0301
0000
0001
0000
,
2000
3002
0203
0320
,
1030
0000
1000
0000
,
0100
1010
0000
0000
,
0100
0011
0000
0000
,
1000
0001
0000
0000
,
0100
0010
0000
0000
,
1010
0101
0000
0000
,
1100
0011
0000
0000
,
0110
1001
0000
0000
,
0200
0000
0000
0300
;

//---------------dance-single - x scale 1----------------
#NOTEDATA:;
#CHARTNAME:;
#STEPSTYPE:dance-single;
#DESCRIPTION:x scale 1;
#CHARTSTYLE:;
#DIFFICULTY:Beginner;
#METER:1;
#RADARVALUES:0.092619,0.123028,0.000000,0.000000,0.000000,83.000000,83.000000,0.000000,0.000000,0.000000,0.000000,0.000000,0.000000,0.000000,0.092619,0.123028,0.000000,0.000000,0.000000,83.000000,83.000000,0.000000,0.000000,0.000000,0.000000,0.000000,0.000000,0.000000;
#CREDIT:;
#DISPLAYBPM:120.000000;
#NOTES:
0000
0000
0000
0000
,
0000
0000
0000
0000
,
1000
0000
0000
0000
,
1000
0000
0000
0000
,
0001
0000
0000
0000
,
1000
0000
0000
0000
,
0010
0000
0000
0000
,
0100
0000
0000
0000
,
0010
0000
0000
0000
,
0010
0000
0000
0000
,
1000
0000
0000
0000
,
1000
0000
0000
0000
,
0001
0000
0000
0000
,
0001
0000
0000
0000
,
0100
0000
0000
0000
,
0100
0000
0000
0000
,
0001
0000
0001
0000
,
0001
0000
0000
0000
,
0100
0000
0100
0000
,
0100
0000
0000
0000
,
0010
0000
0000
0000
,
0010
0000
0000
0000
,
1000
0000
0000
0000
,
1000
0000
0000
0000
,
0001
0000
0000
0000
,
0010
0000
0000
0000
,
0100
0000
0000
0000
,
1000
0000
0000
0000
,
0010
0010
0010
0000
,
1000
0000
0000
0000
,
0001
0001
0001
0000
,
0100
0000
0000
0000
,
1000
1000
0000
0000
,
0100
0100
0000
0000
,
1000
0000
0000
0000
,
0001
0000
0000
0000
,
0100
0000
0000
0000
,
0010
0000
0000
0000
,
0100
0000
0000
0000
,
0010
0000
0000
0000
,
1000
1000
0000
0000
,
0001
0001
0000
0000
,
0100
0000
0010
0000
,
0100
0000
0010
0000
,
0100
0100
0000
0000
,
0010
0010
0000
0000
,
1000
0000
0001
0000
,
1000
0000
0000
0000
,
0010
0000
0000
0000
,
1000
0000
0000
0000
,
0001
0000
0000
0000
,
0100
0000
0000
0000
,
0100
0100
0100
0000
,
0010
0000
0000
0000
,
1000
1000
1000
0000
,
0001
0000
0000
0000
,
0010
0010
0000
0000
,
0001
0001
0000
0000
,
0010
0000
0000
0000
,
1000
0000
0000
0000
,
0100
0000
0000
0000
,
0001
0000
0000
0000
,
1000
0000
0000
0000
,
0001
0000
0000
0000
;
