#VERSION:0.83;
#TITLE:Love Again;
#SUBTITLE:;
#ARTIST:NM feat. Mr. E.;
#TITLETRANSLIT:;
#SUBTITLETRANSLIT:;
#ARTISTTRANSLIT:;
#GENRE:;
#ORIGIN:;
#CREDIT:;
#BANNER:Love Again.png;
#BACKGROUND:Love Again-bg.png;
#PREVIEWVID:;
#JACKET:Love Again-jacket.png;
#CDIMAGE:;
#DISCIMAGE:;
#LYRICSPATH:;
#CDTITLE:;
#MUSIC:Love Again.ogg;
#OFFSET:0.000000;
#SAMPLESTART:61.720001;
#SAMPLELENGTH:20.000000;
#SELECTABLE:YES;
#DISPLAYBPM:57.000000:70.000000;
#BPMS:0.000=70.039,
4.000=69.997,
127.000=68.182,
128.000=65.217,
129.000=63.830,
130.000=62.069,
131.000=57.014;
#STOPS:;
#DELAYS:;
#WARPS:;
#TIMESIGNATURES:0.000=4=4;
#TICKCOUNTS:0.000=4;
#COMBOS:0.000=1;
#SPEEDS:0.000=1.000=0.000=0;
#SCROLLS:0.000=1.000;
#FAKES:;
#LABELS:0.000=Song Start;
#BGCHANGES:;
#KEYSOUNDS:;
#ATTACKS:
;

//---------------dance-single - ----------------
#NOTEDATA:;
#CHARTNAME:;
#STEPSTYPE:dance-single;
#DESCRIPTION:;
#CHARTSTYLE:;
#DIFFICULTY:Beginner;
#METER:2;
#RADARVALUES:0.069120,0.098042,0.008488,0.000000,0.000000,57.000000,56.000000,1.000000,0.000000,0.000000,0.000000,0.000000,0.000000,0.000000,0.069120,0.098042,0.008488,0.000000,0.000000,57.000000,56.000000,1.000000,0.000000,0.000000,0.000000,0.000000,0.000000,0.000000;
#CREDIT:;
#DISPLAYBPM:57.000000:70.000000;
#NOTES:
0000
0000
0000
0000
,
0000
0000
0000
0000
,
0000
0000
0000
0000
,
0000
0000
0000
0000
,
0000
0000
0000
0000
,
1000
0000
1000
0000
,
0001
0000
0001
0000
,
0010
0000
0000
0000
,
0100
0000
0000
0000
,
1000
0000
1000
0000
,
0001
0000
0001
0000
,
0010
0000
0000
0000
,
0100
0000
0000
0000
,
0001
0000
1000
0000
,
1000
0000
0001
0000
,
1000
1000
0000
0000
,
0001
0001
0000
0000
,
0010
0010
0000
0000
,
1000
1000
1000
0000
,
0001
0001
0001
0000
,
1000
0000
0010
0000
,
0001
0000
0010
0000
,
1000
1000
1000
0000
,
0001
0001
0001
0000
,
0010
0000
0010
0000
,
1001
0000
0000
0000
,
0001
0000
0010
0000
,
0100
0000
1000
0000
,
0001
0000
0001
0000
,
0001
0000
0001
0000
,
1000
0000
1000
0000
,
1000
0000
1000
0000
,
0001
0000
1000
0000
,
0001
0000
0000
0000
,
;

//---------------dance-single - ----------------
#NOTEDATA:;
#CHARTNAME:;
#STEPSTYPE:dance-single;
#DESCRIPTION:;
#CHARTSTYLE:;
#DIFFICULTY:Easy;
#METER:4;
#RADARVALUES:0.104287,0.168072,0.016977,0.093373,0.000000,86.000000,84.000000,2.000000,11.000000,0.000000,0.000000,0.000000,0.000000,0.000000,0.104287,0.168072,0.016977,0.093373,0.000000,86.000000,84.000000,2.000000,11.000000,0.000000,0.000000,0.000000,0.000000,0.000000;
#CREDIT:;
#DISPLAYBPM:57.000000:70.000000;
#NOTES:
0000
0000
0000
0000
,
0000
0000
0000
0000
,
0000
0000
0000
0000
,
0000
0000
0000
0000
,
0000
0000
0000
0000
,
0001
0000
0001
0000
,
0010
0000
1000
0000
,
0100
0000
0010
0000
,
0001
0000
1000
0000
,
0001
1000
0001
0000
,
0010
1000
1000
0000
,
0100
0100
0010
0000
,
0001
0001
1000
0000
,
0010
0000
1000
0100
,
1000
0100
0010
0000
,
0001
0100
0001
0001
,
1000
0010
1000
0000
,
0010
0010
0010
0000
,
1000
0000
0001
0000
1000
1000
1000
0000
,
0001
0000
1000
0000
0001
0001
0001
0000
,
1000
0100
0001
0100
,
1000
0001
0100
0000
,
1000
0000
0001
0000
1000
1000
1000
0000
,
0001
0000
1000
0000
0001
0001
0001
0000
,
1000
0001
1001
0000
,
0010
0100
0110
0000
,
2000
3000
0020
0030
,
0200
0300
0002
0003
,
2000
3000
0002
0003
,
0020
0030
0200
0300
,
2000
3000
0002
0003
,
0020
0030
0001
0000
,
1000
0000
0001
0000
,
1000
0000
0000
0000
,
;

//---------------dance-single - ----------------
#NOTEDATA:;
#CHARTNAME:;
#STEPSTYPE:dance-single;
#DESCRIPTION:;
#CHARTSTYLE:;
#DIFFICULTY:Medium;
#METER:6;
#RADARVALUES:0.181896,0.241709,0.059419,0.237677,0.000000,150.000000,143.000000,7.000000,28.000000,0.000000,0.000000,0.000000,0.000000,0.000000,0.181896,0.241709,0.059419,0.237677,0.000000,150.000000,143.000000,7.000000,28.000000,0.000000,0.000000,0.000000,0.000000,0.000000;
#CREDIT:;
#DISPLAYBPM:57.000000:70.000000;
#NOTES:
0000
0000
0000
0000
,
0000
0000
0000
0000
,
0000
0000
0000
0000
,
0000
0000
0000
0000
,
0000
0000
0000
0000
,
2000
3100
0002
0013
,
0200
0000
1300
0001
1000
0000
0000
0000
,
0010
0001
0100
0000
0010
0100
0010
0000
,
2000
0000
3100
0100
0020
0000
0130
0000
,
0002
0103
2000
3010
,
0200
0000
0301
1000
0001
0000
0000
0000
,
0010
1000
0100
0000
0010
0100
0010
0000
,
0002
0000
0103
0100
0010
0000
1001
0000
,
0110
0000
0000
0000
1000
0010
0100
0000
,
0001
0010
0001
0000
1000
0100
1000
0000
,
1002
0000
0103
0000
1000
0001
0010
0000
,
0001
0100
0010
1000
,
0100
0100
1000
1000
0001
0001
0100
0000
,
0020
0000
2030
0000
3100
0010
0001
0010
,
0002
0000
0203
0000
0310
1000
1100
0000
,
0001
0100
0010
1000
0100
0010
0001
0000
,
1000
0010
1000
0001
0010
0100
0110
0000
,
0020
0000
0032
0000
0103
0010
1000
0010
,
2000
0000
3200
0000
0310
0001
0101
0000
,
0010
0100
0010
1000
0100
0010
0100
0000
,
1000
0001
0100
0010
0100
0000
1001
0000
,
0100
0000
1000
0100
0001
0100
0010
0000
,
1000
0010
0001
0010
0100
0000
0010
0000
,
0200
0000
0300
0001
0020
0000
0030
0001
,
0200
0000
0300
0010
1000
0000
0100
0000
,
0200
0000
0300
1000
0020
0000
0030
1000
,
0200
0000
0300
0010
0002
0000
0000
0000
,
0203
0000
0020
0300
,
0200
0000
0330
0000
,
;

//---------------dance-single - ----------------
#NOTEDATA:;
#CHARTNAME:;
#STEPSTYPE:dance-single;
#DESCRIPTION:;
#CHARTSTYLE:;
#DIFFICULTY:Hard;
#METER:8;
#RADARVALUES:0.258292,0.327018,0.144304,0.288608,0.106106,213.000000,196.000000,17.000000,34.000000,0.000000,0.000000,0.000000,0.000000,0.000000,0.258292,0.327018,0.144304,0.288608,0.106106,213.000000,196.000000,17.000000,34.000000,0.000000,0.000000,0.000000,0.000000,0.000000;
#CREDIT:;
#DISPLAYBPM:57.000000:70.000000;
#NOTES:
// measure 0
0000
0000
0000
0000
,  // measure 1
0000
0000
0000
0000
,  // measure 2
0000
0000
0000
0000
,  // measure 3
0000
0000
0000
0000
,  // measure 4
0000
0000
0000
0000
,  // measure 5
2000
0000
3010
0100
0001
0010
0002
0000
,  // measure 6
0203
0000
0301
0010
0001
1000
0100
0000
,  // measure 7
0010
1000
0100
0010
1000
0001
0100
0000
,  // measure 8
2000
0000
3001
0010
0020
0000
0130
0000
,  // measure 9
0002
0000
0013
0100
1000
0010
2000
0000
,  // measure 10
3200
0000
1300
0010
1000
0001
0100
0000
,  // measure 11
0010
0001
0100
0010
0001
1000
0100
0000
,  // measure 12
0001
0000
1000
0010
0110
0000
1001
0000
,  // measure 13
0110
0000
0001
0010
0001
1000
0100
0010
,  // measure 14
0100
0002
1003
0100
0001
0200
0310
0000
,  // measure 15
2100
0000
3010
0100
0210
0000
0301
0010
,  // measure 16
0001
0010
0100
0001
1000
0100
0010
0001
,  // measure 17
0100
1010
0001
0101
1000
0011
1000
1100
,  // measure 18
0002
0000
0103
0000
2000
0000
3100
0000
0001
0000
1000
0020
0000
0130
0001
0010
,  // measure 19
0002
0000
0103
0000
0020
0000
0130
0000
0001
0000
0010
0002
0000
1003
1100
0000
,  // measure 20
1000
0010
0001
0100
1000
0100
0100
0000
,  // measure 21
0001
0101
1000
1100
0010
0100
0110
0000
,  // measure 22
2000
0000
3100
0000
0002
0000
0103
0000
1000
0000
0001
0020
0000
0130
1000
0010
,  // measure 23
2000
0000
3100
0000
0020
0000
0130
0000
1000
0000
0010
2000
0000
3001
0101
0000
,  // measure 24
0010
1000
0100
0001
0010
0001
0001
0000
,  // measure 25
1000
1100
0010
0011
1000
0001
1001
0000
,  // measure 26
0100
0000
0000
0000
0001
0000
0010
0000
1000
0100
1000
0000
0010
0000
0100
0000
,  // measure 27
0001
0010
0001
0000
1000
0010
1000
0000
0001
0000
0000
0000
0100
0000
0000
0000
,  // measure 28
0002
0000
0000
1003
0000
1000
0001
0000
0200
0000
0000
0310
0000
0010
0100
0000
,  // measure 29
0002
0000
0000
0013
0000
0010
0100
0000
0010
0000
0000
0000
0100
0000
0000
0000
,  // measure 30
2000
0000
0000
0001
3000
0001
1000
0000
0200
0000
0000
0310
0000
0010
0100
0000
,  // measure 31
2000
0000
0000
3010
0000
0010
0100
0000
0002
0000
0000
0000
0000
0000
0000
0000
,  // measure 32
0023
0000
2000
0030
,  // measure 33
0200
0000
3300
0000
;

//---------------dance-double - ----------------
#NOTEDATA:;
#CHARTNAME:;
#STEPSTYPE:dance-double;
#DESCRIPTION:;
#CHARTSTYLE:;
#DIFFICULTY:Easy;
#METER:3;
#RADARVALUES:0.122476,0.156400,0.067908,0.152792,0.000000,101.000000,93.000000,8.000000,18.000000,0.000000,0.000000,0.000000,0.000000,0.000000,0.122476,0.156400,0.067908,0.152792,0.000000,101.000000,93.000000,8.000000,18.000000,0.000000,0.000000,0.000000,0.000000,0.000000;
#CREDIT:;
#DISPLAYBPM:57.000000:70.000000;
#NOTES:
00000000
00000000
00000000
00000000
,
00000000
00000000
00000000
00000000
,
00000000
00000000
00000000
00000000
,
00000000
00000000
00000000
00000000
,
00000000
00000000
00000000
00000000
,
00100000
00000000
10000000
00000000
,
00010000
00000000
00100000
00000000
,
00001000
00000100
00000100
00000000
,
00010000
00001000
00010000
00000000
,
00000010
00000000
00000001
00000000
,
00001000
00000000
00000010
00000000
,
00010000
01000000
01000000
00000000
,
00010000
00001000
00011000
00000000
,
00000020
00001000
00002030
00000100
,
00003200
00010000
00020300
00000000
,
00032000
01000000
02003000
00100000
,
03200000
10000000
20300000
00000000
,
31000000
01000000
10010000
00000000
,
01000000
00001000
00010000
00110000
,
00010000
00001000
00000100
00000110
,
00001000
00000100
00000001
00000100
,
00000010
00001000
00000100
00000000
,
00000100
00010000
00001000
00001010
,
00001000
00010000
01000000
01100000
,
00001000
00001000
00001000
00010000
,
00000010
00000010
00001000
00000100
,
00010000
00011000
00001000
00010000
,
01000000
01100000
00100000
00001000
,
00020000
00031000
00002000
00003010
,
00000002
00000103
00002000
00003010
,
00002000
00013000
00020000
00130000
,
20000000
31000000
00020000
00030000
,
00002000
00000000
00000000
00000000
,
00020000
00000000
00033000
00000000
,
;

//---------------dance-double - ----------------
#NOTEDATA:;
#CHARTNAME:;
#STEPSTYPE:dance-double;
#DESCRIPTION:;
#CHARTSTYLE:;
#DIFFICULTY:Medium;
#METER:6;
#RADARVALUES:0.194022,0.255927,0.059419,0.212212,0.008488,160.000000,153.000000,7.000000,25.000000,0.000000,0.000000,0.000000,0.000000,0.000000,0.194022,0.255927,0.059419,0.212212,0.008488,160.000000,153.000000,7.000000,25.000000,0.000000,0.000000,0.000000,0.000000,0.000000;
#CREDIT:;
#DISPLAYBPM:57.000000:70.000000;
#NOTES:
00000000
00000000
00000000
00000000
,
00000000
00000000
00000000
00000000
,
00000000
00000000
00000000
00000000
,
00000000
00000000
00000000
00000000
,
00000000
00000000
00000000
00000000
,
00000010
00000000
00001000
00000000
00000001
00000010
00000100
00000000
,
00001000
00000000
00000010
00000100
00000010
00000000
00010000
00001000
,
00010000
00000000
01000000
00000000
01000000
00100000
00001000
00010000
,
00001000
00010000
00001000
00100000
,
00100000
00000000
00020000
00000000
10000000
00100000
01030000
00000000
,
00020000
00000000
00130000
01000000
00200000
00000000
00301000
00010000
,
00002000
00000000
00003100
00000000
00000100
00000010
00010000
00001000
,
00010000
00001000
00011000
00000000
,
02000000
00000000
00010000
03010000
00200000
00000000
00001000
00301000
,
00020000
00000000
00000100
00030100
00002000
00000000
00000000
00000000
3
,
00010000
00000010
00000100
00000000
00000001
00001000
00000100
00000000
,
00010000
00100000
10000000
01000000
00100000
00010000
00100000
00000000
,
00011000
00001100
00000011
00000100
,
00000010
00001000
00000100
00010000
00001000
00000100
00000010
00000000
,
00001000
00000100
00010000
00010000
00001000
01000000
01000000
00000000
,
00020000
00000000
00130000
00000000
20000000
01000000
31000000
00000000
,
00100000
00001000
00010000
00010000
00001000
00010000
00100000
00000000
,
00100000
00010000
01000000
00011000
00010000
01000000
00100000
00000000
,
00010000
01000000
00001000
00011000
00010000
00000100
00001100
00000000
,
00000020
00000000
00000130
00000001
00002000
00000000
00003100
00000010
,
00001000
00010000
00001000
00010000
00000020
00000000
00002030
00000000
,
00003002
00000000
00000013
00000100
00000010
00000000
00000100
00010000
,
00000100
00000000
00010000
00001000
00020000
00000000
01030000
00000000
,
20000000
00000000
30010000
00100000
00020000
00000000
00130000
01000000
,
20000000
00000000
31000000
00010000
00002000
00000000
00003100
00000000
,
00000002
00000000
00001003
00000010
00002000
00000000
00003010
00000100
,
00000002
00000000
00000103
00001000
00020000
00000000
00000000
00000000
,
00032000
00000000
00000000
00000000
,
00020000
00000000
00033000
00000000
,
;

//---------------dance-double - ----------------
#NOTEDATA:;
#CHARTNAME:;
#STEPSTYPE:dance-double;
#DESCRIPTION:;
#CHARTSTYLE:;
#DIFFICULTY:Hard;
#METER:8;
#RADARVALUES:0.248591,0.284363,0.050931,0.263142,0.097617,205.000000,199.000000,6.000000,31.000000,0.000000,0.000000,0.000000,0.000000,0.000000,0.248591,0.284363,0.050931,0.263142,0.097617,205.000000,199.000000,6.000000,31.000000,0.000000,0.000000,0.000000,0.000000,0.000000;
#CREDIT:;
#DISPLAYBPM:57.000000:70.000000;
#NOTES:
00000000
00000000
00000000
00000000
,
00000000
00000000
00000000
00000000
,
00000000
00000000
00000000
00000000
,
00000000
00000000
00000000
00000000
,
00000000
00000000
00000000
00000000
,
20000000
00000000
01000000
00000000
30010000
00001000
00010000
00000010
,
00000100
00000000
00000001
00000000
00001000
00000010
00001000
00000100
,
00010000
00000000
00001000
00000000
01000000
00100000
01000000
00100000
,
00020000
00000000
00000000
00031000
00000010
00000000
00000010
00000100
,
00000002
00000000
00000100
00000000
00001003
00010000
00001000
00100000
,
02000000
00000000
10000000
00000000
03010000
00100000
00020000
01000000
,
00032000
00000000
00010000
00000000
00003100
00000010
00000100
00000010
,
00002000
00010000
00000000
00013000
00000020
00000000
00000130
00000000
,
00001000
00000200
00000010
00000000
00000001
00000001
00000310
00010000
,
00002000
00000000
00000010
00000000
00010000
00010000
01003000
00000000
,
00100000
00020000
10000000
10030000
00100000
00020000
00001000
00031000
,
00000010
00001000
00020000
00000010
00031000
00000100
00000001
00000100
,
00000110
00001000
00011000
00010000
01010000
10000000
00100000
00000000
,
01000000
00000000
00010000
00000000
00001000
00000000
00010000
00000000
00000010
00000100
00000010
00000000
00001000
00000000
00000001
00000000
,
00000010
00000000
00000100
00000000
00010000
00000000
00001000
00000000
01000000
00010000
01000000
00000000
00100000
00000000
00000000
00000000
,
20000000
01000000
30020000
10000000
00230000
00001000
00301000
00010000
,
00001000
00000110
00000001
00000110
00001000
00010000
00011000
00000000
,
00000100
00000000
00001000
00000000
00010000
00000000
00001000
00000000
00100000
01000000
00100000
00000000
00010000
00000000
10000000
00000000
,
00100000
00000000
01000000
00000000
00001000
00000000
00010000
00000000
00000100
00001000
00000100
00000000
00000010
00000000
00000000
00000000
,
00000002
00000100
00000023
00001000
00000230
00010000
00010300
00000000
,
02000000
00010000
03200000
10000000
02300000
10000000
03010000
00000000
,
00100000
00000000
00010000
00000000
01000000
00000000
00100000
00000000
00010000
00001000
00010000
00000000
00001000
00000000
00000010
00000000
,
00000100
00000000
00010000
00000000
00001000
00000000
01000000
00000000
00100000
10000000
01000000
00000000
00010000
00001000
00000100
00000000
,
00000002
00000000
00000000
00000100
00000003
00000100
00000010
00000000
00002000
00000000
00000000
00000100
00003000
00000100
00010000
00000000
,
00200000
00000000
00000000
10000000
00300000
10000000
01000000
00000000
00200000
00000000
00000000
00010000
00300000
01000000
00010000
00000000
,
20000000
00000000
00000000
01000000
30000000
01000000
00100000
00000000
00020000
00000000
00000000
01000000
00030000
01000000
00001000
00000000
,
00000020
00000000
00000000
00000001
00000030
00000001
00000100
00000000
00002000
00000000
00000000
00000000
00000000
00000000
00000000
00000000
,
00103000
00000000
00000000
00010000
00000000
00000000
01000000
00000000
00100000
00000000
00000000
00010000
00000000
00000000
00001000
00000000
,
00000200
00000000
00000300
00000000
,
;

//---------------dance-single - ----------------
#NOTEDATA:;
#CHARTNAME:;
#STEPSTYPE:dance-single;
#DESCRIPTION:;
#CHARTSTYLE:;
#DIFFICULTY:Challenge;
#METER:11;
#RADARVALUES:0.440187,0.429728,0.254654,0.373492,0.560238,363.000000,333.000000,30.000000,44.000000,0.000000,0.000000,0.000000,0.000000,0.000000,0.440187,0.429728,0.254654,0.373492,0.560238,363.000000,333.000000,30.000000,44.000000,0.000000,0.000000,0.000000,0.000000,0.000000;
#CREDIT:;
#DISPLAYBPM:57.000000:70.000000;
#NOTES:
0000
0000
0000
0000
,
0000
0000
0000
0000
,
0000
0000
0000
0000
,
1000
0100
0010
0001
0000
0100
0100
0000
0001
0010
0100
1000
0000
0010
0010
0000
,
1000
0001
0100
0010
0000
1000
1000
0000
0022
0000
0030
0000
0000
0000
0103
0000
,
1001
0000
0000
0001
0000
1000
0100
0000
2000
0000
3020
0000
0230
0000
0301
0000
,
0101
0000
0000
0100
0000
0010
1000
0000
0001
0000
0200
0000
0302
0000
1003
0000
,
2100
0000
3001
1000
0000
0010
0100
0000
0001
0000
0020
0000
0032
0000
0103
0000
,
0120
0000
0000
1030
0000
0010
0100
0000
2010
0000
0001
0000
3020
0000
1030
0000
,
0110
0000
1000
0010
0001
0010
1000
0000
1001
0000
0001
0010
1000
0010
0001
0000
,
0101
0000
0010
1000
0100
0010
0001
0000
0100
0000
0020
0000
2030
0000
3001
0000
,
1100
0000
1000
0100
0010
0100
1000
0000
0011
0000
0100
0001
0010
0100
1000
0000
,
1010
0000
0100
0010
1000
0100
0010
0000
0002
0100
0100
0000
2003
0100
3100
0000
,
1000
0001
0100
0020
0000
1030
0100
1000
0001
0100
0010
2000
0000
3001
0010
0001
,
1000
0100
0010
0001
0100
0010
1000
0000
0001
0010
0001
2000
0000
3010
0100
0010
,
1000
0010
1000
0200
0000
0301
0100
0000
1000
0001
0100
0000
0010
1000
0001
0000
,
2000
0000
0010
0000
0100
0000
0001
3002
1000
0000
0010
0000
0103
0000
0101
0000
,
1001
0000
1100
0000
1010
0000
0110
0000
1000
1000
0001
0001
0100
0100
0100
0000
,
0001
0010
1000
0010
0001
1000
0010
0000
1000
0010
0100
0200
0000
0001
0001
0001
,
0301
0100
1000
0100
0001
1000
0100
0000
0010
1000
0001
0002
0000
0013
0011
0000
,
0100
0010
1000
0010
0100
0001
1000
0000
0001
0010
0100
1000
0000
1000
0100
0010
,
0001
0100
0010
1000
0100
0010
0002
0000
1000
0000
0100
0103
0001
1000
0100
0000
,
1000
0010
0001
0010
1000
0001
0010
0000
1000
0001
0100
0200
0000
0010
0010
0010
,
0310
1000
0010
0100
0010
0001
0010
0000
1000
0100
1000
2000
0000
0001
3001
0000
,
2000
0010
3010
0000
0100
0010
1000
0002
0000
0100
0103
0000
0001
0010
0100
1000
,
1100
0000
1010
0000
1001
0000
0101
0000
0012
0100
0103
0000
0120
0000
0000
0130
,
0010
1000
0100
1000
0010
1000
0100
0000
0010
0001
0100
0001
0000
0001
1000
0010
,
2000
0000
3200
0000
0320
0000
0032
0000
0203
0000
0000
0000
0320
0000
0000
1030
,
0001
0010
0100
1000
0000
0010
0010
0000
1000
0100
0010
0001
0000
0100
0100
0000
,
0001
1000
0010
0100
0000
0001
0001
0000
1000
0001
0100
0010
0000
1000
1000
0000
,
0010
0100
0001
1000
0000
0010
0010
0000
0100
0010
1000
0001
0000
1000
1000
0000
,
0010
1000
0001
0100
0000
0001
0001
0000
2020
0000
0000
0000
3030
0000
0000
0000
,
0201
0000
0000
0320
0000
0000
1030
0000
1100
0000
0000
0011
0000
0000
0110
0000
,
2002
0000
0000
3003
;
