#TITLE:Lollipop Sprinkles;
#SUBTITLE:;
#ARTIST:pan;
#TITLETRANSLIT:;
#SUBTITLETRANSLIT:;
#ARTISTTRANSLIT:;
#GENRE:;
#CREDIT:;
#BANNER:Lollipop Sprinkles-bn.png;
#BACKGROUND:Lollipop Sprinkles-bg.png;
#LYRICSPATH:;
#CDTITLE:;
#MUSIC:Lollipop Sprinkles.ogg;
#OFFSET:0.000000;
#SAMPLESTART:64.961998;
#SAMPLELENGTH:20.000000;
#SELECTABLE:YES;
#DISPLAYBPM:133.000000;
#BPMS:0.000000=133.000000
;
#STOPS:151.666672=0.451000
;
#BGCHANGES:;
#KEYSOUNDS:;
#ATTACKS:;

//---------------dance-single - ----------------
#NOTES:
     dance-single:
     :
     Hard:
     13:
     0.631952,0.661037,0.318370,0.360261,0.532013,528.000000,490.000000,38.000000,43.000000,0.000000,0.000000,0.631952,0.661037,0.318370,0.360261,0.532013,528.000000,490.000000,38.000000,43.000000,0.000000,0.000000:
0000
0000
0000
0000
,
0000
0000
0000
0000
,
1001
0000
0010
0000
0100
0000
0101
0000
0000
0000
1100
0000
0000
0000
0001
1000
,
0001
0000
0100
0010
1000
0100
0010
0000
,
0110
0000
0001
0000
1000
0000
1010
0000
0000
0000
0011
0000
0000
0000
0100
0020
,
0200
0000
0000
0330
0000
0000
0001
0010
0100
1000
0100
0010
,
0001
0000
0000
0100
0000
0000
0010
0000
2000
0000
0000
0000
3000
0000
0000
0000
,
1000
0000
0000
0100
0000
0000
0010
0000
0001
0000
0000
0000
1001
0000
0000
0110
,
0000
0000
1000
0000
0001
0010
0000
0001
0000
0000
0100
0000
0010
1000
0000
0100
,
0000
0000
1000
0000
0010
0000
0100
0000
0001
0000
1000
0000
1100
0000
0000
0011
,
0000
0000
0010
0000
0001
1000
0000
0001
0000
0000
0100
0000
0101
0000
0000
1010
,
0000
0000
0000
0000
1000
0100
0000
0000
0110
0000
0000
0011
0000
0000
1100
0000
,
0202
0300
2000
0003
,
0020
0000
0000
0000
3000
0000
0000
0000
0200
0000
0000
0000
0330
0000
0001
0100
,
0001
0000
1000
0000
0100
0010
0100
0010
0100
0000
1000
0000
0001
0010
0001
0010
,
0001
0000
0100
0000
0010
1000
0010
1000
0010
0000
0100
0000
0001
0000
1000
0000
,
0000
0000
0010
0100
0010
0000
1000
0001
1000
0000
0001
0000
0010
0000
0100
0000
,
1000
0000
0001
0000
0010
0000
0100
1000
0100
0000
0010
0000
0001
0000
1000
0000
,
0010
0000
0100
0000
0001
0010
0001
0000
1000
0100
1000
0100
1000
0000
0001
0010
,
0001
0000
1000
0000
0010
0000
1000
0000
0100
0000
0010
0001
0010
0000
0100
0000
,
1000
0000
0001
0000
0010
0100
0010
0100
0010
0000
0001
0000
1000
0000
0100
0000
,
1100
0000
0000
0110
0000
0000
0011
0000
1001
0000
0000
0000
1000
0001
1000
0001
,
1000
0010
0001
0100
0010
0100
1000
0001
,
0010
0001
0100
0010
0001
1000
0100
1000
,
0100
0010
1000
0001
0010
1000
0100
0001
,
1000
0010
0100
0001
0100
0010
0001
1000
,
0100
0010
1000
0001
1000
0010
0001
0100
,
0010
1000
0100
0001
0010
0100
1000
0001
,
0010
1000
0100
0001
0010
0100
1000
0001
,
1000
0010
0100
0001
0010
0001
1000
0100
,
2020
0000
0000
0000
3030
0000
0001
1000
0001
0000
1000
0100
0000
0010
0001
0000
,
0202
0000
0000
0000
0303
0000
0100
0010
0100
0000
0001
1000
0000
0010
0100
0000
,
2002
0000
0000
0000
3003
0000
0010
1000
0010
0000
0100
0000
0001
0000
1000
0001
,
0000
0010
0100
0000
1000
0010
0000
0200
0000
0000
0301
0000
1000
0000
0001
0200
,
0010
0000
0000
0000
0010
0000
0000
0000
0310
0000
1000
0001
0000
1000
0200
0000
,
0010
0000
0010
0000
0310
0000
0000
0000
0100
0000
1000
0001
0000
0001
0100
0000
,
0001
0010
0100
1000
0000
0000
1000
0100
0010
0001
0000
0000
,
1000
0001
1000
0001
1000
0001
1000
0001
1000
0001
1000
0001
,
1001
0000
0100
0000
0020
0000
0000
0000
1030
0000
0001
2000
0000
0000
0100
0000
,
3100
0000
1000
0002
0000
0000
0010
0000
0013
0000
0001
0000
0100
0000
0000
0000
,
0110
0000
0010
0000
2000
0000
0000
0000
3100
0000
1000
0020
0000
0000
0001
0000
,
0031
0000
0010
2000
0000
0000
0100
0000
3100
0000
0010
0000
0001
0000
0000
0000
,
0011
0000
0001
0000
2100
0000
0000
0000
3001
0000
0100
0020
0000
0000
1000
0000
,
1030
0000
0001
0200
0000
0000
0010
0000
0310
0000
1000
0000
0001
0000
1000
0100
,
0000
0000
0010
0000
0001
1000
0000
1000
0010
0000
0100
0000
0001
0000
0010
0100
,
0000
0010
0100
0000
0000
0000
1000
0001
1000
0000
0010
0000
0200
0310
0000
0000
,
1010
0000
0010
0000
0201
0000
0000
0000
0301
0000
1000
0002
0000
0000
0010
0000
,
0013
0000
0100
2000
0000
0000
0100
0000
3100
0000
1000
0000
0001
0000
0000
0000
,
0011
0000
0100
0000
1020
0000
0000
0000
1030
0000
0010
0200
0000
0000
0001
0000
,
0301
0000
0100
0002
0000
0000
1003
0000
0010
1000
0010
1000
0010
0000
0000
0000
,
1001
0000
1000
0000
0120
0000
0000
0000
0130
0000
0001
2000
0000
0000
0010
0000
,
3010
0000
1000
0200
0000
0000
1300
0000
0001
0000
0010
0000
0100
0000
1000
0010
,
0000
0000
1000
0000
0001
0010
0000
0001
0100
0000
0001
1000
0001
0000
0100
0000
,
0010
0000
1000
0000
1010
0000
0000
1001
0000
0000
0101
0000
1000
0000
0100
0000
,
0010
0000
0001
0000
0100
0010
0000
1000
0000
0010
0100
0000
0001
0000
0010
0000
,
0100
0000
0000
0000
0000
0000
1000
0000
0000
0000
0000
0000
0010
0000
0000
0000
0100
0000
0000
0000
0010
0000
0000
0000
1000
0000
0000
0000
0001
0000
0000
0000
1000
0000
0000
0000
0000
0000
0000
0010
0000
0000
0100
0000
0000
0000
0000
0000
,
0102
0000
0000
0000
1003
0001
0000
0010
0000
0001
1000
0000
1100
0000
0001
1000
,
0001
1000
0000
0100
0010
0000
0010
0000
0001
0100
0000
0100
0010
0000
1000
0000
,
0100
0000
0010
0000
0001
0000
1000
0010
0000
1000
0001
0000
0010
0000
0100
0000
,
1000
0000
0010
0000
0100
0000
0001
1000
0000
0001
0100
0000
0010
0000
1000
0100
,
0000
0000
0000
0100
0000
0000
1000
0000
0000
0000
0000
0000
0001
0000
0000
0000
0000
0000
0100
0000
0000
0010
0000
0000
0000
0000
0000
0010
0000
0000
0100
0000
0000
0000
0000
0000
0001
0000
0000
0000
0010
0000
0000
0000
0100
0000
0000
0000
,
1000
0100
0010
0001
0010
0100
1000
0100
0010
0002
0000
0000
,
0000
2003
0000
3200
,
0000
0000
0000
0000
0000
0000
0000
0000
0310
0001
0010
0001
0020
0000
0000
0000
,
0000
0230
0000
2300
,
0000
0000
0000
3000
;

//---------------dance-single - ----------------
#NOTES:
     dance-single:
     :
     Medium:
     11:
     0.465586,0.495777,0.301614,0.536202,0.134051,389.000000,353.000000,36.000000,64.000000,0.000000,0.000000,0.465586,0.495777,0.301614,0.536202,0.134051,389.000000,353.000000,36.000000,64.000000,0.000000,0.000000:
0000
0000
0000
0000
,
0000
0000
0000
0000
,
1001
0000
0010
0000
0100
0000
0101
0000
0000
0000
1100
0000
0000
0000
0001
1000
,
0002
0100
1000
0013
,
0110
0000
0001
0000
1000
0000
1010
0000
0000
0000
0011
0000
0000
0000
0100
0010
,
0200
0000
0000
0000
0301
0010
2000
0000
,
3100
0000
0000
1000
0000
0000
0001
0000
0020
0000
0000
0000
0030
0000
0000
0000
,
0001
0000
0000
0100
0000
0000
0010
0000
1000
0000
0000
0000
1001
0000
0000
1001
,
0000
0000
0000
0000
1100
0000
0000
1100
0000
0000
0000
0000
0011
0000
0000
0011
,
0000
0000
0000
0000
0001
0000
0100
0000
1000
0000
0000
0000
0110
0000
0000
0110
,
0000
0000
0000
0000
1010
0000
0000
1010
0000
0000
0000
0000
0101
0000
0000
0101
,
0000
0000
0000
0000
1001
0000
0000
0000
0002
0000
0000
2003
0000
0000
3001
0000
,
2002
3000
0020
0003
,
0002
0000
0000
0000
0030
0000
0000
0000
2000
0000
0000
0000
3003
0000
0010
0100
,
0010
1000
0100
0010
0001
0100
0001
0010
,
0100
0010
0001
0100
0010
1000
0001
1000
,
0000
0001
0010
0100
1000
0010
0100
0001
,
1000
0001
0010
0100
0010
0001
1000
0100
,
0001
0000
0010
0001
0100
0010
1000
0001
,
1000
0010
0100
0010
1000
0100
0010
0001
,
0100
0010
1000
0001
1000
0100
0010
0001
,
2000
0000
0000
3002
0000
0000
0103
0000
0110
0000
0000
0000
0102
0000
0000
0000
,
1003
0001
0010
0000
0001
1000
0100
0000
,
0010
0010
0100
0000
1000
0100
0001
0000
,
0010
0001
1000
0000
0001
1000
0100
0000
,
1000
0010
0010
0000
0001
0100
0100
0000
,
0010
0001
0100
0000
0001
1000
1000
0000
,
0010
0010
0001
0000
1000
0100
0100
0000
,
0010
0001
1000
0000
0100
1000
0001
0000
,
1000
0010
0010
0100
0001
0000
0100
0000
,
2020
0000
0000
0000
0030
0000
0000
0000
0001
0000
0000
0010
0000
0000
0002
0000
,
0000
0000
0000
0000
3000
0000
0000
0000
1000
0000
0000
0100
0000
0000
2000
0000
,
0000
0000
0000
0000
0003
0000
0000
0000
3100
0000
0010
0000
0001
0000
0000
2000
,
0000
0000
3100
0000
0010
0000
0000
0002
0000
0000
0103
0000
0010
0000
1000
0000
,
1002
0000
0000
0000
0010
0000
0000
0000
1003
0000
0000
0100
0000
0000
0002
0000
,
0010
0000
0000
0000
0100
0000
0000
0000
0013
0000
0000
0001
0000
0000
1000
0000
,
0001
0100
1000
0000
1000
0100
0001
0000
,
0011
1100
0101
1010
,
2001
0000
3200
0000
0310
0001
2000
0000
,
3100
0010
0002
0000
0103
0001
1000
0000
,
0120
0000
2030
0000
3001
0010
0200
0000
,
1300
0010
0002
0000
0103
0001
0010
0000
,
0021
0000
0230
0000
1300
0001
2000
0000
,
3010
0000
0100
0000
0001
0000
1000
0000
0100
0000
0010
0000
0001
0000
0000
0100
,
0000
0000
0010
0000
1000
0000
0000
0001
1000
0000
0010
0000
0100
0000
0000
0001
,
0000
0000
1000
0000
0000
0000
0100
0000
0010
0000
0001
0000
2000
3000
0000
0000
,
1200
0000
0302
0000
0103
1000
0020
0000
,
0130
0001
2000
0000
3001
0010
0100
0000
,
0021
0000
2030
0000
3010
0001
0200
0000
,
0301
0100
2000
0000
3010
0100
0010
0000
,
0201
0000
2300
0000
3100
0001
0020
0000
,
0031
0000
1000
0000
0001
0000
0100
0000
0010
0000
1000
0000
0010
0000
0000
0100
,
0000
0000
0001
0000
1000
0000
0000
0010
1000
0000
0100
0000
2000
0000
3002
0000
,
2003
0000
3002
0000
0023
0000
0000
0100
0000
0000
0031
0000
1000
0000
0010
0000
,
0001
0000
0000
0000
0010
0000
0000
0100
0000
0000
1000
0000
0001
0000
0100
0000
,
0010
0000
0000
0000
1000
0000
0100
0000
0010
0000
0000
0001
0000
0000
0100
0000
,
0110
0000
0000
0000
0001
0000
0000
1000
0000
0000
0010
0000
1000
0000
0100
0000
,
0010
0001
0100
0010
1000
0001
0010
0001
,
0100
0000
0000
0000
0002
0000
0000
2003
0000
0000
3100
0000
1000
0000
0010
0000
,
0100
0000
0000
0000
0002
0000
0000
2003
0000
0000
3010
0000
2000
0000
0000
3200
,
0000
0000
0310
0000
0002
0000
0000
0203
0000
0000
0310
0000
1000
0000
0001
0000
,
0010
0001
1000
0100
0010
0001
0102
0000
,
0000
0023
0000
0230
,
0000
0000
0000
0000
1300
0001
2000
0000
,
0000
3020
0000
0230
,
0000
0000
0000
0300
;

//---------------dance-single - ----------------
#NOTES:
     dance-single:
     :
     Easy:
     8:
     0.327945,0.413148,0.368639,0.301614,0.000000,274.000000,230.000000,44.000000,36.000000,0.000000,0.000000,0.327945,0.413148,0.368639,0.301614,0.000000,274.000000,230.000000,44.000000,36.000000,0.000000,0.000000:
0000
0000
0000
0000
,
0000
0000
0000
0000
,
1001
0000
0000
0002
0000
2003
0000
3002
,
2000
0000
0000
3003
,
0110
0000
0000
0020
0000
0230
0000
0320
,
0200
0030
1000
0301
,
0010
0001
2000
3000
,
0100
0010
0002
0103
,
1001
0010
0101
0100
,
2010
0001
0100
3010
,
0110
1000
1100
0001
,
0011
0100
0110
1001
,
0110
0000
2000
3000
,
0002
0003
0020
0130
,
1100
0010
1000
0100
,
0010
0001
1000
0001
,
1000
0010
0100
0001
,
0011
1100
0101
1010
,
1001
0010
1000
0100
,
0001
0010
0001
0100
,
1000
0010
1000
0100
,
1100
0110
0011
0100
,
0001
0010
0001
0100
,
1000
0010
0001
0100
,
0010
1000
0100
1000
,
0010
0001
1000
0010
,
0100
0010
1000
0100
,
0010
0001
1000
0010
,
1000
0001
1000
0100
,
0010
0100
1000
0001
,
0022
0033
2200
3300
,
2020
3030
0202
0303
,
0220
0330
2002
3003
,
1000
0001
0100
0010
,
2000
3001
1000
0010
,
0200
0301
0100
0010
,
1000
1000
0001
0001
,
1000
0100
0010
0001
,
1001
0110
0001
1000
,
0010
0100
0001
0000
,
0011
1100
0010
1000
,
0001
1000
0100
0000
,
1010
0101
0001
0010
,
0001
1000
0010
0100
,
0010
0100
1000
0001
,
0100
0000
0000
0000
0002
0000
0000
0000
1003
0000
0000
0000
0020
0030
0000
0000
,
0101
1100
0001
0010
,
0001
0100
1000
0100
,
0011
1010
1000
0100
,
0010
0001
0100
1000
,
0110
1001
0010
1000
,
0001
0010
0100
1000
,
0001
1000
0010
0100
,
0001
0010
0100
1000
,
0001
0010
0010
0001
,
1000
0000
0100
0000
0100
0000
0000
1000
,
0001
0100
0010
1000
,
0001
1000
0100
0010
,
0100
1000
1000
0010
,
0100
0001
0001
1000
,
0001
0010
0100
1100
,
0101
0011
1010
1002
,
0000
0023
0000
0230
,
0000
0000
1300
2001
,
0000
3020
0000
0230
,
0000
0000
0000
0300
;

//---------------dance-single - ----------------
#NOTES:
     dance-single:
     :
     Beginner:
     4:
     0.152004,0.247889,0.117294,0.067025,0.000000,127.000000,113.000000,14.000000,8.000000,0.000000,0.000000,0.152004,0.247889,0.117294,0.067025,0.000000,127.000000,113.000000,14.000000,8.000000,0.000000,0.000000:
0000
0000
0000
0000
,
0000
0000
0000
0000
,
1001
0000
1000
0000
,
0001
0000
0000
0000
,
0110
0000
0100
0000
,
0010
0000
0000
0000
,
2000
0000
3000
0000
,
0002
0000
0003
0000
,
1001
0000
0100
0000
,
0010
0000
0000
0000
,
0110
0000
1000
0000
,
0001
0000
0010
0010
,
0010
0000
0000
0000
,
0000
0000
0000
0000
,
0001
0000
0100
0000
,
1000
0000
0100
0000
,
0001
0000
0001
0000
,
1000
0000
1000
0000
,
0010
0000
0100
0000
,
0010
0000
0001
0000
,
1000
0000
0010
0000
,
0110
0000
1001
0000
,
1000
0000
1000
0000
,
0010
0000
0010
0000
,
0100
0000
0100
0000
,
0001
0000
0001
0000
,
1000
0000
1000
0000
,
0100
0000
0100
0000
,
0010
0000
0010
0000
,
0001
0000
0001
0000
,
1001
0000
0000
0000
,
0010
0000
0000
0000
,
1000
0000
0000
0000
,
0001
0000
0001
0000
,
0100
0000
0010
0000
,
1000
0000
0001
0000
,
0110
0000
0110
0000
,
0200
0000
0000
0300
,
1001
0000
0000
0001
,
0000
1000
0000
0000
,
0010
0010
0000
1000
,
0000
0100
0000
0000
,
0001
0001
0000
0100
,
0000
0010
0000
1000
,
0000
1000
0000
0001
,
0000
0000
0000
0000
0001
0000
0000
0000
0000
0000
0000
0000
0200
0300
0000
0000
,
0000
0110
0000
1000
,
0000
0010
0000
0000
,
1000
1000
0000
0100
,
0000
0001
0000
0000
,
0100
0100
0000
0010
,
0000
1000
0000
0010
,
0000
0010
0000
0100
,
0000
0100
0000
0001
,
0000
1000
0000
0001
,
0000
1000
0000
0000
,
0000
0110
0000
0010
,
0000
0100
0000
0010
,
0000
1000
0000
0100
,
0000
0001
0000
1001
,
0000
0110
0000
1000
,
1000
1000
1000
2000
,
0000
3000
0000
0020
,
0000
0030
0000
0200
,
0000
0300
0000
0002
,
0000
0000
0000
0003
;

//---------------dance-single - ----------------
#NOTES:
     dance-single:
     :
     Challenge:
     18:
     0.997001,0.991555,0.603227,0.184319,1.374018,833.000000,761.000000,72.000000,22.000000,0.000000,0.000000,0.997001,0.991555,0.603227,0.184319,1.374018,833.000000,761.000000,72.000000,22.000000,0.000000,0.000000:
// measure 0
0000
0000
0000
0000
,  // measure 1
0000
0000
0000
0000
,  // measure 2
1001
0000
1100
0000
0110
0000
0011
0000
0000
0000
1010
0000
0000
0000
1000
0100
,  // measure 3
0001
0000
0000
0000
0010
0001
0010
0100
1000
0001
1000
0010
0000
0000
0000
0000
,  // measure 4
0110
0000
0101
0000
0011
0000
1001
0000
0000
0000
1100
0000
0000
0000
0010
1000
,  // measure 5
0100
0000
0000
0000
0000
0000
0000
0000
0000
0000
0000
0000
0010
0000
0000
0001
0000
0000
1000
0000
0000
0000
0000
0000
0010
0000
0000
0000
0010
0000
0000
0000
0010
0000
0000
0000
0100
0000
0000
0000
0100
0000
0000
0000
0100
0000
0000
0000
,  // measure 6
0002
0000
0000
0010
0000
0000
0100
0000
2000
0000
0000
0000
3003
0000
0000
0000
,  // measure 7
2000
0000
0000
0100
0000
0000
0010
0000
3001
0000
0000
0000
1100
0000
0000
0011
,  // measure 8
0000
0000
0000
0000
0000
0000
0100
0000
0000
0000
0000
0000
0010
0000
0000
1000
0000
0000
0000
0000
0000
0110
0000
0000
0000
0000
0000
0000
0000
0000
0001
0000
1000
0000
0001
0000
1000
0000
0000
0100
0000
0000
0000
0000
0000
0011
0000
0000
,  // measure 9
0000
0000
0000
0000
0000
0000
0001
0000
0100
0000
0001
0000
0100
0000
0000
0010
0000
0000
1000
0000
0000
0100
0000
0000
0010
0000
0001
0000
0100
0000
0010
0000
1000
0000
0100
0000
2000
0000
0000
0000
0000
0000
0000
0000
0000
3001
0000
0000
,  // measure 10
0000
0000
0000
0000
0000
0000
0100
0000
0010
0000
0100
0000
0010
0000
0000
1000
0000
0000
0000
0000
0000
0101
0000
0000
0000
0000
0000
0001
0000
0000
1000
0000
0000
0000
0000
0000
0110
0000
0000
0000
0000
0000
0000
0000
0000
1001
0000
0000
,  // measure 11
0000
0000
0000
0000
0000
0000
1000
0000
0000
0100
0000
0000
0010
0000
0001
0000
1000
0000
0010
0000
1000
0000
0001
0000
0100
0000
0000
0000
0000
0000
0000
0000
0000
0101
0000
0000
0000
0000
0000
0000
0000
0000
1100
0000
0000
0000
0000
0000
,  // measure 12
1001
0100
0010
0001
1010
0100
0010
1000
,  // measure 13
0011
0000
0000
0001
0000
0000
1000
0000
0000
0100
0000
0000
1100
0000
0000
0000
0000
0000
0101
0000
0000
1000
0100
0010
,  // measure 14
0001
0000
0000
0000
0000
0000
1000
0000
0000
0000
0000
0000
0010
0000
0100
0000
0010
0000
0100
0000
0010
0000
0100
0000
0010
0000
0000
0000
0000
0000
1000
0000
0000
0001
0000
0000
1000
0000
0100
0000
1000
0000
0100
0000
1000
0000
0100
0000
,  // measure 15
1000
0000
0000
0000
0000
0000
0010
0000
0000
0100
0000
0000
0001
0000
0000
0010
0000
0000
0100
0000
0000
1000
0000
0000
0001
0000
0000
0000
0000
0000
0010
0000
0001
0000
1000
0000
0010
0000
0000
1000
0000
0000
0100
0000
0000
0010
0000
0000
,  // measure 16
0001
0000
0010
0100
1000
0001
0100
0010
1000
0000
0100
0010
0001
1000
0001
0000
,  // measure 17
0011
0000
0110
0000
1100
0000
0010
0100
0001
0000
1000
0001
0010
0100
1000
0000
,  // measure 18
0101
0000
0000
0000
0000
0000
0001
0000
1000
0000
0001
0000
1000
0000
0000
0100
0000
0000
0010
0000
0000
0001
0000
0000
0100
0000
0000
1000
0000
0000
0100
0000
0000
0001
0000
0000
0100
0000
0000
0000
0000
0000
0010
0000
0000
1000
0000
0000
,  // measure 19
0100
0000
0110
0000
1001
0000
0001
0000
1010
0000
0001
0100
1000
0000
1100
0000
,  // measure 20
0011
0000
1010
0000
0010
1000
0100
0010
0001
0000
1000
0010
0100
0000
0001
0000
,  // measure 21
0101
0000
0000
0000
0000
0000
1000
0000
0000
0100
0000
0000
0000
0000
0000
0010
0000
0000
0001
0000
0000
0000
0000
0000
1001
0000
0000
0000
0000
0000
0010
0000
0000
0100
0000
0000
0001
0000
0010
0000
0100
0000
1000
0000
0100
0000
0010
0000
,  // measure 22
0001
0000
0000
0000
0000
0000
0100
0000
0000
0010
0000
0000
1000
0000
0000
0001
0000
0000
0010
0000
0100
0000
1000
0000
0001
0000
0000
0000
0000
0000
1000
0000
0000
0010
0000
0000
1000
0000
0000
0001
0000
0000
0100
0000
0010
0000
0100
0000
,  // measure 23
0001
0000
0000
0000
0010
0000
0100
0000
1000
0001
1000
0001
1000
0000
0010
0000
0100
0000
0001
0000
1000
0000
0100
0000
0010
0000
1000
0000
0010
0000
0001
0000
,  // measure 24
0100
0010
0100
1000
0100
0001
0010
1000
0010
0100
0010
0001
0010
0000
0001
1000
,  // measure 25
0010
0100
0010
0100
0010
0000
0000
0000
1000
0000
0001
0000
1000
0000
0000
0000
0001
0000
0010
0000
0100
0000
1000
0000
0001
0000
0100
0000
0010
0000
1000
0000
,  // measure 26
0100
0000
0010
0000
0001
1000
0100
0010
1000
0010
0001
0100
0001
0000
1000
0010
,  // measure 27
0100
0000
0101
0000
1100
0000
1000
0000
0010
0001
0010
1000
0100
0000
0001
0000
,  // measure 28
0011
0000
1001
0000
0100
0010
0100
0001
0010
1000
0010
0100
1000
0000
0001
0000
,  // measure 29
1000
0000
0010
0000
0001
0000
0100
0000
1000
0000
0010
0000
0001
0000
0100
0000
1000
0001
1000
0001
1000
0001
1000
0001
0100
0000
0010
0000
0100
0000
0010
0000
,  // measure 30
2000
0000
0000
0000
3001
0000
1000
0100
0020
0000
0001
0032
0000
1000
2003
0000
,  // measure 31
0010
0000
0000
0000
0000
0000
0000
0000
0000
0000
0000
0000
3100
0000
0000
0000
0000
0000
1000
0000
0000
0001
0000
0000
0200
0000
0000
0000
0000
0000
0010
0000
0000
0320
0000
0000
0000
0000
0000
1030
0001
1000
0001
0000
0000
0000
0000
0000
,  // measure 32
0010
0000
0000
0100
0000
0000
0010
0000
0000
0100
0000
0000
1000
0000
0000
0001
0000
0000
1000
0000
0000
0001
0000
0000
0100
0000
0000
0000
0000
0000
0010
0000
1000
0000
0001
0000
1000
0000
0000
0010
0000
0000
0100
0000
0000
0002
0000
0000
,  // measure 33
0000
1000
2003
0000
0010
3010
0100
0002
0000
0100
0103
0001
1000
0010
0100
0002
,  // measure 34
0010
0000
0010
0000
0100
0000
0103
0001
1000
0100
0010
0001
0010
0100
2000
0000
,  // measure 35
0001
0000
0000
0000
0000
0000
0001
0000
0000
0000
0000
0000
3001
0000
0000
0000
0000
0000
0100
0000
0010
0000
0100
0000
0001
0000
0000
0010
0000
0000
0100
0000
0000
1000
0000
0000
0100
0000
0000
0010
0000
0000
0002
0000
0000
0000
0000
0000
,  // measure 36
1000
1000
1000
1003
0000
0000
0001
0001
0001
0001
0000
0000
,  // measure 37
0100
0100
0100
0100
0100
0100
0100
0100
0100
0100
0100
0100
,  // measure 38
1001
0000
0010
0000
1100
0000
0001
0000
1000
0100
0010
0001
0100
0010
1000
0000
,  // measure 39
0001
0000
0000
0010
0000
0000
0100
0000
0000
1000
0000
0000
0010
0000
0000
0100
0000
0000
0001
0000
0000
0000
0000
0000
1000
0000
0100
0000
1000
0000
0001
0000
0100
0000
0001
0000
0010
0000
0000
0000
0000
0000
0000
0000
0000
0000
0000
0000
,  // measure 40
0101
0000
0010
0000
0110
0000
1000
0000
0010
1000
0100
0010
0001
0100
1000
0000
,  // measure 41
0001
0000
0000
0010
0000
0000
0100
0000
0000
1000
0000
0000
0001
0000
0000
0100
0000
0000
0010
0000
0000
0000
0000
0000
1000
0000
0000
0000
0000
0000
0100
0000
0000
0010
0000
0000
0001
0000
0100
0000
0010
0000
1000
0000
0000
0000
0000
0000
,  // measure 42
1010
0000
0100
0000
0011
0000
0001
0000
0010
0001
0100
0010
1000
0100
1000
0000
,  // measure 43
0001
0000
0000
0010
0000
0000
0100
0000
0000
1000
0000
0000
0001
0000
0000
0000
0000
0000
1000
0000
0010
0000
1000
0000
0010
0000
0000
0000
0000
0000
0100
0000
0000
0000
0000
0000
0110
0000
0000
0000
0000
0000
0001
0000
0000
0110
0000
0000
,  // measure 44
0000
1000
0100
0000
0010
0010
0000
0001
0100
1000
0100
0001
0010
0000
0100
1000
,  // measure 45
0000
0000
0000
1000
0000
0000
0001
0000
0000
0100
0000
0000
0010
0000
0000
0000
0000
0000
1000
0000
0001
0000
1000
0000
0002
0000
0000
0000
0000
0000
0203
0000
0000
0000
0000
0000
0310
0100
0010
0100
0000
0000
0000
0000
0000
0000
0000
0000
,  // measure 46
1010
0000
0100
0000
1100
0000
0010
0000
0001
1000
0010
0100
1000
0100
0001
0000
,  // measure 47
0010
1000
0010
0100
0010
0001
0010
0000
0001
0100
0010
1000
0001
1000
0100
0000
,  // measure 48
0011
0000
0100
0000
1001
0000
0010
0000
1000
0001
0010
1000
0010
0001
0100
0000
,  // measure 49
0010
0000
0000
0100
0000
0000
1000
0000
0000
0100
0000
0000
0001
0000
0000
0010
0000
0000
0001
0000
0000
0000
0000
0000
1000
0000
0100
0000
1000
0000
0001
0000
0100
0000
0001
0000
1000
0000
0000
0000
0000
0000
0010
0000
0000
0000
0000
0000
,  // measure 50
1100
0000
0001
0000
0101
0000
0010
0000
1000
0001
0100
0010
1000
0100
0010
0000
,  // measure 51
0001
0000
0000
1000
0000
0000
0010
0000
0000
0100
0000
0000
0001
0000
0000
0000
0000
0000
1000
0000
0010
0000
0100
0000
0001
0000
0000
0000
0000
0000
1000
0000
0000
0000
0000
0000
1001
0000
0000
0000
0000
0000
0010
0000
0000
1001
0000
0000
,  // measure 52
0000
1000
0100
0000
0001
0001
0000
1000
0010
0100
0001
1000
1100
0000
0011
0000
,  // measure 53
1100
0000
0011
0000
0102
0000
1000
2003
0000
0001
3001
0000
1100
0000
0110
0000
,  // measure 54
0011
0000
0000
0000
0000
0000
0000
0000
0000
0000
0000
0000
0000
0000
0000
0000
0000
0000
0000
0000
0000
0000
0000
0000
0100
0000
0000
0000
0000
0000
0000
0000
0010
0000
0000
0000
0000
0000
0000
0000
1000
0000
0000
0000
0000
0000
0000
0000
0001
0000
0000
0000
0000
0000
0000
0000
0000
0000
0000
0000
0010
0000
0000
0000
0000
0000
0000
0000
0000
0000
0000
0000
0000
0000
0000
0000
0000
0000
0000
0000
0000
0000
0000
0000
0001
0000
0000
0000
0000
0000
0000
0000
0000
0000
0000
0000
0000
0000
0000
0000
0000
0000
0000
0000
0000
0000
0000
0000
1000
0000
0000
0000
0000
0000
0000
0000
0000
0000
0000
0000
0100
0000
0000
0000
0000
0000
0000
0000
0000
0000
0000
0000
0010
0000
0000
0000
0000
0000
0000
0000
0000
0000
0000
0000
0001
0000
0000
0000
0000
0000
0000
0000
0000
0000
0000
0000
0100
0000
0000
0000
0000
0000
0000
0000
0000
0000
0000
0000
1000
0000
0000
0000
0000
0000
0000
0000
0000
0000
0000
0000
0000
0000
0000
0000
0000
0000
0010
0000
0000
0000
0000
0000
,  // measure 55
0100
0000
0000
0000
0000
0000
0001
0000
0100
0000
0010
0000
1000
0000
0000
0000
1000
0000
0000
0000
1000
0000
0000
0000
0010
0000
0000
0010
0000
0000
0000
0000
0000
0110
0000
0000
0000
0000
0000
1000
0000
0000
0001
0000
0000
0000
0000
0000
,  // measure 56
1010
0000
0000
0000
0000
0000
0001
0000
0100
0000
0010
0000
1000
0000
0000
0001
0000
0000
0000
0000
0000
0010
0000
0000
0000
0000
0000
0001
0000
0000
0100
0000
0000
0010
0000
0000
1000
0000
0000
0001
0000
0000
0010
0000
0100
0000
0010
0000
,  // measure 57
0001
0000
0000
1000
0000
0000
0000
0000
0000
0010
0000
0000
0110
0000
0000
0000
0000
0000
1001
0000
0000
0000
0000
0000
1000
0000
0000
0010
0000
0000
0000
0000
0100
0000
0000
0000
0001
0000
0000
1000
0000
0000
0100
0000
0000
0000
0000
0000
,  // measure 58
1000
0001
0100
0000
0001
0010
0100
1000
0000
0010
0100
0010
1000
0100
0001
0000
,  // measure 59
1000
0010
0001
0000
0100
0010
1000
0001
0000
1000
0100
0010
0100
0000
1000
1100
,  // measure 60
0000
0000
0000
0001
0000
0000
0101
0000
0000
0000
0000
0000
0100
0000
0000
0010
0000
0000
1000
0000
0000
1010
0000
0000
0000
0000
0000
0001
0000
0000
0010
0000
0000
0100
0000
0000
1000
0000
0000
0000
1000
0000
0000
0000
1000
0000
0000
0000
,  // measure 61
0001
0000
0001
0000
0001
0000
0100
0000
0100
0000
0100
0000
0010
0000
0010
0000
0010
0000
1001
0000
0000
1000
0000
0000
,  // measure 62
0100
0010
0100
0000
1000
0001
1000
0000
0001
0010
0001
0000
0100
0000
0010
0000
,  // measure 63
1000
0000
0000
0100
0000
0000
1000
0000
0000
0000
0000
0000
0001
0000
0000
0000
0000
0000
0010
0000
0000
0000
0000
0000
0001
0000
1000
0000
0001
0000
1000
0000
0001
0000
1000
0000
0001
0000
0000
0000
0000
0000
0100
0000
0000
0000
0000
0000
,  // measure 64
0010
1000
0010
0000
1000
0000
0001
0000
0100
0010
0100
0000
0002
0000
0000
0000
,  // measure 65
1000
1000
1000
1000
1000
1000
1000
1000
2000
3003
0000
0000
;
