#TITLE:Libra;
#SUBTITLE:;
#ARTIST:Thomas Howard Lichtenstein;
#TITLETRANSLIT:;
#SUBTITLETRANSLIT:;
#ARTISTTRANSLIT:;
#GENRE:;
#CREDIT:;
#BANNER:Libra-bn.png;
#BACKGROUND:Libra-bg.png;
#LYRICSPATH:;
#CDTITLE:;
#MUSIC:Libra.ogg;
#OFFSET:0.000000;
#SAMPLESTART:42.000000;
#SAMPLELENGTH:20.000000;
#SELECTABLE:YES;
#DISPLAYBPM:180.000000;
#BPMS:0.000000=180.000000
;
#STOPS:
;
#BGCHANGES:;
#KEYSOUNDS:;
#ATTACKS:;

//---------------dance-single - ----------------
#NOTES:
     dance-single:
     :
     Hard:
     12:
     0.677620,0.664358,0.654983,0.443698,0.000000,449.000000,387.000000,62.000000,42.000000,0.000000,0.000000,0.677620,0.664358,0.654983,0.443698,0.000000,449.000000,387.000000,62.000000,42.000000,0.000000,0.000000:
0000
0000
0000
0000
,
0000
0000
0000
0000
,
0000
0000
0000
0000
,
0000
0000
0000
0000
,
0020
0000
1030
0000
0001
0010
0100
2100
,
0000
0000
3001
0000
0100
0010
1000
0002
,
0000
0000
1003
0000
0010
0100
0001
0201
,
0000
0301
1000
0000
0001
0100
0010
0000
,
1001
0000
0100
0010
1000
0001
0010
0200
,
0000
2300
0000
3002
0000
0103
0010
0000
,
1000
0000
0001
0010
0100
0010
0001
2000
,
0000
3020
0000
0230
0000
0301
1000
0000
,
0001
0000
0100
0001
0010
0100
1000
1020
,
0000
0130
0010
0000
1000
0001
0100
0000
,
0001
0000
0010
0001
1000
0100
0010
0012
,
0000
1003
0000
0210
0000
0310
0100
0000
,
0101
0000
1010
0000
0001
0010
0100
2000
,
0000
3020
0000
0230
0000
0301
1000
0000
,
0010
0000
0100
0010
0100
0001
1000
0200
,
0000
0320
0000
0032
0000
1003
0001
0000
,
0010
0000
0001
1000
0001
0100
0010
0110
,
0000
0000
1000
0001
1000
0100
0010
0011
,
0000
0000
0010
0001
0100
0010
1000
1100
,
0000
1001
0000
0011
0000
1010
0000
0001
,
0201
0000
0310
0000
2100
0001
3001
0000
,
1000
0010
0100
0002
0000
1000
1003
0000
,
2001
0000
0010
0000
3001
1000
0100
0000
,
1000
0001
0100
0210
0000
0010
0310
0000
,
1000
0010
0100
0001
0000
1010
0000
1001
,
0000
0001
1000
0010
0000
0100
0101
0000
,
0010
0100
0001
1000
0000
1100
0000
0110
,
0000
0000
0000
0000
0010
0001
0011
0000
,
1001
0000
0010
0100
0001
1000
0100
0000
,
1000
0010
0100
0001
0010
0100
1000
0000
,
0001
0100
0001
0100
0010
1000
0010
1000
,
0100
0010
0001
0100
0010
1000
0001
0000
,
0110
0000
0010
1000
0100
0010
0001
0000
,
0100
0001
0010
0100
0000
1100
0000
0011
,
1000
0001
0010
0001
0100
0010
1000
0100
,
1000
0001
0010
0001
0100
0010
1000
0000
,
1010
0000
0010
1000
0100
0010
0001
0000
,
0101
0100
0010
1000
0100
0010
0001
0000
,
0100
0010
0100
0010
1000
0001
1000
0001
,
0010
0100
0010
0001
0100
0010
1000
0000
,
0110
0000
0001
1000
0010
1000
0100
2100
,
0000
0001
3001
0000
0010
0100
1000
0000
,
0101
0000
0010
0100
0001
1000
0001
0011
,
0000
1010
0000
2001
0000
0010
3010
0000
,
1010
0000
0001
1000
0010
0100
0001
0021
,
0000
0001
0031
0000
1000
0010
0100
0000
,
1001
0000
0001
0010
0001
0100
0010
0110
,
0000
0101
0000
1100
0000
0001
1000
0000
,
1002
0000
0013
0000
0001
1000
0100
2100
,
0000
0001
3001
0000
1000
0010
0100
0201
,
0000
0010
0310
0000
0100
0001
1000
2010
,
0000
3001
0011
0000
1000
0010
0110
0000
,
0201
0000
0310
0000
0100
0001
1000
1200
,
0000
1000
1300
0000
0001
0100
0010
1020
,
0000
0100
0130
0000
0010
1000
0001
0021
,
0000
0031
1001
0000
0100
0010
0110
0000
,
2001
0000
0001
0001
0000
0100
3100
0000
,
1000
0001
0010
0012
0000
0100
0103
0000
,
0010
0000
1000
2100
0000
0001
3001
0100
,
0120
0000
1030
2010
0000
3001
0100
0010
,
1000
0100
1000
0100
0010
0001
0010
0001
,
1000
0010
1000
0010
0100
0001
0100
0001
,
1000
0100
0010
0001
0100
0010
1000
0000
,
0001
1000
0001
0000
0100
0101
0000
0001
,
0010
0000
0100
1000
0000
0010
0100
0000
,
0220
0000
0000
0000
0030
0000
0301
1001
;

//---------------dance-single - ----------------
#NOTES:
     dance-single:
     :
     Medium:
     9:
     0.499537,0.553632,0.380313,0.654983,0.000000,331.000000,295.000000,36.000000,62.000000,0.000000,0.000000,0.499537,0.553632,0.380313,0.654983,0.000000,331.000000,295.000000,36.000000,62.000000,0.000000,0.000000:
// measure 0
0000
0000
0000
0000
,  // measure 1
0000
0000
0000
0000
,  // measure 2
0000
0000
0000
0000
,  // measure 3
0000
0000
0000
0000
,  // measure 4
0002
0000
0000
0000
0000
1003
0010
0200
,  // measure 5
0000
0000
0000
0000
0000
0301
0010
2000
,  // measure 6
0000
0000
0000
0000
0000
3100
1000
0020
,  // measure 7
0000
1030
0001
0000
1000
0010
0100
0000
,  // measure 8
1001
0000
0010
0000
1000
0001
1000
0100
,  // measure 9
0000
1100
0000
0101
0000
0000
0000
0000
,  // measure 10
0000
0000
0010
1000
0010
0100
0001
1000
,  // measure 11
0000
1010
0000
0011
0000
0110
0000
0000
,  // measure 12
0000
0000
1000
0010
1000
0001
0100
0020
,  // measure 13
0000
1030
0001
0000
0000
0000
0000
0000
,  // measure 14
0000
0000
0100
0010
0100
0001
1000
0010
,  // measure 15
0000
1010
0000
0102
0000
1003
0001
0000
,  // measure 16
1001
0000
2000
0000
3001
0010
0100
1000
,  // measure 17
0000
1100
0000
0011
0000
0000
0000
0000
,  // measure 18
0000
0000
1000
0001
1000
0010
0100
0002
,  // measure 19
0000
2003
0000
3020
0000
0130
0000
0000
,  // measure 20
0110
0000
1000
0001
0100
0000
0000
0110
,  // measure 21
0000
0000
0010
1000
0001
0000
0000
0011
,  // measure 22
0000
0000
0001
0100
0001
0000
1000
0010
,  // measure 23
0000
1010
0000
1100
0000
0101
0000
0001
,  // measure 24
2000
3100
0002
0103
,  // measure 25
2000
0000
0000
3020
0000
0000
0130
0000
,  // measure 26
0002
0010
0100
1003
,  // measure 27
0020
0000
0000
0230
0000
0000
0301
0000
,  // measure 28
0100
0010
0100
0020
0000
2030
0000
3002
,  // measure 29
0000
0023
0000
0032
0000
1003
0000
0000
,  // measure 30
0020
0000
0130
0002
0000
1003
0000
1001
,  // measure 31
0000
0000
0000
0000
0001
1000
0100
0000
,  // measure 32
1100
0000
1000
0010
0000
0100
0001
0000
,  // measure 33
0011
0000
0001
0100
0000
0010
1000
0000
,  // measure 34
0002
2003
3020
0230
,  // measure 35
0301
0010
0000
0001
0000
1000
0100
0000
,  // measure 36
1001
0000
0010
0100
0000
0001
1000
0000
,  // measure 37
0001
0200
0000
0320
0000
1030
0000
2010
,  // measure 38
0000
3020
0230
0302
,  // measure 39
1003
0001
0000
0010
0000
0001
1000
0000
,  // measure 40
0101
0000
0010
0100
0000
0001
1000
0000
,  // measure 41
0110
0000
0010
0001
0000
1000
0100
0000
,  // measure 42
2000
3200
0320
0032
,  // measure 43
0103
0001
0000
0010
0000
0001
1000
0000
,  // measure 44
1010
0000
0001
1000
0001
0010
0100
1000
,  // measure 45
0000
1100
0000
0000
0001
1000
0010
0000
,  // measure 46
0101
0000
0010
1000
0001
0010
0100
2000
,  // measure 47
0000
3002
0000
0023
0000
0031
1000
0000
,  // measure 48
1001
0000
0010
1000
0001
1000
0100
0010
,  // measure 49
0000
0011
0000
0000
0010
0001
1000
0000
,  // measure 50
0110
0000
0010
1000
0001
1000
0010
0200
,  // measure 51
0000
0320
0000
2030
0000
3001
1000
0000
,  // measure 52
2001
0000
0000
0000
0000
3010
0100
0002
,  // measure 53
0000
0000
0000
0000
0000
0013
0001
0200
,  // measure 54
0000
0000
0000
0000
0000
0301
1000
0020
,  // measure 55
0000
0130
0010
0000
1000
0001
1000
0000
,  // measure 56
2100
0000
0000
0000
0000
3100
1000
0002
,  // measure 57
0000
0000
0000
0000
0000
1003
0001
0020
,  // measure 58
0000
0000
0000
0000
0000
0031
1000
0200
,  // measure 59
0000
1300
0001
0000
0100
0001
1000
0000
,  // measure 60
0012
0000
0000
1000
0000
0000
0103
0000
,  // measure 61
0002
1000
0000
0010
0000
0103
0001
0000
,  // measure 62
1010
0000
0000
0201
0000
0000
0000
0310
,  // measure 63
0200
0000
0301
1000
0000
0001
1000
0100
,  // measure 64
1000
0010
0100
0000
0001
0010
0100
0000
,  // measure 65
1000
0001
0100
0000
0010
1000
0001
0000
,  // measure 66
0010
0001
1000
0010
0000
1000
0001
0000
,  // measure 67
0010
0001
2000
0000
3001
0200
0000
0310
,  // measure 68
2000
0000
3100
0020
0000
0031
0100
0000
,  // measure 69
0220
0000
0000
0000
0030
0000
0001
0301
;

//---------------dance-single - ----------------
#NOTES:
     dance-single:
     :
     Easy:
     7:
     0.327491,0.405997,0.158464,0.179592,0.000000,217.000000,202.000000,15.000000,17.000000,0.000000,0.000000,0.327491,0.405997,0.158464,0.179592,0.000000,217.000000,202.000000,15.000000,17.000000,0.000000,0.000000:
0000
0000
0000
0000
,
0000
0000
0000
0000
,
0000
0000
0000
0000
,
0000
0000
0000
0000
,
2000
0000
0000
0000
0000
0000
0000
3002
,
0000
0000
0000
0000
0000
0000
0000
0203
,
0000
0000
0000
0000
0000
0000
0000
0320
,
0000
1030
0001
0100
,
1001
0010
1000
0001
,
0010
0100
1000
0000
,
0001
0100
0001
1000
,
0010
0100
0001
1000
,
0000
0110
1000
0001
,
0100
0010
0000
0000
,
1000
0010
1000
0001
,
0010
0010
0100
0100
,
1100
1000
0010
0100
,
0001
1000
0001
0000
,
0010
0001
0100
0001
,
1000
0010
1000
0100
,
1000
0001
0020
0030
,
0000
0001
2000
3000
,
0000
0010
0100
0001
,
1000
1000
0001
0001
,
0011
0000
1100
0000
,
0002
0000
0000
1003
0000
0000
0000
0000
,
0020
0000
0000
1030
,
0002
0000
0000
0103
0000
0000
0000
0000
,
0001
0001
1000
1000
,
0001
0010
0100
0000
,
1000
0001
1000
0100
,
1001
0000
0001
0001
,
0010
0000
0000
0110
0000
0000
0000
0000
,
1000
0000
0000
0001
0000
0000
0100
0000
,
0001
0010
0100
1000
,
0010
0100
0001
0000
,
1000
0000
0000
1100
0000
0000
0000
0000
,
1000
0010
1000
0001
,
0010
0001
0100
0010
,
1000
0100
1000
0000
,
0101
0000
0000
1010
0000
0000
0000
0000
,
0010
0000
0000
0100
0000
0000
0001
0000
,
1000
0010
0100
0010
,
1000
0001
0100
0001
,
0000
0011
0001
1000
,
0100
1000
0000
0000
,
0010
0100
0001
1000
,
0100
0100
1000
0001
,
0000
0101
0001
1000
,
0010
0100
0000
0000
,
0010
0000
1000
0000
0100
0000
0000
2000
,
0000
3002
0000
2003
0000
3001
0000
0000
,
0020
0000
0000
0030
,
1000
0100
1000
0001
,
0200
0000
0000
0300
,
0001
1000
0010
0100
,
0001
0010
0001
1000
,
0100
0000
0000
0000
,
1000
0010
1000
0001
,
2000
0000
0000
3100
0000
0000
0000
0000
,
0001
0000
0000
0010
0000
0000
0001
0000
,
1000
0000
0000
0100
0000
0000
1000
0000
,
0010
0000
0000
0100
0000
0000
0001
0000
,
0010
0000
0000
0100
0000
0000
1000
0000
,
0001
0001
1000
1000
,
0001
0100
0010
1000
,
0001
0100
0001
1000
,
1001
0000
0110
0000
1000
0001
0000
0000
,
0010
0000
0000
0001
0000
0000
1000
0000
,
2020
0000
0000
0000
0030
0000
3001
1000
;

//---------------dance-single - ----------------
#NOTES:
     dance-single:
     :
     Beginner:
     1:
     0.113188,0.182233,0.000000,0.000000,0.000000,75.000000,75.000000,0.000000,0.000000,0.000000,0.000000,0.113188,0.182233,0.000000,0.000000,0.000000,75.000000,75.000000,0.000000,0.000000,0.000000,0.000000:
0000
0000
0000
0000
,
0000
0000
0000
0000
,
0000
0000
0000
0000
,
0000
0000
0000
0000
,
1000
0000
0000
0000
,
1000
0000
0000
0000
,
1000
0000
0000
0000
,
0001
0000
1000
0000
,
0001
0000
0000
0000
,
0010
0000
0000
0000
,
0001
0000
0000
0000
,
1000
0000
0000
0000
,
0100
0000
0000
0000
,
0100
0000
0000
0000
,
1000
0000
0000
0000
,
0010
0000
0100
0000
,
0001
0000
0000
0000
,
0010
0000
0000
0000
,
0001
0000
0000
0000
,
1000
0000
0010
0000
,
0000
0000
0010
0000
,
0000
0000
0100
0000
,
0000
0000
0001
0000
,
1000
0000
0000
0000
,
0010
0000
0000
0000
,
0100
0000
0000
0000
,
0001
0000
0000
0000
,
1000
0000
0000
0000
,
0001
0000
0001
0000
,
0001
0000
0001
0000
,
1000
0000
1000
0000
,
0100
0000
0000
0000
,
0010
0000
0000
0000
,
0010
0000
0000
0000
,
0001
0000
0000
0000
,
0000
0000
0000
0000
,
1000
0000
0000
0000
,
1000
0000
0000
0000
,
0001
0000
0000
0000
,
0000
0000
0000
0000
,
0100
0000
0000
0000
,
0100
0000
0000
0000
,
0001
0000
0000
0000
,
0000
0000
0000
0000
,
1000
0000
0000
0000
,
0010
0000
0000
0000
,
0100
0000
0000
0000
,
0001
0000
0001
0000
,
1000
0000
0000
0000
,
0100
0000
0000
0000
,
0010
0000
0000
0000
,
0001
0000
0001
0000
,
0001
0000
0000
0000
,
1000
0000
0000
0000
,
0001
0000
0000
0000
,
0100
0000
0010
0000
,
1000
0000
0000
0000
,
0001
0000
0000
0000
,
1000
0000
0000
0000
,
0010
0000
0100
0000
,
0010
0000
0000
0000
,
0010
0000
0000
0000
,
0100
0000
0000
0000
,
0100
0000
0000
0000
,
0001
0000
0000
0000
,
0001
0000
0000
0000
,
1000
0000
0000
0000
,
1000
0000
1000
0000
,
0001
0000
0001
0000
,
0010
0000
0000
0000
;
