#TITLE:Let the beat hit em!;
#SUBTITLE:;
#ARTIST:Stone Bros.;
#TITLETRANSLIT:;
#SUBTITLETRANSLIT:;
#ARTISTTRANSLIT:;
#GENRE:;
#CREDIT:;
#BANNER:Let the beat hit em!-bn.png;
#BACKGROUND:Let the beat hit em!-bg.png;
#LYRICSPATH:;
#CDTITLE:;
#MUSIC:Let the beat hit em!.ogg;
#OFFSET:0.000000;
#SAMPLESTART:45.811001;
#SAMPLELENGTH:20.000000;
#SELECTABLE:YES;
#DISPLAYBPM:110.000000;
#BPMS:0.000000=110.017998
;
#STOPS:
;
#BGCHANGES:;
#KEYSOUNDS:;
#ATTACKS:;

//---------------dance-single - ----------------
#NOTES:
     dance-single:
     :
     Beginner:
     3:
     0.134421,0.199499,0.168888,0.000000,0.000000,78.000000,64.000000,14.000000,0.000000,0.000000,0.000000,0.134421,0.199499,0.168888,0.000000,0.000000,78.000000,64.000000,14.000000,0.000000,0.000000,0.000000:
0000
0000
0000
0000
,
0000
0000
0000
0000
,
0000
0000
0000
0000
,
0000
0000
0000
0000
,
0000
0000
0000
0000
,
1001
0000
0000
1000
,
0000
0001
0000
1000
,
0000
0001
0000
1000
,
0000
0001
0000
1000
,
0000
0001
0000
1000
,
0000
0001
0000
1000
,
0000
0001
0000
1000
,
0000
0001
0000
0010
,
0000
1001
0000
0110
,
0000
1001
0000
0110
,
0000
0001
0000
0100
,
0000
1001
0000
0110
,
0000
1000
0000
0100
,
0000
1001
0000
0110
,
0000
0001
0000
0100
,
0000
1000
0000
1000
,
0000
0001
0000
1000
,
0000
1000
0000
0001
,
0000
0100
0000
0000
,
0110
0110
0000
0000
,
0000
0010
0000
0010
,
0000
0001
0000
1000
,
0000
0100
0000
0100
,
0000
0110
0000
1001
,
0000
0001
0000
0010
,
0000
0001
0000
0100
,
0000
0100
0000
1000
,
0000
0100
0000
0001
,
0000
0001
0000
1000
,
0000
1001
0000
0010
,
0000
0001
0000
1000
,
0000
0100
0100
0100
;

//---------------dance-single - ----------------
#NOTES:
     dance-single:
     :
     Easy:
     5:
     0.208525,0.332499,0.229206,0.000000,0.000000,121.000000,102.000000,19.000000,0.000000,0.000000,0.000000,0.208525,0.332499,0.229206,0.000000,0.000000,121.000000,102.000000,19.000000,0.000000,0.000000,0.000000:
0000
0000
0000
0000
,
0000
0000
0000
0000
,
0000
0000
0000
0000
,
0000
0000
0000
0000
,
0000
0000
0000
0000
,
1001
0001
0000
1000
,
0000
0001
0000
1000
,
0000
0001
0000
1000
,
0000
0001
0000
1000
,
0000
0001
0000
1000
,
0000
0001
0000
1000
,
0000
0001
0000
1000
,
0000
0001
0000
0010
,
0000
1001
0000
0110
,
0000
1001
0000
0110
,
0000
0001
1000
0100
,
0000
1001
0000
0110
,
0000
1000
0001
0100
,
0000
1001
0000
0110
,
0000
0001
1000
0100
,
0001
1000
0001
1000
,
0001
0001
1000
1000
,
0001
1000
0010
0001
,
0010
0100
0000
0000
,
0110
1001
0100
0000
,
1000
0010
0001
0010
,
1000
0001
0001
1000
,
0010
0100
0100
0100
,
1001
0110
1001
0100
,
1000
0001
0010
0010
,
1000
0001
0100
0100
,
1000
0100
1000
1000
,
0001
0100
0001
0001
,
1001
0000
1000
0000
0001
0001
0001
0000
,
0110
0000
1001
0000
0010
1000
0010
0000
,
1001
0000
0001
0000
1000
1000
1000
0000
,
0010
0100
0001
1001
;

//---------------dance-single - ----------------
#NOTES:
     dance-single:
     :
     Medium:
     8:
     0.292970,0.376832,0.229206,0.000000,0.036190,170.000000,151.000000,19.000000,0.000000,0.000000,0.000000,0.292970,0.376832,0.229206,0.000000,0.036190,170.000000,151.000000,19.000000,0.000000,0.000000,0.000000:
0000
0000
0000
0000
,
0000
0000
0000
0000
,
0000
0000
0000
0000
,
0000
0000
0000
0000
,
0000
0000
0000
0000
,
1001
0000
0001
0000
1000
1000
1000
0000
,
0001
0001
0001
0000
1000
1000
1000
0000
,
0001
0010
0001
0000
1000
0010
1000
0000
,
0001
0010
0001
0000
1000
0010
1000
0000
,
0000
0001
0100
1000
,
0100
0001
0010
1000
,
0001
0010
0001
0000
1000
1000
1000
0000
,
0001
0001
0001
0000
1000
0010
0100
0000
,
0000
1000
1100
0101
,
0001
1001
0000
1001
,
0000
0000
0010
1000
0001
1000
0100
1000
,
0000
0001
1010
1001
,
0000
0000
0010
0001
1000
0001
0100
0001
,
0000
1000
0011
1001
,
0000
0000
0001
0001
1000
1000
0100
0100
,
0001
1000
0001
1000
,
0101
0001
1000
1000
,
0001
1000
1000
0001
,
0010
0100
0000
0000
,
0110
1001
0100
0001
,
0010
1000
0010
0001
,
1000
0001
0001
1000
,
0010
0100
0100
0100
,
1001
0110
1001
0100
,
1000
0000
0001
0000
0010
0010
0010
0000
,
1000
0000
0001
0000
0100
0100
0100
0000
,
1000
0000
0100
0000
1000
1000
1000
0000
,
0001
0000
0100
0000
0001
0001
0001
0000
,
1001
0000
1000
0000
0001
0001
0001
0000
,
0110
0000
1001
0000
0010
1000
0010
0000
,
1001
0000
0001
0000
1000
1000
1000
0000
,
0010
1000
0010
1000
0010
0100
0001
0001
0001
0001
0000
0000
;

//---------------dance-single - ----------------
#NOTES:
     dance-single:
     :
     Hard:
     9:
     0.380861,0.443332,0.434284,0.000000,0.036190,221.000000,185.000000,36.000000,0.000000,0.000000,0.000000,0.380861,0.443332,0.434284,0.000000,0.036190,221.000000,185.000000,36.000000,0.000000,0.000000,0.000000:
0000
0000
0000
0000
,
0000
0000
0000
0000
,
0000
0000
0000
0000
,
0000
0000
0000
0000
,
0000
0000
0000
0000
,
1001
0100
0001
0000
1000
1000
1000
0000
,
0001
0001
0001
0000
1000
1000
1000
0000
,
1001
0010
0001
0000
1001
0010
0100
0000
,
1001
0100
0001
0000
1001
0100
1000
0000
,
0001
0100
0010
0000
1000
0100
0010
0000
,
0001
1000
0001
0000
1000
0001
0010
0001
,
0010
0000
1001
0000
1000
0100
0001
0000
,
0001
0100
1000
0000
0010
0100
0001
0000
,
0000
1000
0010
0100
0101
1000
1100
0010
,
0001
0000
1001
0010
0100
0000
1001
0000
,
0000
0000
0010
1000
0001
1000
0100
1000
,
0000
0000
0001
1000
1001
0010
1001
0000
,
1000
0010
0100
0001
1000
0001
0100
0001
,
0001
0000
1000
0000
0011
0100
1001
0010
,
1000
0001
1000
1000
0001
0001
0100
0100
,
0001
1000
0101
1001
,
0101
0000
0001
0000
1100
0100
1000
0001
,
1000
1000
1000
0001
,
0100
0010
1000
0000
0000
0000
0001
0100
,
0101
1100
1001
0001
,
0010
1000
0010
0001
,
1000
0100
0001
0000
0001
0100
1000
0000
,
0010
0100
1001
0000
0100
0000
0100
0000
,
1001
0000
0110
0000
1001
0010
0100
0000
,
1000
0000
0001
0000
0010
1000
0001
0000
,
1010
0000
1001
0000
0100
0100
0100
0000
,
1000
0000
0100
0000
1001
1000
1000
0000
,
0001
0010
0100
0000
1001
0001
0001
0000
,
1001
0010
1000
0000
0101
0001
0001
0000
,
0110
0001
0001
0000
1100
1000
1000
0000
,
1001
0010
0010
0000
1001
0100
0100
0000
,
0010
1000
0010
1000
0010
0100
0001
0001
0001
1001
0000
0000
;

//---------------dance-double - ----------------
#NOTES:
     dance-double:
     :
     Easy:
     5:
     0.193015,0.243833,0.048254,0.000000,0.000000,112.000000,108.000000,4.000000,0.000000,0.000000,0.000000,0.193015,0.243833,0.048254,0.000000,0.000000,112.000000,108.000000,4.000000,0.000000,0.000000,0.000000:
00000000
00000000
00000000
00000000
,
00000000
00000000
00000000
00000000
,
00000000
00000000
00000000
00000000
,
00000000
00000000
00000000
00000000
,
00000000
00000000
00000000
00000000
,
10000000
00000000
00010000
00000000
,
00001000
00000000
00000001
00000000
,
00000001
00000001
00001000
00001000
,
00010000
00010000
10000000
10000000
,
00010000
10000000
00010000
10000000
,
01000000
00010000
00001000
00010000
,
00000010
00000100
00000001
00001000
,
00000001
00000001
00001000
00001000
,
00100000
00000000
10000000
01000000
,
00010000
00000000
00000010
00000100
,
00000001
00000000
00001000
00000100
,
00010000
00000000
10000000
01000000
,
00001000
00000000
00000001
00000100
,
00010000
00000000
10000000
01000000
,
00100000
00000000
00001000
00010000
,
00000010
00000100
00000001
00001000
,
00000001
00000001
00000100
00000000
,
00001000
00001000
01000000
00000000
,
00100000
10000000
01000000
00000000
,
00010000
00001000
00001000
00000000
,
00000100
00000001
00001000
00000000
,
00000100
00010000
00001000
00000000
,
00100000
10000000
01000000
00000000
,
00010000
00010000
00001000
00001000
,
00011000
00000000
00000010
00000100
,
00000001
00001000
00000100
00000100
,
00011000
00000000
00100000
01000000
,
10000000
00010000
01000000
01000000
,
00011000
00000010
00000100
00000001
,
00001000
00001000
00000100
00000100
,
00011000
00100000
01000000
10000000
,
00010000
01000000
00010000
01000000
;

//---------------dance-double - ----------------
#NOTES:
     dance-double:
     :
     Medium:
     7:
     0.265396,0.332499,0.120635,0.000000,0.000000,154.000000,144.000000,10.000000,0.000000,0.000000,0.000000,0.265396,0.332499,0.120635,0.000000,0.000000,154.000000,144.000000,10.000000,0.000000,0.000000,0.000000:
00000000
00000000
00000000
00000000
,
00000000
00000000
00000000
00000000
,
00000000
00000000
00000000
00000000
,
00000000
00000000
00000000
00000000
,
00000000
00000000
00000000
00000000
,
10010000
01000000
10000000
10000000
,
00010000
01000000
00001000
00010000
,
00000010
00000100
00000001
00001000
,
00010000
00000000
01000000
00000000
10010000
10010000
10010000
00000000
,
00010000
00000000
10000000
00000000
00010000
10000000
01000000
00000000
,
01000000
00000000
00010000
00000000
00001000
00010000
00001000
00000000
,
00000010
00000000
00000100
00000000
00000001
00001000
00000001
00000000
,
00000001
00000000
00000100
00000000
00001000
00001000
00010000
00100000
,
10000000
00000000
00000000
00000000
00000000
00000000
00000000
00001000
,
00010000
00000000
00000000
00000000
00000001
00000000
00000100
00000001
,
00000100
00000000
00000000
00000000
00000000
00000000
00000000
00010000
,
00001000
00000000
00000000
00000000
10000000
00000000
01000000
00001000
,
00010000
00000000
00000000
00000000
00000000
00000000
00000000
00000001
,
00001000
00000000
00000000
00000000
00010000
00000000
00001000
00100000
,
01000000
00000000
00000000
00000000
00000000
00000000
00000000
00001000
,
00000100
00000000
00000100
00000000
00000001
00000001
00001000
00000000
,
00000001
00000000
00000100
00000000
00001000
00001000
00000100
00000000
,
00010000
00000000
00001000
00000000
00100000
00100000
01000000
00000000
,
00100000
00000000
10000000
00000000
01000000
01000000
00010000
00000000
,
00010000
00000000
00001000
00000000
00001000
00000100
00000100
00000000
,
00000001
00000000
00000001
00000000
00001000
00001000
00000100
00000000
,
00000100
00000000
00010000
00000000
00001000
00001000
01000000
00000000
,
00100000
00000000
10000000
00000000
01000000
01000000
00100000
00000000
,
00001000
00000000
00010000
00000000
00001000
00000100
00000100
00000001
,
00001001
00000000
00000100
00000000
00000010
00001000
00000100
00000000
,
00000001
00000000
00001000
00000000
00000100
00000100
00010000
00000000
,
00011000
00000000
00100000
00000000
01000000
01000000
10000000
00000000
,
10000000
00000000
00010000
00000000
10010000
10010000
01000000
00000000
,
00011000
00000000
00000010
00000000
00000100
00000100
00000001
00000000
,
00001000
00000000
00001000
00000000
00000100
00010000
00001000
00000000
,
00011000
00000000
00100000
00000000
01000000
01000000
10000000
00000000
,
00010000
00000000
01000000
00000000
00001000
00000100
00000001
00000000
;

//---------------dance-double - ----------------
#NOTES:
     dance-double:
     :
     Hard:
     9:
     0.382584,0.443332,0.253333,0.000000,0.036190,222.000000,201.000000,21.000000,0.000000,0.000000,0.000000,0.382584,0.443332,0.253333,0.000000,0.036190,222.000000,201.000000,21.000000,0.000000,0.000000,0.000000:
00000000
00000000
00000000
00000000
,
00000000
00000000
00000000
00000000
,
00000000
00000000
00000000
00000000
,
00000000
00000000
00000000
00000000
,
00000000
00000000
00000000
00000000
,
00011000
00000000
01000000
00000000
10000000
01000000
10000000
00000000
,
00010000
00001000
01000000
00000000
00001000
00010000
00000100
00000000
,
00000010
00000100
00001000
00000000
00000001
00000100
00001000
00000000
,
00010000
00100000
01000000
00000000
10010000
10010000
11000000
00000000
,
00010000
10000000
00100000
00000000
00010000
10000000
01000000
00000000
,
01000000
00010000
00001000
00000000
00001000
00000100
00000001
00000000
,
00000010
00000100
00001000
00000000
00000001
00000100
00001000
00000000
,
00000000
00000001
00000000
00000100
00000000
00001000
00000000
00010000
,
11000000
00000000
01000000
00000000
00100000
00010000
01000000
00001000
,
00010000
00000000
00010000
00000000
00000010
00001000
00000100
00000100
,
00000001
00000000
00000100
00000000
00001000
00010000
00001000
00010000
,
01000000
00000000
10000000
00000000
10010000
10010000
01010000
00001000
,
00010000
00000000
00000100
00000000
00000001
00000100
00000010
00000001
,
00001000
00000000
00000100
00000000
00010000
00001000
00100000
01000000
,
10000000
00000000
10000000
00000000
00010000
01000000
00001000
00001000
,
00000100
00000000
00000100
00000000
00000001
00000001
00000100
00001000
,
00011000
00010000
00000100
00000000
00001100
00001000
00000001
00000000
,
00000101
00000100
00000010
00000000
00001010
00001000
00000100
00000000
,
00010100
00010000
00001000
00000000
01001000
01000000
00010000
00000000
,
00010000
00010000
10000000
10000000
01000000
00001000
00000100
00000000
,
00000001
00000001
00000100
00000000
00001000
00001000
00000100
00000000
,
00000010
00000100
00001000
00010000
00001000
00001000
01000000
00000000
,
00100000
10000000
01000000
00000000
01000000
01000000
00100000
00000000
,
00001000
00010000
00001000
00010000
00001000
00000100
00000100
00000001
,
00001100
00000000
00000100
00000000
00000010
00001000
00000100
00000000
,
00000001
00000001
00001000
00001000
00000100
00010000
00001000
00100000
,
10010000
00000000
01000000
00000000
01000000
00010000
10000000
10000000
,
01000000
00010000
00001000
00000100
00000101
00000101
00001001
00000010
,
00000101
00000000
00000010
00000000
00000100
00000100
00000001
00001000
,
00000100
00010000
00001000
00010000
00100000
00010000
00001000
01000000
,
10100000
00000000
00100000
00000000
01000000
01000000
10000000
00000000
,
00010000
01000000
10000000
01000000
00010000
00100000
00001000
00010000
00000100
00000010
00000000
00000000
;

//---------------dance-solo - [3 PANELS]----------------
#NOTES:
     dance-solo:
     [3 PANELS]:
     Beginner:
     5:
     0.193015,0.310332,0.144761,0.000000,0.000000,112.000000,100.000000,12.000000,0.000000,0.000000,0.000000,0.193015,0.310332,0.144761,0.000000,0.000000,112.000000,100.000000,12.000000,0.000000,0.000000,0.000000:
000000
000000
000000
000000
,
000000
000000
000000
000000
,
000000
000000
000000
000000
,
000000
000000
000000
000000
,
000000
000000
000000
000000
,
010010
001000
000000
010000
,
000000
000010
000000
010000
,
000000
000010
000000
001000
,
000000
000010
000000
010000
,
000000
000010
000000
001000
,
000000
000010
000000
010000
,
000000
000010
000000
001000
,
000000
000010
000000
001000
,
000000
010010
000000
001000
,
000000
010010
000000
001000
,
000000
000010
010000
001000
,
000000
010010
000000
001000
,
000000
010000
000010
001000
,
000000
010010
000000
001000
,
000000
000010
010000
001000
,
000010
010000
000010
010000
,
000010
001000
010000
001000
,
000010
010000
001000
000010
,
001000
001000
000000
000000
,
001000
010010
001000
000000
,
010000
001000
000010
001000
,
010000
000010
001000
010000
,
001000
001000
001000
001000
,
010010
000000
010010
000000
,
010000
000010
001000
001000
,
010000
000010
001000
001000
,
010000
001000
010000
001000
,
000010
001000
000010
001000
,
010010
000000
001000
000000
000010
001000
000010
000000
,
001000
000000
010010
000000
001000
010000
001000
000000
,
010010
000000
001000
000000
010000
001000
010000
000000
,
001000
001000
000010
010010
;

//---------------dance-solo - ----------------
#NOTES:
     dance-solo:
     :
     Easy:
     5:
     0.215419,0.332499,0.277459,0.000000,0.000000,125.000000,102.000000,23.000000,0.000000,0.000000,0.000000,0.215419,0.332499,0.277459,0.000000,0.000000,125.000000,102.000000,23.000000,0.000000,0.000000,0.000000:
000000
000000
000000
000000
,
000000
000000
000000
000000
,
000000
000000
000000
000000
,
000000
000000
000000
000000
,
000000
000000
000000
000000
,
100001
000001
000000
100000
,
000000
000001
000000
100000
,
000000
000010
000000
010000
,
000000
000010
000000
010000
,
000000
000011
000000
110000
,
000000
000011
000000
110000
,
000000
000010
000000
010000
,
000000
000010
000000
010000
,
000000
100001
000000
001100
,
000000
100001
000000
001100
,
000000
000010
100000
001000
,
000000
100010
000000
010001
,
000000
010000
000001
001000
,
000000
010001
000000
100010
,
000000
000001
100000
001000
,
000001
100000
000010
010000
,
000001
000001
100000
100000
,
000001
100000
010000
000010
,
000100
001000
000000
000000
,
001100
100001
001000
000000
,
010000
010000
000010
000010
,
100000
000001
000001
100000
,
000100
001000
001000
001000
,
100001
001100
100001
001000
,
010000
000010
000100
000100
,
100000
000001
001000
001000
,
010000
001000
100000
100000
,
000010
001000
000001
000001
,
010010
000000
100000
000000
000001
000001
000001
000000
,
001100
000000
100001
000000
010000
010000
010000
000000
,
010010
000000
000001
000000
100000
100000
100000
000000
,
010000
000010
000001
100001
;

//---------------dance-solo - ----------------
#NOTES:
     dance-solo:
     :
     Medium:
     8:
     0.313650,0.398999,0.373967,0.000000,0.036190,182.000000,151.000000,31.000000,0.000000,0.000000,0.000000,0.313650,0.398999,0.373967,0.000000,0.036190,182.000000,151.000000,31.000000,0.000000,0.000000,0.000000:
000000
000000
000000
000000
,
000000
000000
000000
000000
,
000000
000000
000000
000000
,
000000
000000
000000
000000
,
000000
000000
000000
000000
,
100001
000000
000001
000000
100000
100000
100000
000000
,
000001
000001
000001
000000
100000
100000
100000
000000
,
000010
000010
000010
000000
010000
010000
010000
000000
,
000010
000010
000010
000000
010000
010000
010000
000000
,
000000
000011
001000
110000
,
001000
000011
000100
110000
,
000010
000010
000010
000000
100000
100000
100000
000000
,
000001
000001
000001
000000
010000
010000
010000
000000
,
000000
110000
101000
001001
,
000011
010010
000000
100001
,
000000
000000
000010
100000
000001
100000
001000
100000
,
000000
000011
100010
010010
,
000000
000000
010000
000001
100000
000001
001000
000001
,
000000
110000
010001
010010
,
000000
000000
000001
000001
100000
100000
001000
001000
,
000001
100000
000010
010000
,
001001
000001
100000
100000
,
000001
100000
110000
000010
,
000100
001000
000000
000000
,
001100
100001
001000
000001
,
010000
110000
000010
000011
,
100000
000001
000001
100000
,
000100
001000
001000
001000
,
010001
001100
100010
001000
,
010000
000000
000010
000000
000100
000100
000100
000000
,
100000
000000
000001
000000
001000
001000
001000
000000
,
010000
000000
001000
000000
100000
100000
100000
000000
,
000010
000000
001000
000000
000001
000001
000001
000000
,
010010
000000
100000
000000
000001
000001
000001
000000
,
001100
000000
100001
000000
010000
010000
010000
000000
,
010010
000000
000001
000000
100000
100000
100000
000000
,
010000
010000
010000
000010
000010
000010
000001
000001
000001
100001
000000
000000
;

//---------------dance-solo - ----------------
#NOTES:
     dance-solo:
     :
     Hard:
     9:
     0.417051,0.465499,0.687617,0.000000,0.036190,242.000000,185.000000,57.000000,0.000000,0.000000,0.000000,0.417051,0.465499,0.687617,0.000000,0.036190,242.000000,185.000000,57.000000,0.000000,0.000000,0.000000:
000000
000000
000000
000000
,
000000
000000
000000
000000
,
000000
000000
000000
000000
,
000000
000000
000000
000000
,
000000
000000
000000
000000
,
100001
001000
000001
000000
100000
100000
100000
000000
,
000001
000001
000001
000000
100000
100000
100000
000000
,
010010
010000
000010
000000
010010
000010
010000
000000
,
100001
001000
000001
000000
100001
001000
100000
000000
,
000011
001000
010000
000000
110000
001000
000010
000000
,
000011
100000
000001
000000
110000
000001
000010
000010
,
000010
000000
100010
000000
100000
001000
000001
000000
,
000001
001000
100000
000000
010000
010000
110000
000000
,
000000
110000
010000
001000
101000
000001
001001
000010
,
000011
000000
010010
000100
000010
000000
100001
000000
,
000000
000000
000010
100000
000001
100000
001000
100000
,
000000
000000
000011
100000
100010
010000
010010
000000
,
110000
010000
000011
000001
100000
000001
001000
000001
,
000001
000000
110000
000000
010001
000010
010010
010000
,
000010
100000
000001
000001
100000
100000
001000
001000
,
000001
100000
010001
100010
,
001001
000000
000001
000000
101000
001000
010000
000010
,
110000
100000
110000
000010
,
001000
000100
110000
000000
000000
000000
000010
001000
,
001001
101000
100001
000001
,
010000
110000
000010
000011
,
100000
001000
000001
000000
000001
001000
100000
000000
,
000100
001000
100001
000000
001000
000000
001000
000000
,
010001
000000
001100
000000
100010
000100
001000
000000
,
110000
000000
000011
000000
000100
010000
000010
000000
,
100010
000000
010001
000000
001000
001000
001000
000000
,
010000
000000
001000
000000
100010
100000
100000
000000
,
000010
000010
001000
000000
010001
000001
000001
000000
,
010010
000010
100000
000000
001001
000001
000001
000000
,
001100
001010
100001
000000
010001
010000
010000
000000
,
010010
000101
000001
000000
100100
100000
100000
000000
,
010000
010000
010000
000010
000010
000010
000001
000001
000001
100001
000000
000000
;

//---------------dance-single - ----------------
#NOTES:
     dance-single:
     :
     Challenge:
     12:
     0.515282,0.554165,0.458411,0.048254,0.193015,299.000000,261.000000,38.000000,4.000000,0.000000,0.000000,0.515282,0.554165,0.458411,0.048254,0.193015,299.000000,261.000000,38.000000,4.000000,0.000000,0.000000:
0000
0000
0000
0000
,
0000
0000
0000
0000
,
0000
0000
0000
0000
,
0000
0000
0000
0000
,
0000
0000
0000
0000
,
1001
0110
0001
0100
0010
1000
0001
0100
,
1000
0010
1000
0010
1000
0000
0100
0000
0010
0000
0001
0000
1000
0000
0001
0000
,
0011
0000
0010
0000
0001
1000
0001
0000
0100
0000
0010
0000
1000
0000
0100
0000
,
1100
0000
0000
0000
1000
0010
0000
1000
0100
0000
0010
0000
0001
0000
0101
0000
,
1100
0000
0000
0010
0100
0000
0010
0000
1000
0000
0100
0000
0010
0000
0001
0000
,
0100
0010
0100
0010
0100
0000
0000
0000
0001
0000
1000
0000
0100
0000
1001
0000
,
0110
0000
0000
1000
0010
0000
0100
0000
0001
0000
0010
0000
0100
0000
1000
0000
,
0010
1100
0010
0101
1000
1010
0001
0011
,
1001
0000
0000
0000
1000
0000
0010
0100
0000
0100
0001
0000
0010
0000
0100
0000
,
1000
0000
0100
1000
0000
0001
0100
0000
0011
0000
1001
0000
1010
0000
0010
0000
,
0100
0000
0001
1000
0000
1000
0100
0000
0010
0000
0001
1000
0001
0000
0000
0000
,
0100
0010
1000
0001
0010
0100
1000
0010
,
0110
0000
0001
0100
0010
1000
0101
0010
,
0001
0100
0010
1000
1100
0011
0100
0010
,
1000
0000
0100
0000
1000
0001
0100
0000
0010
0000
1000
0000
0100
0010
0001
0000
,
2000
3020
0230
0302
,
0013
0101
1100
0001
1000
0010
0100
0001
,
0010
0000
0001
1000
1010
0010
0101
1000
,
0100
1000
0000
0001
0000
0000
1000
0000
0010
0000
0100
0000
0001
0000
1000
0000
,
0110
0000
0001
0000
0010
0000
0100
0000
1000
0000
0001
1000
0000
0001
0100
0000
,
0010
1100
0101
1000
0010
0100
0001
1000
,
0100
0000
1000
0001
0011
0100
1010
1000
,
0100
0010
0000
0001
0000
0000
1000
0000
0010
0000
0100
0000
0010
0000
1000
0000
,
1001
0000
0010
0000
0100
0000
0001
0000
0010
0000
0100
1000
0000
0010
0100
0000
,
1001
0010
1000
0100
0010
0001
1000
0010
,
1000
0001
0010
0100
0010
0001
1000
0010
,
0110
0001
0100
0010
1000
0100
1000
0001
,
0010
0100
0010
0001
0100
0010
1000
0001
,
0011
0001
0100
0010
1000
0001
1000
0100
,
0010
0001
0100
0001
1000
0010
1000
0100
,
1010
0001
1000
0100
0010
0001
1000
0010
,
1000
0100
0001
1000
0010
0001
1001
0110
1001
0110
0000
0000
;

//---------------dance-double - ----------------
#NOTES:
     dance-double:
     :
     Challenge:
     12:
     0.496325,0.554165,0.410157,0.048254,0.193015,288.000000,254.000000,34.000000,4.000000,0.000000,0.000000,0.496325,0.554165,0.410157,0.048254,0.193015,288.000000,254.000000,34.000000,4.000000,0.000000,0.000000:
00000000
00000000
00000000
00000000
,
00000000
00000000
00000000
00000000
,
00000000
00000000
00000000
00000000
,
00000000
00000000
00000000
00000000
,
00000000
00000000
00000000
00000000
,
00000011
00011000
01000000
00100000
10000000
00010000
01000000
00000000
,
00001000
00100000
00001000
00100000
00001000
00000000
01000000
00000000
00010000
00000000
10000000
00000000
01000000
00000000
00000000
00000000
,
00100000
00000000
00001000
00010000
00000010
00000000
00000100
00000000
00000001
00000000
00001000
00000000
00000100
00000000
00000010
00000000
,
00000110
00000000
00000000
00000000
00000001
00000100
00000000
00010000
00000100
00000000
00000010
00000000
00001000
00000000
00100000
00000000
,
10010000
00000000
00000000
00100000
10000000
00000000
01000000
00000000
00100000
00000000
00001000
00000000
01000000
00010000
00000000
00000000
,
00100000
00000000
00010000
01000000
00010000
00000000
00000000
00000000
00100000
00000000
00001000
00000000
00011000
00000000
00000010
00000000
,
00001001
00000000
00000000
00000001
00000100
00000000
00000010
00000000
00010000
00000000
00001000
00000000
01000000
00000000
00100000
10000000
,
00100000
00000000
01100000
00000000
01001000
00000000
00010000
00000000
00000100
00000000
00001000
00000001
00000000
00000001
00000100
00000000
,
00001010
00000000
00000000
00000000
00001000
00000000
00000100
00000000
00000010
00000000
00000001
00000000
00000100
00000010
00000000
00000010
,
00010000
00000100
00001000
00000010
00010010
01001000
00110000
00000000
,
10000000
00000000
00010000
00000000
00100000
00000000
01000000
00000000
00100000
00000000
00001000
00010000
00001000
00000000
00000000
00000000
,
01000000
00000000
01000000
00000000
00010000
10000000
00000000
00000000
00100000
00000000
10000000
00000000
00010000
00000000
00100000
00000000
,
00011000
01000000
00100000
10000000
01000000
00001000
00010000
00100000
,
00001000
00000000
00000100
00000000
00000010
00000000
00000001
00000000
00000100
00000000
00000010
00000000
00001000
00000100
00000000
00001000
,
00000100
00000000
00101000
00000100
00010000
00001000
01000000
00100000
,
20000000
30020000
00030200
00000320
,
00001030
00001100
00000011
00000100
00000010
00010000
00000100
00001000
,
10010000
00000000
00100000
10000000
01100000
00010000
00011000
00000010
,
00001000
00000100
00000000
00010000
00000000
00000000
00001000
00000000
01000000
00000000
00100000
00000000
10000000
00000000
00010000
00000000
,
00110000
00000000
10000000
00000000
00000000
00000000
00100000
00000000
01000000
00000000
00001000
00010000
00000000
00010000
00000010
00000000
,
00000100
00000101
00001010
00010000
00000010
00000100
00000001
00001000
,
00010100
00000000
00010000
00001000
00001010
00000001
00010100
00010000
,
00100000
01000000
00000000
10000000
00000000
00000000
00010000
00000000
10000000
00000000
00100000
00000000
01000000
00000000
00010000
00000000
,
01100000
00000000
00001000
00000000
00000000
00000000
00100000
00000000
00001000
00000000
00010000
00000100
00000000
00000100
00000010
00000000
,
00001100
00001000
00000010
00000100
00000001
00000010
00000100
00001000
,
01000000
00100000
10000000
00010000
00100000
01000000
10000000
00010000
,
01001000
00100000
10000000
01000000
00010000
00100000
00001000
01000000
,
00010000
00100000
10000000
00100000
01000000
00001000
00010000
00000100
,
00001010
00100000
00001000
00010000
00000010
00001000
00000100
00000010
,
00000001
00001000
00000100
00010000
00001000
00000010
00100000
00001000
,
01010000
10000000
00100000
01000000
00010000
00100000
01000000
10000000
,
10000000
01000000
00010000
00001000
00000010
00000001
00001001
00000110
00001001
00000110
00000000
00000000
;

//---------------dance-solo - ----------------
#NOTES:
     dance-solo:
     :
     Challenge:
     12:
     0.501495,0.554165,0.434284,0.048254,0.180952,291.000000,255.000000,36.000000,4.000000,0.000000,0.000000,0.501495,0.554165,0.434284,0.048254,0.180952,291.000000,255.000000,36.000000,4.000000,0.000000,0.000000:
// measure 0
000000
000000
000000
000000
,  // measure 1
000000
000000
000000
000000
,  // measure 2
000000
000000
000000
000000
,  // measure 3
000000
000000
000000
000000
,  // measure 4
000000
000000
000000
000000
,  // measure 5
100100
001001
010000
001000
100000
000010
000100
001000
,  // measure 6
100000
000001
100000
000001
100000
000000
000010
000000
000100
000000
001000
000000
010000
000000
000010
000000
,  // measure 7
000100
000000
001000
000000
010000
000000
000001
000000
100000
000000
000100
000000
001000
000010
001000
000000
,  // measure 8
010010
000000
000000
000000
000100
100000
000000
000100
001000
000000
000001
000000
100000
000000
000110
000000
,  // measure 9
100001
000000
000000
000100
010000
000000
001000
000000
000100
000000
000001
000000
100000
000010
000000
010000
,  // measure 10
001000
000100
000001
000000
001000
000100
010000
101000
,  // measure 11
010001
000000
000000
000010
001000
000000
000100
000000
010000
000000
001000
000000
100000
000000
000001
000000
,  // measure 12
001000
001100
000100
010100
010000
010010
000010
001010
,  // measure 13
001100
000000
000000
000000
000001
000000
100000
000000
001000
000000
000100
000000
000010
010000
000000
000000
,  // measure 14
000100
000000
100000
001000
000000
100000
000001
000000
001100
000000
010010
000000
100001
000000
000000
000000
,  // measure 15
000010
000000
010000
000000
001000
000000
100000
000000
000001
000000
010000
001000
000100
000000
000000
000000
,  // measure 16
000001
000000
000011
000000
001001
000000
000000
000000
100000
000000
000100
001000
000000
000010
010000
000000
,  // measure 17
101000
000000
000001
000100
000010
001000
000100
010000
,  // measure 18
001000
100000
000100
001000
000010
010000
001000
000001
,  // measure 19
010100
000000
000000
000000
000001
000000
100000
000000
000100
000000
010000
000000
000010
100000
001000
000000
,  // measure 20
020000
030020
200030
300002
,  // measure 21
001003
001010
100100
010000
000001
000100
000010
001000
,  // measure 22
001100
000000
000100
010000
000101
100000
011000
000010
,  // measure 23
001000
000100
000000
010000
000000
000000
000001
000000
000100
000000
001000
000000
100000
000000
000010
000000
,  // measure 24
001000
000000
001000
000000
000100
000000
100000
000000
001000
000000
010000
000100
000000
000001
001000
000000
,  // measure 25
000010
011000
000101
100000
000010
010000
001000
100000
,  // measure 26
000001
000000
000100
000010
110000
000100
010010
001000
,  // measure 27
000001
100000
000000
000100
000000
000000
001000
000000
000100
000000
010000
000000
001000
000000
100000
000000
,  // measure 28
000010
000000
000010
000000
001000
000000
000100
000000
010000
000000
000001
100000
000000
000100
001000
000000
,  // measure 29
100001
001000
000010
000100
010000
000001
000100
100000
,  // measure 30
010000
000100
010000
001000
000100
000001
010000
000100
,  // measure 31
001100
100000
000010
000001
001000
000100
010000
001000
,  // measure 32
100000
000001
000100
000010
001000
000100
010000
001000
,  // measure 33
101000
000001
010000
100000
000100
010000
000010
000001
,  // measure 34
000100
001000
000100
000010
001000
000100
100000
000010
,  // measure 35
000110
010000
000001
000010
100000
001000
000100
010000
,  // measure 36
000001
000100
100000
000001
001000
100000
010010
010010
010010
010010
000000
000000
;
