#TITLE:La libertad;
#SUBTITLE:;
#ARTIST:Cheryl Horrocks;
#TITLETRANSLIT:;
#SUBTITLETRANSLIT:;
#ARTISTTRANSLIT:;
#GENRE:;
#CREDIT:;
#BANNER:La libertad-bn.png;
#BACKGROUND:La libertad-bg.png;
#LYRICSPATH:;
#CDTITLE:;
#MUSIC:La libertad.ogg;
#OFFSET:0.000000;
#SAMPLESTART:23.993999;
#SAMPLELENGTH:20.000000;
#SELECTABLE:YES;
#DISPLAYBPM:170.000000;
#BPMS:0.000000=170.615997
,4.000000=170.003998
;
#STOPS:
;
#BGCHANGES:;
#KEYSOUNDS:;
#ATTACKS:;

//---------------dance-single - ----------------
#NOTES:
     dance-single:
     :
     Challenge:
     17:
     0.970558,1.034464,0.354141,0.121153,0.917970,729.000000,691.000000,38.000000,13.000000,0.000000,0.000000,0.970558,1.034464,0.354141,0.121153,0.917970,729.000000,691.000000,38.000000,13.000000,0.000000,0.000000:
0000
0000
0000
0000
,
0000
0000
0000
0000
,
0000
0000
0000
0000
,
0000
0000
0000
0000
,
0000
0000
0000
0000
0000
0000
0000
0000
0000
0000
1000
0010
0100
0001
0010
0100
,
1000
0000
0000
0000
0001
0100
0001
0100
0001
0000
0000
0000
1000
0010
1000
0010
,
1000
0000
0000
0000
0100
0010
0100
0010
0100
0000
1000
0001
0100
0010
1000
0001
,
0010
0000
0100
1000
0010
0000
0100
0001
0010
0000
0100
0010
0001
1000
0010
1000
,
0100
0000
1000
0010
1000
0000
0001
0010
0001
0000
0100
0001
1000
0001
0010
0100
,
1000
0000
0020
0100
0000
0000
1000
0001
0000
0000
0001
1000
0000
0000
0130
0010
,
0001
0000
0200
0010
0000
0000
0001
1000
0000
0000
1000
0001
0000
0000
0310
0100
,
1000
0000
0200
0010
0000
0000
1000
0001
0000
0000
0001
1000
0000
0000
0310
0100
,
1000
0000
0001
1000
0010
1000
0100
0010
0002
0000
0000
0000
1003
0001
0010
0100
,
1000
0000
0020
0001
0000
0000
1000
0001
0000
0000
0001
1000
0000
0000
0130
0001
,
0010
0000
0200
1000
0000
0000
0001
1000
0000
0000
1000
0001
0000
0000
1300
0010
,
0100
0000
0001
0010
0100
0000
1000
0001
0100
0000
0010
1000
0100
0010
0001
1000
,
0010
0000
0000
0000
0100
0001
0010
0100
1000
0000
0001
0100
0001
0000
0010
0000
,
0100
1000
0010
1000
0001
0010
0100
1000
,
0010
0000
0100
0001
1000
0000
0100
1000
0001
0000
0010
0100
1000
0000
0001
0100
,
0001
0010
0001
0100
0010
1000
0100
0010
,
0001
0000
1000
0000
0010
0000
1000
0000
0001
0000
0010
0000
0100
1000
0001
0100
,
0010
0000
1000
0001
1000
0000
0001
0010
0001
0000
0010
0100
0010
0000
0100
1000
,
0100
0000
1000
0001
1000
0000
0100
0010
0100
0000
0010
0001
0010
0000
0001
0100
,
0001
0000
1000
0010
0100
0000
0001
0010
0100
0000
1000
0001
0100
0000
0010
1000
,
0001
0000
0010
0100
1000
0000
0001
0000
0100
0000
0010
0000
1000
0001
1000
0100
,
0010
0000
0011
0000
0000
0000
0001
0100
1000
0000
0010
0000
0100
0000
0001
1000
,
0100
0000
1100
0000
0000
0000
0010
0001
0100
0000
0010
0000
1000
0000
0100
0010
,
0001
0000
0101
0000
0000
0000
1000
0010
0100
0000
1010
0000
0000
0000
0001
0100
,
1000
0000
0010
0000
0001
0000
0010
0000
1000
0100
0010
0001
0100
0000
0001
1000
,
0010
0000
1010
0000
0000
0000
0100
0001
0010
0000
0100
1000
0001
0000
0100
0010
,
1000
0000
1100
0000
0000
0000
0001
0010
0100
0000
1000
0001
0100
0000
0010
1000
,
0001
0000
0101
0000
0000
0000
1000
0100
0010
0000
0011
0000
0000
0000
0001
0100
,
1000
0000
0010
1000
0100
0000
1000
0001
0100
0000
0010
1000
0100
0000
0010
0001
,
1000
0000
0101
0000
0000
0000
0001
0010
1000
0000
0101
0000
0000
0000
0001
0010
,
1000
0000
0100
0000
1000
0010
0100
0001
0010
0000
0010
0000
0010
0000
0001
0100
,
1000
0000
0011
0000
0000
0000
0001
0100
1000
0000
0011
0000
0000
0000
0100
0001
,
0010
0000
0100
0000
1000
0001
0100
0010
1000
0000
1000
0000
1000
0000
0010
0100
,
0001
0010
0100
1000
0010
0000
0100
0001
1000
0000
0100
0000
0001
0000
0010
0001
,
0100
0000
0010
0000
1000
0001
1000
0100
0010
0000
0010
0000
0010
0000
0001
1000
,
0001
0000
0100
0000
0010
1000
0100
1000
0010
0000
0100
0000
0001
0000
0010
0100
,
0010
0000
0000
0000
0001
0100
0010
1000
0001
0000
1000
0000
0100
0000
0010
0001
,
0100
0010
0100
0001
0100
1000
0100
0001
,
0020
0000
0130
1000
0010
0100
0001
0000
,
1000
0010
0100
0010
0001
0010
1000
0001
,
0200
0000
0310
1000
0001
1000
0100
0000
,
2000
0000
3010
0100
0001
1000
0100
0000
,
0020
0000
0031
0100
1000
0100
0001
0000
,
0011
0110
1100
0101
,
1100
0000
0010
0001
0100
0000
0010
1000
0100
0000
1000
0010
0100
0000
0001
0000
,
0011
0000
0010
0100
1000
0000
0010
1000
0001
0000
1000
0100
0010
0000
0001
0000
,
0101
0000
0100
0010
1000
0000
1100
0000
0110
0000
0001
1000
0010
0000
1010
0000
,
1001
0000
0001
1000
0100
0000
0110
0000
0011
0000
0100
0001
1000
0000
0101
0000
,
1010
1000
1100
0100
0110
0010
0011
0001
,
0101
0000
0010
1000
0100
0010
0001
0100
0001
0000
1000
0001
0010
0100
1000
0000
,
0000
0000
0010
0000
1000
0000
0100
0000
1000
0000
0010
0000
1000
0001
1000
0000
,
0000
0000
0001
0000
0010
0000
0100
0000
0010
0000
0001
0000
0010
0100
0010
0000
,
0000
0100
1000
0010
1000
0001
0010
0100
,
1000
0000
0010
1000
0100
0000
1000
0010
0001
0000
0100
0010
1000
0000
0001
0010
,
0100
0000
1000
0001
1000
0000
0010
0000
0100
0000
0001
0010
0100
0000
1000
0001
,
1000
0000
0010
0100
0001
0000
1000
0001
0010
0000
0100
1000
0001
0000
0100
0010
,
0100
0000
0001
0010
1000
0000
0001
0100
0010
0000
1000
0000
0100
0000
1000
0001
,
0010
0000
0100
0010
0001
0000
0100
0010
1000
0000
0001
1000
0100
0000
0010
0000
,
0110
0000
0001
0010
0001
0000
0100
0010
1000
0000
0100
0010
0100
1000
0010
0100
,
0001
0000
1000
0001
0010
0000
0100
0010
0001
0000
0100
0010
1000
0001
1000
0100
,
0010
0000
0001
0100
0001
0000
0010
0100
1000
0000
0010
1000
0100
0000
1000
0001
,
0010
0000
0100
0010
0100
0000
1000
0010
0001
0000
1000
0001
0100
0000
0010
1000
,
0001
0000
0010
0100
1000
0000
0001
1000
0010
0000
0100
0010
1000
0000
0001
0010
,
0100
0000
1000
0001
1000
0000
0010
0100
0001
0000
0010
0100
1000
0000
0010
0000
,
0101
0000
0000
0000
1010
0000
1000
0100
0010
0000
0001
0100
0010
0000
1000
0000
,
1001
0000
0001
0010
0100
1000
0010
0100
0001
1000
0001
0010
0001
0000
0011
0000
,
1100
0000
0010
1000
0001
0000
0010
0000
0200
0000
0000
0000
1300
0010
0100
0001
,
1000
0000
0100
0010
0100
1000
0010
0100
0001
0010
0001
0100
0010
0000
1000
0100
,
0001
0000
0000
0000
1000
0010
0001
0100
1000
0000
0000
0000
0202
0000
0000
0000
,
0000
0000
0000
0000
,
0303
0000
0000
0000
;

//---------------dance-single - ----------------
#NOTES:
     dance-single:
     :
     Hard:
     15:
     0.825441,0.862053,0.335502,0.121153,0.503253,620.000000,584.000000,36.000000,13.000000,0.000000,0.000000,0.825441,0.862053,0.335502,0.121153,0.503253,620.000000,584.000000,36.000000,13.000000,0.000000,0.000000:
0000
0000
0000
0000
,
0000
0000
0000
0000
,
0000
0000
0000
0000
,
0000
0000
0000
0000
,
0000
0000
0000
0000
0000
0000
0000
0000
0000
0000
1000
0001
1000
0001
1000
0001
,
1000
0000
0000
0000
0100
0010
0100
0010
0100
0000
0000
0000
1000
0001
1000
0001
,
1000
0000
0000
0000
0010
0100
0010
0100
0010
0000
0000
0000
0100
0001
0100
0001
,
0100
0000
0010
0000
0100
0000
0001
0000
0100
0000
0010
1000
0010
0100
0010
1000
,
0001
0000
0010
0000
0100
0000
1000
0001
0100
0000
0010
0000
1000
0001
1000
0100
,
0010
0000
0001
0000
0100
0000
1000
0000
0100
0000
0001
0000
0100
0000
0010
1000
,
0001
0000
1000
0000
0100
0000
0001
0000
0100
0000
0010
0000
0100
0000
1000
0001
,
0100
0000
0010
0000
0100
0000
0001
0010
0001
0000
0100
0000
0010
0000
1000
0100
,
0010
0000
0000
0000
0001
1000
0100
1000
0002
0000
0000
0000
0003
0000
0100
0001
,
1000
0000
0010
0000
0001
0000
0010
0000
0100
0000
0010
0000
0001
0000
0010
1000
,
0100
0000
0010
0000
1000
0000
0010
0000
0100
0000
0010
0000
0001
0000
1000
0001
,
0200
0000
0000
0000
0300
0000
0010
1000
0002
0000
0000
0000
1003
0100
0010
0000
,
0011
0000
1100
0000
0101
0010
1000
0100
,
1000
0000
0010
0100
0001
0100
0010
1000
,
0100
0000
0001
0000
0100
0000
1000
0000
0010
0000
0100
0000
0001
0000
0010
0100
,
1000
0000
0001
1000
0010
0100
0010
1000
,
0100
0000
0001
0000
0100
0000
1000
0000
0010
0000
0100
0000
0001
1000
0001
1000
,
0100
0010
0100
0001
0100
1000
0100
0010
,
0001
0100
0010
0001
0010
1000
0100
0010
,
0001
0100
0001
1000
0010
0001
0010
1000
,
0100
0000
0010
0000
0100
0000
0001
0000
0100
0000
1000
0000
0010
0100
0001
1000
,
0100
0000
0020
0000
0000
0000
0031
0100
0010
0000
1000
0000
0001
0000
0000
0000
,
1000
0000
0200
0000
0000
0000
0310
0100
1000
0000
0001
0000
0100
0000
0000
0000
,
0010
0000
2000
0000
0000
0000
3001
1000
0100
0000
0010
0000
0001
0000
0000
0000
,
0101
0000
0000
0000
1100
0000
0000
0000
0001
0100
0010
0100
0001
0000
1000
0001
,
1000
0000
0100
0000
0010
0000
0001
0100
0001
0000
1000
0000
0010
0000
0100
0001
,
1000
0000
0010
0000
1000
0000
0100
0010
0001
0000
0100
0000
0010
0000
1000
0001
,
0100
0000
0010
0000
1000
0000
0001
0010
0001
0000
0100
0000
0010
0000
1000
0001
,
1000
0000
0100
0010
0100
0000
1000
0001
0100
0000
0010
1000
0010
0000
0100
0001
,
1000
0000
1100
0000
0000
0000
0010
0001
0100
0000
0101
0000
0000
0000
0010
1000
,
0001
0000
0100
0000
0010
1000
0001
1000
0100
0000
0010
0000
0002
0000
0000
0000
,
1003
0000
1010
0000
0000
0000
0010
0100
0001
0000
0011
0000
0000
0000
0100
0010
,
0100
0000
1000
0000
0010
0100
0001
1000
0001
0000
0010
0000
0100
1000
0010
1000
,
0001
0000
0100
0001
0010
0000
0100
1000
0010
0000
0100
0000
0001
0000
1000
0010
,
1000
0000
0001
0000
1000
0100
0010
0001
0100
0000
0010
0000
1000
0000
0001
0010
,
0001
0000
0100
0000
0001
1000
0100
0010
0001
0000
1000
0000
0100
0000
1000
0000
,
1010
0000
0101
0000
0011
0100
1000
0001
,
0100
0000
0001
0010
0001
1000
0000
0020
,
0000
1000
0100
1030
,
0001
0000
0010
0001
1000
0010
0000
0200
,
0000
0010
0001
0310
,
2000
0000
3000
0001
1000
0001
0100
0000
,
0020
0000
0030
0100
0001
0100
0010
0000
,
1010
0101
0011
1100
,
1001
0000
1000
0010
1000
0000
0001
0010
0001
0000
0100
0010
0100
0000
0001
1000
,
0001
0000
0010
1000
0010
0000
0100
1000
0100
0000
0010
0000
0001
0000
0100
0000
,
0110
0010
1000
0001
0101
0100
0010
1000
,
1100
0100
0010
0001
0011
1000
0001
0100
,
0110
1010
0101
0011
,
1100
0000
0000
0000
0001
1000
0010
1000
0001
0000
0100
0000
0010
0000
1000
0000
,
0000
0000
0001
0000
0010
0000
0001
0000
0100
0000
0001
0000
1000
0001
1000
0000
,
0000
0000
0010
0000
1000
0000
0100
0000
1000
0000
0010
0000
1000
0001
1000
0000
,
0000
0100
0010
0100
1000
0001
0100
0010
,
1010
0000
0000
0000
1100
0000
0000
0000
0011
0000
0000
0000
1000
0001
0100
0001
,
1000
0000
0010
0100
0001
0000
0010
0100
1000
0000
0001
0000
0100
0000
0010
0000
,
1000
0000
0001
0010
0001
0000
0010
0100
0010
0000
0100
1000
0100
0000
1000
0001
,
1000
0000
0010
0000
0100
0000
0001
0000
0010
0000
0100
0000
1000
0010
0100
0001
,
1000
0000
1001
0000
0110
1000
0010
0001
,
0100
0000
1000
0000
0100
0000
0001
0000
0100
0000
0010
0000
1000
0001
0010
0100
,
1000
0000
0010
0000
0001
0000
0010
0000
0100
0000
0010
0000
1000
0001
0100
0001
,
0010
0000
0100
0000
1000
0000
0001
0000
0100
0000
0010
1000
0010
0000
0100
0001
,
1000
0000
0100
0010
0100
0000
1000
0001
0100
0000
0010
0100
0001
0000
1000
0100
,
1000
0000
0010
0000
0100
0000
0001
0000
0010
0000
0100
0000
1000
0000
0001
0010
,
0001
0000
0100
0000
0010
0000
0100
0000
1000
0000
0100
0000
0001
0000
1000
0100
,
0010
0000
0000
0000
0011
0000
0001
0100
0001
0000
1000
0000
0100
0000
0010
0000
,
0110
0000
0010
0001
0100
0000
0010
0000
1000
0000
1000
0000
1000
0000
1100
0000
,
0101
0000
0001
0010
0100
0000
1000
0000
1000
0000
0000
0000
0010
0000
0100
0001
,
1000
0000
0001
0010
0100
0000
1000
0010
0100
0000
0001
0000
0001
0000
1000
0001
,
0010
0000
0000
0000
0001
0100
0010
1000
0100
0000
0000
0000
2020
0000
0000
0000
,
0000
0000
0000
0000
,
3030
0000
0000
0000
;

//---------------dance-single - ----------------
#NOTES:
     dance-single:
     :
     Medium:
     12:
     0.532542,0.586196,0.149112,0.391419,0.000000,400.000000,384.000000,16.000000,42.000000,0.000000,0.000000,0.532542,0.586196,0.149112,0.391419,0.000000,400.000000,384.000000,16.000000,42.000000,0.000000,0.000000:
0000
0000
0000
0000
,
0000
0000
0000
0000
,
0000
0000
0000
0000
,
0000
0000
0000
0000
,
0000
0000
0000
0000
0000
1000
0010
0100
,
0001
0000
0010
0100
1000
0000
0010
0100
,
0001
0000
1000
0001
0100
0000
0010
1000
,
0200
0000
0001
0000
1300
0010
0100
0001
,
0020
0000
0130
1000
0002
0000
1003
0010
,
1000
0002
0000
0010
0000
1000
0000
0013
,
0100
2000
0000
0010
0000
0100
0000
3001
,
1000
0020
0000
0100
0000
0001
0000
1030
,
0010
0000
0100
0001
2000
0000
3100
0010
,
0100
2000
0000
0100
0000
0010
0000
3001
,
0100
0002
0000
0010
0000
1000
0000
0103
,
0020
0000
0030
1000
0002
0000
0013
0100
,
1000
0000
1001
0000
0110
0000
0100
0001
,
0010
0000
0001
1000
0001
0100
0000
0020
,
0000
0000
1030
0000
0010
0100
0000
0000
,
0000
0000
0001
0010
0001
1000
0000
0020
,
0000
0000
0130
0000
0010
0000
1000
0001
,
0100
0001
0010
0001
1000
0010
0000
0100
,
0002
0000
0013
0000
0001
0100
0010
1000
,
0000
0000
0100
1000
0001
0100
0000
0010
,
2000
0000
3002
0000
0013
0100
1000
0001
,
0100
0010
0000
0010
1000
0100
0001
0000
,
1000
0010
0000
0010
0100
0001
1000
0000
,
0001
1000
0000
0100
0010
0001
0100
0000
,
0110
0000
1001
0000
1000
0010
0100
0001
,
1000
0100
0000
0100
0010
0001
1000
0000
,
0001
0100
0000
0100
0010
1000
0001
0000
,
0010
0001
0000
0001
1000
0010
0000
0100
,
0002
0000
0023
0000
0230
0000
1300
0001
,
1000
0010
0000
0010
1000
0010
0000
0010
,
1000
0001
1000
0100
0010
0001
0100
0000
,
0001
0010
0000
0010
0001
0010
0000
0010
,
0100
1000
0010
1000
0001
0100
0010
0000
,
1000
0001
0100
0001
1000
0100
0010
0001
,
0100
0010
0100
0001
0010
0100
1000
0000
,
0001
0100
0010
0100
0001
0010
0100
1000
,
0010
0000
0101
0000
1100
0000
1000
0001
,
0000
0000
0010
0001
1000
0001
0000
0200
,
0000
0310
0100
0001
,
0000
0000
1000
0010
1000
0001
0000
0200
,
0000
0310
1000
0100
,
2000
0000
3000
0001
0100
0000
0000
0000
,
0002
0000
0003
0010
0100
0000
1000
0000
,
0020
1000
0001
0130
,
1010
0000
0100
0001
0010
0000
0011
0000
,
1100
0000
0001
0100
0010
1000
0001
1000
,
0100
0000
1000
0001
1000
0000
0010
0100
,
0001
0000
0010
0100
1000
0000
0001
0100
,
0002
0023
0230
2300
,
3001
0000
1000
0010
1000
0100
0010
0001
,
0000
0100
0010
0100
0001
0100
0000
0000
,
0000
0010
1000
0001
1000
0010
0000
0000
,
0000
0100
0001
0100
0010
1000
0001
1000
,
0200
0320
0032
2003
,
3010
1000
0100
1000
0010
0100
0001
0000
,
0010
0001
0100
1000
,
0001
0010
0001
0100
0010
1000
0001
0010
,
0100
0000
1100
0000
0011
0000
1000
0001
,
0100
0000
0001
0010
0001
0100
0010
1000
,
0100
0000
1000
0001
1000
0010
0100
0001
,
1000
0000
0001
1000
0001
0010
0100
1000
,
0020
2030
3002
0203
,
0301
0010
0100
2000
0000
3002
0000
1003
,
0010
0000
0100
0000
0001
0010
1000
0000
,
0101
0000
2020
0000
3030
1000
0100
0010
,
0001
1000
0001
0100
0010
1000
0100
0010
,
0001
1000
0001
0100
0010
0000
1001
0000
,
0110
0000
1000
0010
1000
0001
0010
0100
,
1000
0001
0100
0202
,
0000
0000
0000
0000
,
0303
0000
0000
0000
;

//---------------dance-single - ----------------
#NOTES:
     dance-single:
     :
     Easy:
     8:
     0.404732,0.586196,0.298224,0.354141,0.000000,304.000000,272.000000,32.000000,38.000000,0.000000,0.000000,0.404732,0.586196,0.298224,0.354141,0.000000,304.000000,272.000000,32.000000,38.000000,0.000000,0.000000:
0000
0000
0000
0000
,
0000
0000
0000
0000
,
0000
0000
0000
0000
,
0000
0000
0000
0000
,
0000
0000
0000
0000
,
1000
0001
1000
0100
,
0010
0001
0100
0010
,
1000
0010
1000
0001
,
0020
0030
0200
0300
,
1000
0002
0000
0000
0000
0000
0003
0010
,
0001
0200
0000
0000
0000
0000
0300
0010
,
1000
0200
0000
0000
0000
0000
0300
0000
,
2000
3002
0203
0300
,
0010
2000
0000
0000
0000
0000
3000
0100
,
1000
0002
0000
0000
0000
0000
0003
0010
,
0200
0000
0300
1000
0002
0000
0003
0000
,
1001
0110
1001
0000
,
0010
1000
0001
1000
,
0100
0010
0001
0100
,
0001
1000
0001
0010
,
0100
1000
0010
0100
,
0110
0010
1000
0100
,
1000
0001
0010
0100
,
0010
0001
0100
0010
,
1000
0001
1000
0100
,
0010
0001
0000
0000
1000
0001
0000
0000
,
0100
0010
0000
0000
1000
0010
0000
0000
,
1000
0100
0000
0000
0010
0001
0000
0000
,
0200
0302
2003
3002
,
0013
0100
0000
0000
1000
0001
0000
0000
,
1000
0010
0000
0000
0100
0001
0000
0000
,
0010
0100
0000
0000
0010
0001
0000
0000
,
2000
3002
0023
0230
,
1300
0001
0000
0000
1000
0001
0000
0000
,
1000
0000
0010
0000
0100
0001
0100
0000
,
0010
0100
0000
0000
0010
0100
0000
0000
,
0010
0000
1000
0000
0001
0100
0001
0000
,
1000
0100
0000
0000
0010
0001
0000
0000
,
0100
0000
0010
0000
1000
0001
1000
0000
,
0001
0100
0010
1000
,
1001
0110
1001
0110
,
0000
1000
0010
1000
,
0100
0010
0001
0001
,
0000
0100
0010
0100
,
0001
1000
0010
0100
,
0002
0003
0101
0000
,
2000
3000
0010
0100
,
0010
0010
1000
0001
,
0012
1000
0100
1003
,
2010
0001
0100
3001
,
2100
3001
0102
1003
,
2010
3001
0012
1003
,
1001
0110
1001
0110
,
1001
0000
1000
0001
0200
0000
0300
0000
,
0000
0010
0000
1000
0000
0010
0000
1000
,
0000
0001
0000
0100
0000
0001
0000
0100
,
0000
0010
0000
0100
0000
0001
0000
1000
,
0100
0100
0100
0100
,
1000
0001
1000
0000
0100
0010
0001
0000
,
2000
0010
0100
3001
,
0010
0000
0001
0000
0100
0010
1000
0000
,
0101
1100
0101
1100
,
0002
0000
0010
0000
1000
0000
0103
0010
,
2000
0000
0100
0000
0010
0000
3001
1000
,
0010
0000
0100
0000
0001
1000
0001
0000
,
0010
0001
0100
1000
,
0000
0010
1000
0002
0000
2003
0000
3010
,
0100
0001
0010
1000
,
1001
0000
0220
0000
0330
1000
0010
0100
,
0001
0000
0010
0000
0001
1000
0010
1000
,
0001
0000
0100
0010
1000
0000
1100
0000
,
0011
0000
0100
0001
0010
0001
0100
0000
,
1010
0101
0011
2002
,
0000
0000
0000
0000
,
3003
0000
0000
0000
;

//---------------dance-single - ----------------
#NOTES:
     dance-single:
     :
     Beginner:
     4:
     0.195709,0.275857,0.018639,0.093195,0.000000,147.000000,145.000000,2.000000,10.000000,0.000000,0.000000,0.195709,0.275857,0.018639,0.093195,0.000000,147.000000,145.000000,2.000000,10.000000,0.000000,0.000000:
// measure 0
0000
0000
0000
0000
,  // measure 1
0000
0000
0000
0000
,  // measure 2
0000
0000
0000
0000
,  // measure 3
0000
0000
0000
0000
,  // measure 4
0000
0000
0000
0000
,  // measure 5
1000
0000
0001
0000
,  // measure 6
0010
0000
0100
0000
,  // measure 7
1000
1000
1000
1000
,  // measure 8
1000
0000
0001
0000
,  // measure 9
0200
0000
0300
0000
,  // measure 10
0020
0000
0030
0000
,  // measure 11
2000
0000
3000
0000
,  // measure 12
0001
0001
0001
0000
,  // measure 13
0020
0000
0030
0000
,  // measure 14
0002
0000
0003
0000
,  // measure 15
1000
0000
0001
0000
,  // measure 16
0100
0100
0100
0000
,  // measure 17
0010
0000
1000
0000
,  // measure 18
0010
0000
0100
0000
,  // measure 19
0001
0000
0010
0000
,  // measure 20
0100
0000
1000
0000
,  // measure 21
0001
0000
1000
0000
,  // measure 22
0001
0000
0100
0000
,  // measure 23
0010
0000
1000
0000
,  // measure 24
0100
0000
0010
0000
,  // measure 25
0001
0000
1000
0000
,  // measure 26
0001
0000
0100
0000
,  // measure 27
0010
0000
1000
0000
,  // measure 28
0100
0100
0100
0100
,  // measure 29
0100
0000
0010
0000
,  // measure 30
0001
0000
0100
0000
,  // measure 31
0010
0000
1000
0000
,  // measure 32
0001
0001
0001
0001
,  // measure 33
0001
0000
1000
0000
,  // measure 34
0010
0010
0010
0000
,  // measure 35
0100
0000
0010
0000
,  // measure 36
1000
1000
1000
0000
,  // measure 37
0001
0000
0010
0000
,  // measure 38
0001
0000
0100
0000
,  // measure 39
0010
0000
1000
0000
,  // measure 40
0100
0100
0100
0000
,  // measure 41
0000
0000
1000
0000
,  // measure 42
0001
0000
1000
0000
,  // measure 43
0000
0000
0010
0000
,  // measure 44
0100
0000
0010
0000
,  // measure 45
1000
0000
1000
0000
,  // measure 46
0001
0000
0001
0000
,  // measure 47
0010
0000
0100
0000
,  // measure 48
2000
0000
3000
0000
,  // measure 49
0002
0000
0003
0000
,  // measure 50
0100
0000
0001
0000
,  // measure 51
0100
0000
0010
0000
,  // measure 52
1000
1000
1000
1000
,  // measure 53
1000
1000
1000
0000
,  // measure 54
0001
0000
0000
0000
,  // measure 55
1000
0000
0000
0000
,  // measure 56
0010
0000
1000
0000
,  // measure 57
0100
0100
0100
0100
,  // measure 58
0100
0000
0010
0000
,  // measure 59
0001
0001
0001
0000
,  // measure 60
0100
0000
0010
0000
,  // measure 61
1000
1000
1000
0000
,  // measure 62
0002
0000
0003
0000
,  // measure 63
0020
0000
0030
0000
,  // measure 64
0001
0000
0100
0000
,  // measure 65
0010
0010
0010
0010
,  // measure 66
0010
0000
1000
0000
,  // measure 67
0100
0100
0100
0000
,  // measure 68
0010
0010
0000
0000
,  // measure 69
0110
0000
0000
0000
,  // measure 70
1001
0000
0000
0100
,  // measure 71
0100
0000
0010
0000
,  // measure 72
1000
1000
1000
2000
,  // measure 73
0000
0000
0000
0000
,  // measure 74
3000
0000
0000
0000
;
