#VERSION:0.83;
#TITLE:La libertad (FOOTSWITCH Special);
#SUBTITLE:;
#ARTIST:Cheryl Horrocks;
#TITLETRANSLIT:;
#SUBTITLETRANSLIT:;
#ARTISTTRANSLIT:;
#GENRE:;
#ORIGIN:;
#CREDIT:;
#BANNER:La libertad (FOOTSWITCH Special)-bn.png;
#BACKGROUND:La libertad (FOOTSWITCH Special)-bg.png;
#PREVIEWVID:;
#JACKET:La libertad (FOOTSWITCH Special)-jacket.png;
#CDIMAGE:;
#DISCIMAGE:;
#LYRICSPATH:;
#CDTITLE:;
#MUSIC:La libertad (FOOTSWITCH Special).ogg;
#OFFSET:0.000000;
#SAMPLESTART:87.550003;
#SAMPLELENGTH:15.000000;
#SELECTABLE:YES;
#DISPLAYBPM:170.000000;
#BPMS:0.000=170.616,
4.000=170.004;
#STOPS:;
#DELAYS:;
#WARPS:;
#TIMESIGNATURES:0.000=4=4;
#TICKCOUNTS:0.000=4;
#COMBOS:0.000=1;
#SPEEDS:0.000=1.000=0.000=0;
#SCROLLS:0.000=1.000;
#FAKES:;
#LABELS:0.000=Song Start;
#BGCHANGES:;
#KEYSOUNDS:;
#ATTACKS:
;

//---------------dance-single - ----------------
#NOTEDATA:;
#CHARTNAME:;
#STEPSTYPE:dance-single;
#DESCRIPTION:;
#CHARTSTYLE:;
#DIFFICULTY:Challenge;
#METER:17;
#RADARVALUES:0.882689,0.927872,0.866713,0.270265,0.596447,663.000000,570.000000,93.000000,29.000000,0.000000,0.000000,0.000000,0.000000,0.000000,0.882689,0.927872,0.866713,0.270265,0.596447,663.000000,570.000000,93.000000,29.000000,0.000000,0.000000,0.000000,0.000000,0.000000;
#CREDIT:;
#DISPLAYBPM:170.000000;
#NOTES:
// measure 0
0000
0000
0000
0000
,  // measure 1
0000
0000
0000
0000
,  // measure 2
0000
0000
0000
0000
,  // measure 3
0000
0000
1000
0010
0000
0000
0001
0000
0000
0000
0001
0010
0000
0000
1000
0000
,  // measure 4
0000
0000
1000
0010
0000
0000
0001
0000
0010
0001
0010
0001
1000
0010
1000
0010
,  // measure 5
0100
1001
0010
1001
,  // measure 6
1000
0110
0001
0110
,  // measure 7
0001
0000
0010
0001
0010
0000
0100
0001
1000
0000
0010
1000
0100
0010
0100
1000
,  // measure 8
0001
0000
0000
0000
0011
0000
1000
0010
0200
0000
0000
0000
0300
0000
0001
1000
,  // measure 9
0001
0000
0101
0000
1000
0000
0101
0000
0010
0000
0101
0000
0001
0000
0100
0010
,  // measure 10
1000
0000
1100
0000
0001
0000
1100
0000
0010
0000
1100
0000
0100
0000
0001
1000
,  // measure 11
0100
0011
1000
1010
0100
0011
0001
1010
,  // measure 12
2001
0000
0000
0000
3010
0001
0010
0100
2000
0000
0000
0000
3000
0000
0010
1000
,  // measure 13
0001
0000
0011
0000
0100
0000
0011
0000
0001
0000
0011
0000
0100
0000
1000
0001
,  // measure 14
0100
0000
1010
0000
0001
0000
1010
0000
1000
0000
1010
0000
0100
0000
0010
0100
,  // measure 15
0002
0000
0000
0000
0003
0000
1000
0100
0002
0000
0000
0000
0003
0000
0010
0001
,  // measure 16
1000
1001
0110
1001
,  // measure 17
1100
0000
0001
0100
0001
0000
1000
0100
1000
0000
0001
0100
0001
0000
2000
0000
,  // measure 18
3020
0000
0130
0001
0011
0100
1000
0000
,  // measure 19
0001
0000
0100
0010
0100
0000
0001
0010
0001
0000
1000
0010
1000
0000
0002
0000
,  // measure 20
0203
0001
0301
0000
1100
0001
0101
0000
,  // measure 21
0010
0000
1000
0001
1000
0000
0001
0010
0100
0000
1000
0010
0001
0000
0100
0010
,  // measure 22
2000
0000
3100
0010
1100
0001
0100
0000
,  // measure 23
0001
0000
1000
0001
0010
0000
0100
1000
0100
0000
0010
0001
1000
0000
0002
0000
,  // measure 24
0100
0000
0000
0000
1003
0000
0010
1000
0001
0000
0100
0000
1000
0000
0000
0000
,  // measure 25
0010
0000
1001
0000
0000
0000
0100
0001
1000
0000
1000
0000
0100
0000
0000
0000
,  // measure 26
0001
0000
0110
0000
0000
0000
1000
0100
0010
0000
0010
0000
0001
0000
0000
0000
,  // measure 27
0100
0000
1001
0000
0000
0000
0010
0001
1000
0000
1000
0000
0001
0000
0000
0000
,  // measure 28
1100
0000
0000
0000
0011
0000
0000
0000
1000
0100
1000
0100
0010
0100
1000
0010
,  // measure 29
0100
0000
1010
0000
0000
0000
0001
0100
1000
0000
0011
0000
1100
0000
0000
0000
,  // measure 30
0001
0000
1100
0000
0000
0000
0010
1000
0001
0000
0101
0000
1010
0000
0000
0000
,  // measure 31
0100
0000
0011
0000
0000
0000
1000
0010
0100
0000
1010
0000
0101
0000
0000
0000
,  // measure 32
1100
0000
0010
0100
0001
0000
1000
0001
0100
0010
0100
0010
1000
0100
0010
0001
,  // measure 33
0100
0000
0200
0000
0300
0000
0010
1000
0100
0000
0200
0000
0300
0000
0010
1000
,  // measure 34
0100
0000
0100
0000
1000
0001
0010
1000
0100
0000
1010
0000
0011
0000
0000
0000
,  // measure 35
0010
0000
0020
0000
0030
0000
0100
0001
0010
0000
0020
0000
0030
0000
0100
0001
,  // measure 36
0010
0000
0010
0000
0100
1000
0001
0100
0001
0000
1100
0000
1001
0000
0000
0000
,  // measure 37
1000
0000
1000
0000
0001
0100
0001
0100
1000
0000
1000
0000
0001
0100
0001
0100
,  // measure 38
1000
0000
1000
0000
0010
1000
0100
0010
0001
0000
0110
0000
0101
0000
0000
0000
,  // measure 39
0010
0000
1100
0000
0010
1000
0100
1000
0100
0010
0001
1000
0001
0000
0010
0000
,  // measure 40
0101
0000
1100
0000
0101
0010
0100
1000
,  // measure 41
0000
0000
0001
0100
1000
1000
0000
0022
,  // measure 42
0003
1000
0001
1030
,  // measure 43
0000
0000
0001
1000
0100
0100
0000
2020
,  // measure 44
3000
0001
1000
0031
,  // measure 45
2002
0000
3000
0100
2000
0000
3003
0000
,  // measure 46
2002
0000
0003
0100
3002
0000
1003
0000
,  // measure 47
1100
0101
1100
0101
,  // measure 48
0110
0000
0010
1000
0100
0000
0010
1000
0100
0000
0010
1000
0100
0000
0010
1000
,  // measure 49
0100
0000
0010
0001
0100
0000
0010
0001
0100
0000
0010
0001
0100
0000
1010
0000
,  // measure 50
1001
0000
0010
0101
1001
0000
0100
0011
,  // measure 51
1001
0000
0010
1100
1001
0000
0010
0110
,  // measure 52
0010
1000
0010
1000
0001
0010
0001
0010
0100
1000
0100
1000
0001
0100
0001
0100
,  // measure 53
0020
0000
0000
0000
1030
0100
0001
1000
0002
0000
0100
0000
0010
0000
0103
0000
,  // measure 54
0000
1000
1000
0100
0001
0001
0000
0000
,  // measure 55
0000
1000
1000
0010
0001
0001
0000
0000
,  // measure 56
0000
1000
1000
0100
0001
0001
0010
1000
,  // measure 57
1010
0011
1010
0011
,  // measure 58
0100
0000
0001
1000
0100
0000
1000
0001
0010
0000
0010
0000
0101
0000
0000
0000
,  // measure 59
0010
0000
0001
0100
0001
0000
1000
0001
0100
0000
1000
0100
0010
0000
0000
0000
,  // measure 60
0001
0000
1000
0000
1000
0000
0100
0000
0001
0000
0001
0000
1000
0010
0100
0001
,  // measure 61
0010
0000
1100
0000
1010
0001
0100
1000
,  // measure 62
0001
0000
0100
0010
0100
0000
0010
1000
0010
0000
0100
0001
1000
0100
0010
0001
,  // measure 63
0100
0000
0010
1000
0010
0000
1000
0001
1000
0000
0010
0100
0010
1000
0001
0100
,  // measure 64
0001
0000
0010
0100
1000
0000
0001
1000
0010
0000
1000
0001
0010
0100
1000
0010
,  // measure 65
0100
0000
0010
1000
0001
0000
0100
1000
0001
0000
0100
0010
0001
0000
0000
0000
,  // measure 66
0000
1100
0110
0011
1000
0100
0010
0001
,  // measure 67
0110
0000
0001
0100
1000
0000
0001
0010
1000
0000
0001
0100
1000
0000
0001
0010
,  // measure 68
1000
0000
0101
0000
0000
0010
0010
0010
,  // measure 69
0110
0000
0001
1000
0001
0010
0100
0010
1000
0000
1000
0000
1000
0000
1100
0000
,  // measure 70
0101
0000
0010
1000
0010
0100
1000
0010
0001
0000
0000
0000
1001
0000
0000
0000
,  // measure 71
1100
0000
0100
1000
0100
0010
1000
0001
0010
0000
0010
0000
0010
0000
0011
0000
,  // measure 72
1010
0000
0000
0000
0010
1000
0100
1000
0001
0000
0000
0000
0220
0000
0000
0000
,  // measure 73
0000
0000
0000
0330
;
