#TITLE:La SeƱorita;
#SUBTITLE:;
#ARTIST:CAPTAIN.T;
#TITLETRANSLIT:;
#SUBTITLETRANSLIT:;
#ARTISTTRANSLIT:;
#GENRE:;
#CREDIT:;
#BANNER:La Senorita-bn.png;
#BACKGROUND:La Senorita-bg.png;
#LYRICSPATH:;
#CDTITLE:;
#MUSIC:La Senorita.ogg;
#OFFSET:0.000000;
#SAMPLESTART:35.108002;
#SAMPLELENGTH:20.000000;
#SELECTABLE:YES;
#DISPLAYBPM:182.000000;
#BPMS:0.000000=182.048004
,16.000000=182.009995
;
#STOPS:
;
#BGCHANGES:;
#KEYSOUNDS:;
#ATTACKS:;

//---------------dance-single - ----------------
#NOTES:
     dance-single:
     :
     Beginner:
     4:
     0.177265,0.292487,0.009848,0.000000,0.000000,126.000000,125.000000,1.000000,0.000000,0.000000,0.000000,0.177265,0.292487,0.009848,0.000000,0.000000,126.000000,125.000000,1.000000,0.000000,0.000000,0.000000:
0000
0000
0000
0000
,
0000
0000
0000
0000
,
0000
0000
0000
0000
,
0000
0000
0000
0000
,
0000
0000
0000
0000
,
0000
0000
0000
0000
,
1000
1000
0000
0000
,
1000
1000
0000
0000
,
0001
0001
0000
0000
,
0001
0001
0000
0000
,
0001
0000
0000
0000
,
0001
0000
0000
0000
,
1000
0000
0000
0000
,
1000
0000
0000
0000
,
0010
0010
0000
0000
,
0010
0010
0000
0000
,
0100
0100
0000
0000
,
0100
0100
0000
0000
,
0001
0000
0001
0000
,
1000
0000
1000
0000
,
0001
0000
0001
0000
,
1000
0000
1000
0000
,
0010
0010
0000
0000
,
0100
0100
0000
0000
,
1000
1000
1000
0000
,
0001
0001
0001
0001
,
0001
0000
0000
0000
,
0010
0000
0000
0000
,
0001
0000
0000
0000
,
0100
0000
0000
0000
,
1000
0000
0000
0000
,
0010
0000
0000
0000
,
0001
0000
0000
0000
,
0100
0000
0000
0000
,
1000
0000
0000
0000
,
0010
0010
0000
0000
,
0010
0010
0000
0000
,
0010
0010
0000
0000
,
0010
0000
0000
0000
,
0100
0100
0000
0000
,
0100
0100
0000
0000
,
0100
0100
0000
0000
,
0100
0000
0000
0000
,
0000
0000
0000
0000
,
0001
0001
0001
0001
,
0001
0000
0001
0000
,
1000
0000
1000
0000
,
0100
0000
0100
0000
,
0010
0000
0010
0000
,
1000
0000
1000
0000
,
0001
0000
0001
0000
,
0010
0000
0010
0000
,
0100
0000
0100
0000
,
1000
1000
0000
0000
,
0001
0001
0000
0000
,
1000
1000
0000
0000
,
0001
0001
0000
0000
,
0010
0010
0000
0000
,
0100
0100
0000
0000
,
0001
0000
0000
0000
,
1000
1000
1000
1000
,
1000
0000
0000
0000
,
1000
0000
1000
0000
,
0001
0000
0001
0000
,
0010
0000
0010
0000
,
0100
0000
0100
0000
,
0001
0000
0001
0000
,
1000
0000
1000
0000
,
0010
0000
0010
0000
,
0100
0000
0100
0000
,
0001
0001
0000
0000
,
1000
1000
0000
0000
,
0001
0001
0000
0000
,
0100
0100
0000
0000
,
0000
1001
0000
0000
,
0000
0000
0000
0000
;

//---------------dance-single - ----------------
#NOTES:
     dance-single:
     :
     Easy:
     6:
     0.365784,0.511852,0.187113,0.000000,0.000000,260.000000,241.000000,19.000000,0.000000,0.000000,0.000000,0.365784,0.511852,0.187113,0.000000,0.000000,260.000000,241.000000,19.000000,0.000000,0.000000,0.000000:
0000
0000
0000
0000
,
0000
0000
0000
0000
,
0000
0000
0000
0000
,
0000
0000
0000
0000
,
0000
0000
0000
0000
,
0000
0000
0000
0000
,
0000
1000
0000
1000
,
0000
0001
0000
0001
,
0000
1000
0000
1000
,
0000
0001
0000
0001
,
0000
1000
0000
0001
,
0000
1000
0000
0001
,
0000
1000
0000
0001
,
0000
1000
0000
0001
,
0000
0010
0000
0010
,
0000
0100
0000
0100
,
0000
1000
0000
1000
,
0000
0001
0000
0001
,
1001
1000
1000
1000
,
0001
0001
0001
0001
,
1001
1000
1000
1000
,
0001
0001
0001
0001
,
1000
0100
0001
0100
,
1000
0100
0001
0100
,
1000
1000
0001
0001
,
1001
1001
1001
1001
,
0100
0100
0100
0100
,
1001
0100
0001
0100
,
1000
0100
0001
0100
,
1000
1000
0001
0001
,
1000
1000
0001
0001
,
0010
0100
0010
0100
,
0010
0100
0010
0100
,
1000
1000
0001
0001
,
1000
1000
0001
0001
,
1000
0010
1000
0001
,
1000
0010
1000
0001
,
0001
0010
0001
1000
,
0001
0010
0001
1000
,
1000
0100
0001
0100
,
1000
0100
0001
0100
,
1000
1000
0001
0001
,
1000
0000
0001
0000
,
0010
1000
0100
0001
,
1001
1001
1001
1001
,
1000
0100
0001
0100
,
1000
0100
0001
0100
,
1000
1000
0001
0001
,
1000
0001
1000
0001
,
1000
1000
0001
0001
,
1000
1000
0001
0001
,
1000
0001
0100
0100
,
0001
1000
0100
0100
,
1001
0100
1001
0100
,
0001
0001
1000
1000
,
0000
0001
0000
1000
,
0000
0001
0000
1000
,
0001
0001
1000
1000
,
0010
0010
0100
0100
,
1000
1000
0100
0100
,
1001
1001
1001
1001
,
0100
0100
0100
0100
,
1001
0100
0001
0100
,
1000
0100
0001
0100
,
1000
0010
0001
0010
,
1000
0010
0001
0010
,
0010
0010
0100
0100
,
0001
0001
1000
1000
,
0001
0001
1000
1000
,
0001
0100
1000
0010
,
0001
0100
1000
0010
,
0001
0001
1000
0001
,
1000
1000
0001
1000
,
0000
0001
0000
0001
,
0000
1001
0000
0000
,
0000
0000
0000
0000
;

//---------------dance-single - ----------------
#NOTES:
     dance-single:
     :
     Medium:
     8:
     0.392515,0.584974,0.236353,0.000000,0.029544,279.000000,255.000000,24.000000,0.000000,0.000000,0.000000,0.392515,0.584974,0.236353,0.000000,0.029544,279.000000,255.000000,24.000000,0.000000,0.000000,0.000000:
0000
0000
0000
0000
,
0000
0000
0000
0000
,
0000
0000
0000
0000
,
0000
0000
0000
0000
,
0000
0000
0000
0000
,
0000
0000
0000
0000
,
1000
0000
0100
0000
0001
0100
0001
0000
,
0001
0000
0100
0000
1000
0100
1000
0000
,
1000
0000
0100
0000
0001
0100
0001
0000
,
0001
0000
0100
0000
1000
0100
1000
0000
,
0001
0100
1000
0100
,
0001
0100
0001
0100
,
1000
0100
0001
0100
,
1000
0100
1000
0100
,
0001
1000
0001
1000
,
0001
0001
1000
1000
,
0001
1000
0010
0010
,
0100
0100
0010
0010
,
1001
0101
0110
1001
,
1100
1001
0010
0100
,
0101
1100
0010
0010
,
1100
1001
0010
0100
,
0001
1000
0010
0100
,
0001
1000
0100
1000
,
0001
0100
1000
0100
,
0001
0010
0100
1000
,
0001
0100
0010
0010
,
1000
0000
0000
0100
1000
0000
0000
0000
,
0001
0000
0000
0100
0001
0000
0000
0000
,
1000
0000
0000
0100
1000
0000
0000
0000
,
0001
0000
0000
0100
0001
0000
0000
0000
,
0010
0000
0000
1000
0100
0000
0000
0000
,
0010
0000
0000
0001
0100
0000
0000
0000
,
0010
0000
0000
1000
0100
0000
0000
0000
,
0010
0000
0000
0001
0100
0000
0000
0000
,
1000
0100
0001
0100
,
1000
0000
0100
0000
0001
0100
0001
0000
,
1000
0100
0001
0100
,
1000
0001
1000
0000
0000
0000
,
1001
0100
1000
0100
,
0001
0100
0001
0100
,
1000
0100
1000
0100
,
1000
0001
1000
0001
1000
0001
,
0000
1001
1001
1001
,
0100
0100
0100
0100
,
1000
0000
0000
0001
0100
0000
0000
0000
,
0001
0000
0000
1000
0100
0000
0000
0000
,
1000
0000
0000
0001
0100
0000
0000
0000
,
0001
0000
0000
1000
0100
0000
0000
0000
,
0010
0000
0000
1000
0100
0000
0000
0000
,
0001
0000
0000
1000
0100
0000
0000
0000
,
0010
0000
0000
0001
0100
0000
0000
0000
,
1000
0000
0000
0001
0100
0000
0000
0000
,
1001
0101
0110
1001
,
1100
1001
0010
0100
,
0101
1100
0010
0010
,
1100
1001
0010
0100
,
0001
1000
0010
0100
,
0001
1000
0100
1000
,
0001
0100
1000
0100
,
0001
0010
0100
1000
,
0001
0100
0010
0010
,
1000
0000
0000
0100
1000
0000
0000
0000
,
0001
0000
0000
0100
0001
0000
0000
0000
,
1000
0000
0000
0100
1000
0000
0000
0000
,
0001
0000
0000
0100
0001
0000
0000
0000
,
0010
0000
0000
1000
0100
0000
0000
0000
,
0010
0000
0000
0001
0100
0000
0000
0000
,
0010
0000
0000
1000
0100
0000
0000
0000
,
0010
0000
0000
0001
0100
0000
0000
0000
,
1000
1000
0001
0001
,
1000
1000
0001
0001
,
0010
1000
0100
0001
,
0010
0001
0100
1000
,
0000
1000
0001
0000
0000
0000
0000
0000
,
0000
0000
0000
0000
;

//---------------dance-single - ----------------
#NOTES:
     dance-single:
     :
     Hard:
     10:
     0.464265,0.621535,0.354530,0.000000,0.029544,330.000000,294.000000,36.000000,0.000000,0.000000,0.000000,0.464265,0.621535,0.354530,0.000000,0.029544,330.000000,294.000000,36.000000,0.000000,0.000000,0.000000:
0000
0000
0000
0000
,
0000
0000
0000
0000
,
0000
0000
0000
0000
,
0000
0000
0000
0000
,
0000
0000
0000
0000
,
0000
0000
0000
0000
,
1000
0001
0100
0000
0001
1000
0100
0000
,
1000
0001
0100
0000
0001
1000
0100
0000
,
1000
0001
0100
0000
0001
1000
0100
0100
,
0000
0100
0000
1000
0001
1000
0100
0000
,
0000
1000
1000
0000
0000
0001
0001
0000
,
1000
0010
0000
0001
0000
0100
0100
0000
,
0000
1000
1000
0000
0010
0001
0001
1000
,
0000
0001
0000
0100
0001
1000
0010
0100
,
0100
0000
0000
1000
0001
0000
0000
0010
,
1000
0001
0000
0100
0000
1000
0000
0001
,
0000
0100
0000
0000
0000
1000
0001
0100
,
0000
0001
0000
1000
0001
0100
0100
0000
,
1000
0000
0000
0010
0000
0000
0001
0000
,
0000
0100
0000
0000
1001
0000
1001
0000
,
0010
0000
0000
1000
0000
0000
0001
0000
,
0100
0010
0000
1000
0000
0000
1000
0000
,
0001
0000
0000
1000
0000
0000
0010
0000
,
0000
0100
0000
0000
1001
0000
1001
0000
,
0010
0000
0000
0001
0000
0100
0100
0000
,
1001
1001
1001
1001
,
0000
1000
0000
0001
0000
0010
1000
0001
,
0000
1001
0100
0010
,
1000
0000
1000
0000
0001
1000
0100
0000
,
0000
0000
0010
0000
0001
1000
0010
0001
,
0000
0001
0000
0000
1000
0001
1000
0001
,
0000
1001
0100
0010
,
0001
1000
0100
0010
0000
0000
0001
0000
,
0000
0000
0010
0000
1000
0001
0100
1000
,
0000
0100
0000
0000
0000
0000
0000
0000
,
0000
1001
0000
0000
0000
0000
0000
0010
,
0100
0000
0000
1000
0001
1000
0001
0000
,
0000
1001
0000
0000
,
0100
0000
1000
0000
0001
0000
0000
0000
0000
1001
0000
0000
,
0000
0100
0000
1001
0000
0000
0000
0010
,
0010
0000
0000
0001
1000
0010
0100
0100
,
0000
0101
0000
0000
,
0010
1000
0001
0010
1000
0001
,
0000
0000
1001
0100
0010
0001
0100
0001
,
0100
0001
0100
0001
1001
0000
1001
0000
,
0000
1000
1000
0000
0000
0001
0001
0000
,
1000
0010
0000
0001
0000
0100
0100
0000
,
0000
1000
1000
0000
0010
0001
0001
1000
,
0000
0001
0000
0100
0001
1000
0010
0100
,
0100
0000
0000
1000
0001
0000
0000
0010
,
1000
0001
0000
0100
0000
1000
0000
0001
,
0000
0100
0000
0000
0000
1000
0001
0100
,
0000
0001
0000
1000
0001
0100
0100
0000
,
1001
0000
0000
0010
0000
0000
0001
0000
,
0000
0100
0010
0000
1001
0000
1001
0000
,
0001
0000
0000
1000
0000
0000
0001
0000
,
0100
0010
0000
1000
0000
0000
0000
0000
,
1001
0000
0000
1000
0000
0000
0010
0000
,
0000
0100
0001
0000
1001
0000
1001
0000
,
0010
0000
0000
0001
0000
1000
0100
0000
,
1001
1001
1001
1001
,
0000
1000
0000
0001
0000
0010
1000
0001
,
0000
1001
0010
0100
,
1000
0001
1000
0100
0000
0000
0101
0000
,
0000
0000
0010
0000
0001
1000
0010
0001
,
0000
0001
0000
0000
1001
0000
1001
0000
,
0000
1001
0100
0010
,
0001
1000
0100
0010
0000
0000
1001
0000
,
0000
0000
0010
0000
1000
0001
1000
0100
,
0000
0100
0000
0000
1001
0000
1001
0000
,
0000
0000
0010
0000
1000
0001
0100
1000
,
0000
0100
0000
0000
0010
0001
0100
0000
,
0010
1000
0100
0000
0010
0001
0100
0000
,
1000
0001
0100
0000
1000
0001
1000
0000
,
0000
0100
0001
0000
0000
0000
0000
0000
,
0000
0000
0000
0000
;

//---------------dance-double - ----------------
#NOTES:
     dance-double:
     :
     Easy:
     5:
     0.257456,0.365609,0.019696,0.000000,0.000000,183.000000,181.000000,2.000000,0.000000,0.000000,0.000000,0.257456,0.365609,0.019696,0.000000,0.000000,183.000000,181.000000,2.000000,0.000000,0.000000,0.000000:
00000000
00000000
00000000
00000000
,
00000000
00000000
00000000
00000000
,
00000000
00000000
00000000
00000000
,
00000000
00000000
00000000
00000000
,
00000000
00000000
00000000
00000000
,
00000000
00000000
00000000
00000000
,
00000000
10000000
00000000
01000000
,
00000000
00010000
00000000
00001000
,
00000000
00000010
00000000
00000001
,
00000100
00001000
00010000
00001000
,
00000000
00010000
00000000
00100000
,
00000000
10000000
00000000
01000000
,
00000000
00010000
00000000
00001000
,
00000000
00010000
00001000
01000000
,
00000000
00010000
00000000
00001000
,
00000000
00000100
00000000
00000001
,
00000000
00000100
00001000
00010000
,
00000000
10000000
00000000
01000000
,
00010000
10000000
01000000
00010000
,
00001000
00001000
00000100
00000001
,
00001000
00000001
00000100
00001000
,
00010000
00010000
01000000
10000000
,
00000000
00010000
00000000
00001000
,
00000000
00000100
00000001
00001000
,
00000000
00000100
00001000
00010000
,
01000000
10000000
00010000
00000100
,
00000001
00000001
00000001
00000110
,
00000000
00000100
00000000
00010000
,
00000000
10000000
00000000
01000000
,
00000000
00010000
00001000
00000100
,
00000000
00000001
00000000
00000100
,
00000000
00001000
00010000
00100000
,
00000000
01000000
00000000
10000000
,
00000000
00100000
00010000
00001000
,
00000000
00000010
00000000
00000001
,
00000000
00000100
00000000
00010000
,
00000000
10000000
00000000
01000000
,
00000000
00010000
00000000
00001000
,
00000000
00000100
00000000
00000001
,
00000000
00000100
00000000
00010000
,
00000000
00000100
00000000
00010000
,
00000000
00100000
00000000
01000000
,
00000000
10000000
00000000
01000000
,
00000000
00001000
00000000
00000001
,
00000100
00000100
00000100
00010000
,
00000000
10000000
00000000
01000000
,
00000000
00010000
00001000
01000000
,
00000000
00010000
00000000
00001000
,
00000000
00000100
00001000
00000100
,
00000000
00010000
00000000
00001000
,
00000000
00000100
00000000
00000001
,
00000000
00000100
00001000
00010000
,
00000000
01000000
00000000
10000000
,
00010000
10000000
01000000
00010000
,
00001000
00001000
00000100
00000001
,
00001000
00000001
00000100
00001000
,
00010000
00010000
01000000
10000000
,
00000000
00010000
00000000
00001000
,
00000000
00000100
00000001
00001000
,
00000000
00000100
00001000
00010000
,
01000000
10000000
00010000
00000100
,
00000001
00000001
00000001
00000110
,
00000000
00000100
00000000
00010000
,
00000000
10000000
00000000
01000000
,
00000000
00010000
00001000
00000100
,
00000000
00000001
00000000
00000100
,
00000000
00001000
00010000
01000000
,
00000000
01000000
00000000
10000000
,
00000000
00100000
00010000
00001000
,
00000000
00000010
00000000
00000001
,
00000000
00000100
00010000
10000000
,
00000000
01000000
00000000
00010000
,
00000000
00001000
00000000
00000100
,
00000000
00000001
00000000
00000100
,
00000000
00010000
00000000
00000000
,
00000000
00000000
00000000
00000000
;

//---------------dance-double - ----------------
#NOTES:
     dance-double:
     :
     Medium:
     9:
     0.412211,0.365609,0.000000,0.000000,0.029544,293.000000,293.000000,0.000000,0.000000,0.000000,0.000000,0.412211,0.365609,0.000000,0.000000,0.029544,293.000000,293.000000,0.000000,0.000000,0.000000,0.000000:
00000000
00000000
00000000
00000000
,
00000000
00000000
00000000
00000000
,
00000000
00000000
00000000
00000000
,
00000000
00000000
00000000
00000000
,
00000000
00000000
00000000
00000000
,
00000000
00000000
00000000
00000000
,
01000000
00010000
00001000
00000100
,
00000100
00001000
00010000
01000000
,
01000000
00010000
00001000
00000100
,
00000100
00001000
00010000
01000000
,
01000000
10000000
00010000
00001000
,
00001000
00000000
00000010
00000000
00000100
00000001
00001000
00000000
,
00000001
00000010
00000001
00000100
,
00000100
00000000
00001000
00000000
00010000
01000000
01000000
00000000
,
10000000
00010000
01000000
00001000
,
00010000
00001000
00000100
00000001
,
00000001
00001000
00010000
01000000
,
01000000
00000000
00010000
00000000
00001000
00000100
00000100
00000000
,
00000010
00001000
00010000
01000000
,
01000000
00000000
00010000
00000000
00001000
00000100
00001000
00000000
,
00000100
00000001
00001000
00000100
,
00000100
00000000
00001000
00000000
00010000
00100000
01000000
00000000
,
00100000
00010000
00001000
00000100
,
00000100
00001000
00010000
01000000
,
01000000
00010000
01000000
10000000
,
10000000
00010000
00001000
00000001
,
00000001
00001000
00010000
10000000
,
10000000
00010000
01000000
00100000
,
00100000
10000000
01000000
00010000
,
00001000
00000000
00000100
00000000
00000010
00001000
00000001
00000000
,
00000001
00000100
00001000
00010000
,
00010000
00000000
01000000
00000000
10000000
00100000
01000000
00000000
,
10000000
01000000
00010000
00001000
,
00000100
00000000
00000001
00000000
00001000
00000010
00000100
00000000
,
00000100
00001000
00010000
01000000
,
01000000
00000000
10000000
00000000
01000000
10000000
01000000
00000000
,
01000000
00010000
00001000
00000100
,
00000100
00001000
00010000
01000000
,
01000000
00010000
00001000
00000000
00000000
00000000
,
00000001
00000001
00001000
00001000
,
00001000
00001000
00010000
00010000
,
00010000
00010000
10000000
10000000
,
10000000
01000000
00010000
00001000
00000100
00000001
,
00000000
00000001
00000001
00000001
,
00001000
00010000
10000000
10000000
,
01000000
10000000
00010000
01000000
,
00001000
00000000
00000010
00000000
00000100
00001000
00000100
00000000
,
00000010
00000001
00001000
00000100
,
00000100
00000000
00001000
00000000
00010000
00100000
01000000
00000000
,
10000000
01000000
00010000
01000000
,
00010000
00001000
00000100
00000001
,
00000001
00001000
00010000
01000000
,
01000000
00000000
00010000
00000000
00001000
00000010
00000100
00000000
,
00000010
00001000
00010000
01000000
,
01000000
00000000
00010000
00000000
00001000
00000100
00000100
00000000
,
00001000
00000010
00000100
00000001
,
00000001
00000000
00001000
00000000
00010000
01000000
01000000
00000000
,
00100000
00010000
00001000
00000100
,
00000100
00000000
00001000
00000000
00010000
01000000
10000000
00000000
,
01000000
00010000
01000000
10000000
,
10000000
00010000
00001000
00000001
,
00000001
00001000
00010000
10000000
,
10000000
00010000
01000000
00100000
,
00100000
00000000
10000000
00000000
01000000
00100000
00010000
00000000
,
00010000
00001000
00000010
00000100
,
00000100
00000000
00000001
00000000
00000100
00001000
00000100
00000000
,
00010000
01000000
10000000
00100000
,
00100000
00000000
01000000
00000000
00010000
00100000
00001000
00000000
,
00000100
00000001
00001000
00000100
,
00000100
00000000
00001000
00000000
00010000
01000000
00010000
00000000
,
01000000
00010000
10000000
01000000
,
01000000
00010000
00001000
00000100
,
00000100
00001000
00010000
01000000
,
01000000
00010000
00001000
00000100
,
00000000
00001000
00010000
00000000
00000000
00000000
00000000
00000000
,
00000000
00000000
00000000
00000000
;

//---------------dance-double - ----------------
#NOTES:
     dance-double:
     :
     Hard:
     13:
     0.592290,0.584974,0.009848,0.000000,0.029544,421.000000,420.000000,1.000000,0.000000,0.000000,0.000000,0.592290,0.584974,0.009848,0.000000,0.029544,421.000000,420.000000,1.000000,0.000000,0.000000,0.000000:
00000000
00000000
00000000
00000000
,
00000000
00000000
00000000
00000000
,
00000000
00000000
00000000
00000000
,
00000000
00000000
00000000
00000000
,
00000000
00000000
00000000
00000000
,
00000000
00000000
00000000
00000000
,
10000000
01000000
10000000
00000000
00100000
10000000
00010000
00000000
,
01000000
00001000
00010000
00000000
00000010
00001000
00000100
00000000
,
00000001
00000100
00001000
00000000
00000010
00010000
00001000
00000000
,
01000000
00100000
10000000
00000000
00010000
00100000
00001000
00000000
,
00010000
00001000
00000010
00000000
00000001
00000100
00000010
00000000
,
00001000
00000100
00010000
00000000
00001000
01000000
00100000
00000000
,
10000000
01000000
00010000
00000000
01000000
10000000
00100000
00000000
,
00010000
00001000
00000010
00000000
00000001
00000100
00001000
00000000
,
00000100
00000001
00000010
00000000
00001000
00010000
00100000
00000000
,
00010000
10000000
01000000
00000000
00010000
00001000
00000100
00000000
,
00000010
00010000
00001000
00000000
00100000
01000000
00010000
00000000
,
00001000
00000100
00000001
00000000
00000010
00001000
00010000
00000000
,
00100000
10000000
01000000
00010000
01000000
10000000
01000000
00010000
,
00001000
00000100
00000001
00000010
00000100
00000000
00000100
00000000
,
00000010
00000001
00000100
00001000
00000100
00000001
00000100
00001000
,
00010000
01000000
10000000
00100000
01000000
00000000
01000000
00000000
,
00100000
10000000
01000000
00010000
01000000
10000000
01000000
00010000
,
00001000
00000100
00000001
00000010
00000100
00000000
00000100
00000000
,
00001000
00000010
00001000
00010000
00100000
10000000
00100000
00010000
,
01000000
00010000
00001000
00000010
00000001
00000010
00001000
00000000
,
00000000
00000100
00000000
00001000
00000000
00100000
10000000
01000000
,
10000000
01000000
10000000
00000000
00100000
10000000
00010000
00000000
,
01000000
00001000
00010000
00000000
00000010
00001000
00000100
00000000
,
00000001
00000100
00001000
00000000
00000010
00010000
00001000
00000000
,
01000000
00100000
10000000
00000000
00010000
00100000
00001000
00000000
,
00010000
00001000
00000010
00000000
00000001
00000100
00000010
00000000
,
00001000
00000100
00010000
00000000
00001000
01000000
00100000
00000000
,
10000000
01000000
00010000
00000000
01000000
10000000
00100000
00000000
,
00010000
00001000
00000010
00000000
00000001
00000100
00001000
00000000
,
00000100
00000001
00000010
00000000
00001000
00010000
00100000
00000000
,
00010000
10000000
01000000
00000000
00010000
00001000
00000100
00000000
,
00000010
00010000
00001000
00000000
00100000
01000000
00010000
00000000
,
00001000
00000010
00000100
00000000
00000000
00000000
,
00000001
00001000
00000100
00000000
00010000
00001000
00100000
00000000
,
00010000
10000000
01000000
00000000
00010000
00001000
00000100
00000000
,
00001000
00010000
01000000
00000000
00010000
00001000
00000010
00000000
,
00000001
00000100
00001000
00010000
01000000
10000000
,
00000000
10010000
00000000
00000000
,
00010000
00001000
00000100
00001000
00010000
01000000
00010000
00001000
,
00010000
00001000
00000010
00000000
00000001
00000100
00000010
00000000
,
00001000
00000100
00010000
00000000
00001000
01000000
00100000
00000000
,
10000000
01000000
00010000
00000000
01000000
10000000
00100000
00000000
,
00010000
00001000
00000010
00000000
00000001
00000100
00001000
00000000
,
00000100
00000001
00000010
00000000
00001000
00010000
00100000
00000000
,
00010000
10000000
01000000
00000000
00010000
00001000
00000100
00000000
,
00000010
00010000
00001000
00000000
00100000
01000000
00010000
00000000
,
00001000
00000100
00000001
00000000
00000010
00001000
00010000
00000000
,
00100000
10000000
01000000
00010000
01000000
10000000
01000000
00010000
,
00001000
00000100
00000001
00000010
00000100
00000000
00000100
00000000
,
00000010
00000001
00000100
00001000
00000100
00000001
00000100
00001000
,
00010000
01000000
10000000
00100000
01000000
00000000
01000000
00000000
,
00100000
10000000
01000000
00010000
01000000
10000000
01000000
00010000
,
00001000
00000100
00000001
00000010
00000100
00000000
00000100
00000000
,
00001000
00000010
00001000
00010000
00100000
10000000
00100000
00010000
,
01000000
00010000
00001000
00000010
00000001
00000010
00001000
00000000
,
00000000
00000100
00000000
00001000
00000000
00100000
10000000
01000000
,
10000000
01000000
10000000
00000000
00100000
10000000
00010000
00000000
,
01000000
00001000
00010000
00000000
00000010
00001000
00000100
00000000
,
00000001
00000100
00001000
00000000
00000010
00010000
00001000
00000000
,
01000000
00100000
10000000
00000000
00010000
00100000
00001000
00000000
,
00010000
00001000
00000010
00000000
00000001
00000100
00000010
00000000
,
00001000
00000100
00010000
00000000
00001000
01000000
00100000
00000000
,
10000000
01000000
00010000
00000000
01000000
10000000
00100000
00000000
,
00010000
00001000
00000010
00000000
00000001
00000100
00001000
00000000
,
00000100
00000001
00000010
00000000
00001000
00010000
00100000
00000000
,
00010000
10000000
01000000
00000000
00010000
00001000
00000100
00000000
,
00000010
00010000
00001000
00000000
00100000
01000000
00010000
00000000
,
00001000
00000100
00001000
00000000
00010000
01000000
00010000
00000000
,
00000000
00001000
00010000
00000000
00000000
00000000
00000000
00000000
,
00000000
00000000
00000000
00000000
;

//---------------dance-couple - ----------------
#NOTES:
     dance-couple:
     :
     Medium:
     7:
     0.365784,0.511852,0.256049,0.000000,0.014772,260.000000,234.000000,26.000000,0.000000,0.000000,0.000000,0.365784,0.475291,0.256049,0.000000,0.014772,260.000000,234.000000,26.000000,0.000000,0.000000,0.000000:
00000000
00000000
00000000
00000000
,
00000000
00000000
00000000
00000000
,
00000000
00000000
00000000
00000000
,
00000000
00000000
00000000
00000000
,
00000000
00000000
00000000
00000000
,
00000000
00000000
00000000
00000000
,
00001000
00000001
10000100
00000000
00000001
00001000
10000100
00000000
,
00001000
00000001
10000100
00000000
00000001
00001000
10000100
00000000
,
10000000
00010000
01000001
00000000
00010000
10000000
01000001
00000000
,
10000000
00010000
01000001
00000000
00010000
10000000
01000001
00000000
,
10001000
01000100
00010001
01000100
,
10001000
00000000
01000100
00000000
00010001
10001000
01000100
00000000
,
00010001
01000100
10001000
01000100
,
00010001
00000000
01000100
00000000
10001000
00010001
01000100
00000000
,
00010001
00000000
10001000
00000000
,
00010001
10001000
00010001
00010001
,
10001000
01000100
00010001
01000100
,
10001000
00000000
01000100
00000000
00010001
10001000
01000100
00000000
,
00001001
00000000
00000000
10010000
00000000
00000000
00001001
00000000
,
00000000
10010000
00000000
00000000
00001001
00000000
00000101
00000000
,
10010000
00000000
00000000
00001001
00000000
00000000
10010000
00000000
,
00000000
00001001
00000000
00000000
10010000
00000000
11000000
00000000
,
00011000
00000000
00000000
00011000
00000000
00000000
00011000
00000000
,
00000000
10000001
00000000
00000000
00011000
00000000
00011000
00000000
,
00000101
01010000
00001100
11000000
,
10011001
10011001
00011000
00011000
,
10000001
01000100
00100010
00100010
,
10001001
00000000
00000100
01000000
10000001
00000000
00000100
00000000
,
00011000
00000000
00000100
01000000
00010001
00000000
00000100
00000000
,
10001000
00000000
00001000
01000000
10000001
00000000
00000001
00000000
,
00011000
00000000
00001000
01000000
00010001
00000000
00000001
00000000
,
10011000
00000000
01000000
00000100
00011000
00000000
01000000
00000000
,
10000001
00000000
01000000
00000100
00010001
00000000
01000000
00000000
,
10001000
00000000
10000000
00000100
00011000
00000000
00010000
00000000
,
10000001
00000000
10000000
00000100
00010001
00000000
00010000
00000000
,
10001000
01000100
00010001
01000100
,
10001000
00000000
01000100
00000000
00010001
01000100
00010001
00000000
,
10001000
01000100
00010001
01000100
,
10001000
00000000
00000000
00010001
00000000
00000000
10001000
00000000
00000000
00000000
00000000
00000000
00000000
00000000
00000000
00000000
,
10011001
01000100
10000001
01000100
,
00011000
01000100
00011000
01000100
,
10000001
01000100
10000001
01000100
,
10000001
00000000
00000000
00011000
00000000
00000000
10000001
00000000
00011000
00000000
00000000
10000001
00000000
00000000
00011000
00000000
,
00000000
10011001
10011001
10011001
,
01000100
01000100
01000100
01000100
,
00010000
01000100
10000000
01000100
,
00010000
00000000
01000100
00000000
10000000
01000000
01000100
00000000
,
00000001
01000100
00001000
01000100
,
00000001
00000000
01000100
00000000
00001000
00000100
01000100
00000000
,
00100000
10000000
01000000
00000000
00100000
10000000
01000000
00000000
,
00100000
10000000
00100000
10000000
00100000
10000000
01000000
00000000
,
00000010
00000001
00000100
00000000
00000010
00000001
00000100
00000000
,
00000010
00000001
00000010
00000001
00000010
00000001
00000100
00000000
,
10010000
00000000
00000000
00001001
00000000
00000000
10010000
00000000
,
00000000
00001001
00000000
00000000
10010000
00000000
01010000
00000000
,
00001001
00000000
00000000
10010000
00000000
00000000
00001001
00000000
,
00000000
10010000
00000000
00000000
00001001
00000000
00001100
00000000
,
00011000
00000000
00000000
00011000
00000000
00000000
00011000
00000000
,
00000000
10000001
00000000
00000000
00011000
00000000
00011000
00000000
,
00000101
01010000
00001100
11000000
,
10011001
10011001
00011000
00011000
,
00010001
01000100
00100010
00100010
,
00001001
10000100
00000001
10000100
,
00001000
10000100
00000001
10000100
,
00001000
10000010
00000001
10000010
,
00001000
10000010
00000001
10000010
,
10010000
01000001
00010000
01000001
,
10000000
01000001
00010000
01000001
,
10000000
00100001
00010000
00100001
,
10000000
00100001
00010000
00100001
,
10001000
01000100
10001000
00000000
00010001
01000100
00010001
00000000
,
10001000
01000100
10001000
00000000
00010001
00100010
00010001
00000000
,
00100010
10001000
01000100
00010001
,
00100010
00010001
01000100
10001000
,
00000000
10001000
00010001
00000000
00000000
00000000
00000000
00000000
;

//---------------dance-solo - ----------------
#NOTES:
     dance-solo:
     :
     Easy:
     7:
     0.365784,0.511852,0.187113,0.000000,0.000000,260.000000,241.000000,19.000000,0.000000,0.000000,0.000000,0.365784,0.511852,0.187113,0.000000,0.000000,260.000000,241.000000,19.000000,0.000000,0.000000,0.000000:
000000
000000
000000
000000
,
000000
000000
000000
000000
,
000000
000000
000000
000000
,
000000
000000
000000
000000
,
000000
000000
000000
000000
,
000000
000000
000000
000000
,
000000
100000
000000
100000
,
000000
000010
000000
000010
,
000000
010000
000000
010000
,
000000
000001
000000
000001
,
000000
010000
000000
000001
,
000000
010000
000000
000001
,
000000
010000
000000
000001
,
000000
010000
000000
000001
,
000000
000010
000000
000010
,
000000
100000
000000
100000
,
000000
001000
000000
001000
,
000000
000001
000000
000001
,
010001
010000
010000
010000
,
000100
000100
000100
000100
,
000110
000010
000010
000010
,
001000
001000
001000
001000
,
100000
000001
001000
001000
,
100000
000001
001000
001000
,
100000
100000
000001
000001
,
100001
100001
100001
100001
,
001000
001000
000100
000100
,
100001
001000
010000
001000
,
010000
001000
000010
001000
,
100000
100000
000001
000001
,
100000
100000
000001
000001
,
010000
001000
010000
001000
,
000010
001000
000010
001000
,
100000
100000
000001
000001
,
100000
100000
000001
000001
,
010000
000100
100000
000010
,
010000
000100
100000
000010
,
000010
000100
000001
100000
,
000010
000100
000001
100000
,
100000
001000
000010
001000
,
100000
001000
000010
001000
,
100000
100000
000001
000001
,
100000
000000
000001
000000
,
000100
100000
001000
000001
,
100001
100001
100001
100001
,
100000
000010
001000
000010
,
100000
000010
001000
000010
,
000100
000100
001000
001000
,
000100
001000
000100
001000
,
000100
000100
001000
001000
,
000100
000100
001000
001000
,
100000
000001
001000
001000
,
000001
100000
001000
001000
,
100001
000001
100001
100000
,
000010
000010
010000
010000
,
000000
000001
000000
100000
,
000000
000001
000000
100000
,
000001
000001
100000
100000
,
000100
000100
001000
001000
,
000010
000010
001000
001000
,
100001
100001
100001
100001
,
001000
001000
001000
001000
,
100001
001000
000010
001000
,
000010
001000
010000
001000
,
000001
000100
100000
000100
,
000001
000100
100000
000100
,
000100
000100
001000
001000
,
000001
000001
100000
100000
,
000001
000001
100000
100000
,
000010
001000
010000
100000
,
000010
001000
010000
100000
,
000001
000001
010000
000001
,
100000
100000
000010
100000
,
000000
000001
000000
000001
,
000000
100001
000000
000000
;

//---------------dance-solo - ----------------
#NOTES:
     dance-solo:
     :
     Medium:
     8:
     0.393922,0.584974,0.246201,0.000000,0.029544,280.000000,255.000000,25.000000,0.000000,0.000000,0.000000,0.393922,0.584974,0.246201,0.000000,0.029544,280.000000,255.000000,25.000000,0.000000,0.000000,0.000000:
000000
000000
000000
000000
,
000000
000000
000000
000000
,
000000
000000
000000
000000
,
000000
000000
000000
000000
,
000000
000000
000000
000000
,
000000
000000
000000
000000
,
000010
000000
001000
000000
100000
001000
100000
000000
,
100000
000000
000100
000000
000010
000100
000010
000000
,
000001
000000
001000
000000
010000
001000
010000
000000
,
010000
000000
000100
000000
000001
000100
000001
000000
,
100000
001000
000001
001000
,
010000
001000
010000
001000
,
000001
001000
100000
001000
,
000010
001000
000010
001000
,
000100
001000
000100
001000
,
000100
000100
001000
001000
,
000100
001000
000001
000001
,
100000
100000
000001
000001
,
100010
010001
100010
010001
,
001100
100001
000100
001000
,
000110
010100
001000
001000
,
010100
000110
001000
001000
,
000010
100000
000001
001000
,
000010
100000
000100
001000
,
000001
001000
100000
001000
,
000001
000100
001000
100000
,
000010
001000
010000
010000
,
000001
000000
000000
000010
000001
000000
000000
000000
,
100000
000000
000000
010000
100000
000000
000000
000000
,
000001
000000
000000
000010
000001
000000
000000
000000
,
100000
000000
000000
010000
100000
000000
000000
000000
,
000001
000000
000000
000100
000010
000000
000000
000000
,
100000
000000
000000
000100
010000
000000
000000
000000
,
000001
000000
000000
000100
000010
000000
000000
000000
,
100000
000000
000000
000100
010000
000000
000000
000000
,
000010
001000
010000
001000
,
100000
000000
001000
000000
000001
000010
000001
000000
,
100000
001000
010000
001000
,
000001
000000
100000
000000
000001
000000
000000
000000
000000
000000
000000
000000
,
100001
010000
100001
000010
,
000100
000001
000100
000001
,
100000
001000
100000
001000
,
100000
000000
000001
000000
100000
000000
000001
000000
100000
000000
000001
000000
,
000000
100001
100001
100001
,
001000
001000
001000
001000
,
010000
000000
000000
000001
000010
000000
000000
000000
,
000010
000000
000000
100000
010000
000000
000000
000000
,
010000
000000
000000
000010
000001
000000
000000
000000
,
000010
000000
000000
010000
100000
000000
000000
000000
,
000100
000000
000000
000001
100000
000000
000000
000000
,
001000
000000
000000
100000
000001
000000
000000
000000
,
000010
000000
000000
000001
001000
000000
000000
000000
,
010000
000000
000000
100000
001000
000000
000000
000000
,
010001
100010
001100
100001
,
000110
010100
001000
000100
,
001010
011000
000100
000100
,
101000
001001
000100
001000
,
000001
100000
000100
001000
,
000010
001000
010000
001000
,
000001
001000
100000
001000
,
000001
000100
001000
100000
,
000010
001000
000010
000010
,
010000
000000
000000
000100
010000
000000
000000
000000
,
000010
000000
000000
000100
000010
000000
000000
000000
,
100000
000000
000000
001000
100000
000000
000000
000000
,
000001
000000
000000
001000
000001
000000
000000
000000
,
010000
000000
000000
000001
001000
000000
000000
000000
,
000010
000000
000000
100000
001000
000000
000000
000000
,
000100
000000
000000
010000
001000
000000
000000
000000
,
000100
000000
000000
000010
001000
000000
000000
000000
,
000001
000001
100000
100000
,
000001
000001
100000
100000
,
000100
100000
000010
001000
,
001000
010000
000001
000100
,
000000
100000
000001
000000
000000
000000
000000
000000
;

//---------------dance-solo - ----------------
#NOTES:
     dance-solo:
     :
     Hard:
     10:
     0.464265,0.621535,0.354530,0.000000,0.029544,330.000000,294.000000,36.000000,0.000000,0.000000,0.000000,0.464265,0.621535,0.354530,0.000000,0.029544,330.000000,294.000000,36.000000,0.000000,0.000000,0.000000:
000000
000000
000000
000000
,
000000
000000
000000
000000
,
000000
000000
000000
000000
,
000000
000000
000000
000000
,
000000
000000
000000
000000
,
000000
000000
000000
000000
,
100000
000010
001000
000000
000001
010000
001000
000000
,
100000
000010
001000
000000
000001
010000
001000
000000
,
100000
000010
001000
000000
000001
010000
001000
001000
,
000000
001000
000000
000010
100000
000010
001000
000000
,
000000
100000
100000
000000
000000
000001
000001
000000
,
100000
000010
000000
001000
000000
000001
100000
000000
,
000000
001000
000100
000000
000001
100000
100000
000001
,
000000
000100
000000
001000
000010
000010
010000
001000
,
001000
000000
000000
000001
100000
000000
000000
000100
,
001000
000010
000000
001000
000000
010000
000000
100000
,
000000
000100
000000
000000
000000
000001
100000
001000
,
000000
010000
000000
000001
100000
001000
001000
000000
,
010000
000000
000000
001000
000000
000000
000001
000000
,
000000
001000
000000
000000
100001
000000
100001
000000
,
000010
000000
000000
001000
000000
000000
000001
000000
,
000100
000001
000000
000010
000000
000000
000010
000000
,
000001
000000
000000
100000
000000
000000
001000
000000
,
000000
000100
000000
000000
100001
000000
100001
000000
,
001000
000000
000000
000010
000000
100000
100000
000000
,
100001
100001
100001
100001
,
000000
010000
000000
000001
000000
100000
000010
100000
,
000000
100001
001000
000100
,
001000
000000
000100
000000
010000
000010
001000
000000
,
000000
000000
000001
000000
100000
000010
100000
000010
,
000000
000010
000000
000000
010000
000001
010000
000001
,
000000
100001
001000
000100
,
010000
000010
001000
000001
000000
000000
100000
000000
,
000000
000000
000100
000000
100000
000010
001000
000010
,
100000
000000
000000
000000
,
000000
100001
000000
000000
000000
000000
000000
000100
,
001000
000000
000000
100000
100000
000001
000001
000000
,
000000
001100
000000
000000
,
001000
000000
000010
000000
100000
000000
000000
000000
000000
100001
000000
000000
,
000000
001000
000000
100001
000000
000000
000000
000100
,
000100
000000
000000
010000
000010
010000
000010
000010
,
000000
001001
000000
000000
,
000100
000000
010000
000000
000001
000000
000001
000000
100000
000000
000001
000000
,
000000
000000
001100
001000
000010
010000
000001
010000
,
000001
010000
000001
010000
100010
000000
100010
000000
,
000000
001000
001000
000000
000000
000100
000100
000000
,
010000
001000
000000
100000
000000
000001
000001
000000
,
000000
100000
100000
000000
001000
000010
000010
001000
,
000000
100000
000000
001000
000100
000001
001000
000001
,
100000
000000
000000
000010
001000
000000
000000
000010
,
001000
000010
000000
100000
000000
100000
000000
000001
,
000000
001000
000000
000000
000000
010000
000001
001000
,
000000
000010
000000
001000
000010
001000
001000
000000
,
100001
000000
000000
000100
000000
000000
001000
000000
,
000000
000010
001000
000000
100001
000000
100001
000000
,
010000
000000
000000
000010
000000
000000
001000
000000
,
000100
001000
000000
000010
000000
000000
000000
000000
,
100001
000000
000000
100000
000000
000000
000001
000000
,
000000
010000
000010
000000
010010
000000
010010
000000
,
001000
000000
000000
000001
000000
100000
001000
000000
,
100001
100001
100001
100001
,
000000
010000
000000
000001
000000
100000
000010
100000
,
000000
100001
000100
001000
,
000010
001000
000010
001000
000000
000000
001001
000000
,
000000
000000
010000
000000
001000
100000
000100
100000
,
000000
100000
000000
000000
100001
000000
100001
000000
,
000000
100001
001000
000100
,
010000
010000
000010
000010
000000
000000
010010
000000
,
000000
000000
000100
000000
100000
000001
100000
000010
,
000000
000010
000000
000000
001100
000000
001100
000000
,
000000
000000
000100
000000
100000
000001
100000
000001
,
000000
001000
000000
000000
000100
100000
001000
000000
,
000010
001000
000100
000000
100000
001000
010000
000000
,
000001
100000
001000
000000
000001
010000
000001
000000
,
000000
010000
000001
000000
000000
000000
000000
000000
;

//---------------dance-single - ----------------
#NOTES:
     dance-single:
     :
     Challenge:
     13:
     0.734383,0.694656,0.846932,0.236353,0.049240,522.000000,436.000000,86.000000,24.000000,0.000000,0.000000,0.734383,0.694656,0.846932,0.236353,0.049240,522.000000,436.000000,86.000000,24.000000,0.000000,0.000000:
0000
0000
0000
0000
,
0000
0000
0000
0000
,
0000
0000
0000
0000
,
0000
0000
0000
0000
,
0000
0000
0000
0000
,
0000
0000
0000
0000
,
1000
0010
0100
0001
0010
0100
1000
0001
,
1000
0010
0100
0001
0010
0100
1000
0001
,
1000
0010
0100
0001
0010
0100
1000
1100
,
0000
0101
0000
1000
0001
0010
0100
2000
,
0000
0001
3001
1000
0010
0100
0010
1000
,
0100
0000
0010
0000
0000
0000
0011
0000
0000
0000
0001
1000
0001
0000
0200
0000
,
0000
0010
0310
1000
0001
0010
0100
1100
,
0000
1001
0000
0101
0000
0100
0010
1000
,
1001
0100
0010
1000
0001
0010
0100
1000
,
0010
0100
0001
0011
0000
1001
0000
1010
,
0000
0101
1000
0000
0001
0010
0100
1000
,
0010
0100
0010
1000
0100
0010
0001
0000
,
1002
0000
1003
2100
0000
3010
0210
0000
,
0301
0012
0000
1003
0010
0100
0001
0000
,
2010
0000
3001
0201
0000
0310
0110
0000
,
0001
1000
0010
1000
0100
0010
0001
0000
,
0102
0000
0103
0120
0000
1030
1200
0000
,
1300
2010
0000
3001
1000
0010
0100
0000
,
0001
0010
0100
1000
0010
0100
0001
0000
,
0011
1010
0011
1010
,
0001
0101
0000
1100
0000
1000
0010
0100
,
0001
0000
1010
0000
0101
0001
1000
0100
,
1000
0010
0100
0001
0010
0100
1000
0001
,
0100
0000
1001
0000
1000
0010
0100
0001
,
0010
0100
1000
0001
1000
0010
0100
0001
,
0010
0000
0011
0000
1100
0001
1000
0000
,
0001
1000
0010
1000
0100
0010
0001
1000
,
0010
0000
0101
0000
1000
0001
1000
0100
,
0010
0001
0100
0010
1000
0100
0010
0001
,
0000
1100
0000
0001
1000
0010
0100
0001
,
0011
0000
1000
0010
0110
0110
0110
0000
,
0001
1200
0010
1300
,
1010
0000
0000
0000
0011
0000
0000
0000
1010
0000
0000
0000
0000
0000
0000
0100
0000
0000
0100
0000
0000
0000
0000
0000
,
0000
0110
0000
1001
0000
0001
0100
0010
,
1010
0000
1000
0001
0010
0100
1000
0001
,
0100
0102
0010
1003
,
0011
0000
0110
0000
1100
0000
1010
0000
1001
0000
0101
0000
,
1000
2002
0000
0003
,
0001
0000
0000
0000
0001
0000
0000
0000
0001
0000
0000
0000
3001
1000
0001
1000
,
0001
0010
0100
1000
0010
0100
0010
1000
,
0100
0000
0010
0000
0001
0000
1000
0000
0000
0000
0010
0100
0010
0000
1000
0000
,
0001
1000
0100
0010
0001
0100
0010
1010
,
0000
0101
0000
1100
0000
0001
1000
0100
,
1001
1000
0010
0100
0001
0010
0100
1000
,
0001
0100
0010
1000
0000
1100
0000
0011
,
0000
1010
0001
0000
1000
0010
0100
0001
,
0010
0100
1000
0010
1000
0001
0100
0000
,
0102
0000
1003
1200
0000
1300
1020
0000
,
0130
0102
0000
0013
0001
1000
0010
0000
,
0110
0010
1000
0100
0010
0001
1000
0000
,
0101
1000
0001
1000
0010
0100
0001
0000
,
0021
0000
0031
2001
0000
3100
1200
0000
,
1300
2010
0000
3100
1000
0001
0100
0000
,
0001
1000
0010
1000
0100
0010
0001
0000
,
1100
0101
1100
0101
,
1000
1010
0000
0011
0000
0001
0100
0010
,
1000
0000
0101
0000
1010
0001
1000
0100
,
0010
0100
1000
0010
0100
0001
1000
0010
,
0100
0000
1001
0000
0001
1000
0010
1000
,
0100
0010
0001
0100
0010
1000
0001
1000
,
0010
0000
0101
0000
1100
0001
1000
0000
,
0010
1000
0100
0010
0001
0100
0010
1000
,
0100
0000
1100
0000
1000
0001
0010
0100
,
1000
0010
0100
0001
0010
0100
1000
0001
,
0010
0000
0011
0000
0001
0100
0010
1000
,
0100
0010
0001
0100
0001
0010
0100
1000
,
0010
0100
0010
1000
0100
0010
0001
1000
,
0001
1000
0010
0100
0010
1000
0001
0000
,
0000
0110
1001
0000
0000
0000
0000
0000
;

//---------------dance-double - ----------------
#NOTES:
     dance-double:
     :
     Challenge:
     13:
     0.740010,0.694656,0.807540,0.226505,0.049240,526.000000,444.000000,82.000000,23.000000,0.000000,0.000000,0.740010,0.694656,0.807540,0.226505,0.049240,526.000000,444.000000,82.000000,23.000000,0.000000,0.000000:
// measure 0
00000000
00000000
00000000
00000000
,  // measure 1
00000000
00000000
00000000
00000000
,  // measure 2
00000000
00000000
00000000
00000000
,  // measure 3
00000000
00000000
00000000
00000000
,  // measure 4
00000000
00000000
00000000
00000000
,  // measure 5
00000000
00000000
00000000
00000000
,  // measure 6
10000000
00100000
01000000
00001000
00010000
00001000
01000000
00100000
,  // measure 7
10000000
01000000
00100000
00010000
01000000
00001000
00100000
00010000
,  // measure 8
01000000
00100000
10000000
01000000
00100000
00001000
00010000
00010100
,  // measure 9
00000000
00000011
00000000
00001000
00000010
00000100
00000001
00002001
,  // measure 10
00000000
00000100
00003100
00010000
00001000
00100000
00001000
01000000
,  // measure 11
00100000
00000000
10000000
00000000
00000000
00000000
10100000
00000000
00000000
00000000
00001000
00010000
00001000
00000000
00200000
00000000
,  // measure 12
00000000
00010000
00310000
01000000
00100000
10000000
01000000
01100000
,  // measure 13
00000000
00110000
00000000
01001000
00000000
00010000
00000100
00001000
,  // measure 14
00001001
00000010
00000100
00000001
00000010
00000100
00010000
00001000
,  // measure 15
01000000
00001000
00100000
00010000
00100000
01000000
10000000
00010000
,  // measure 16
00000000
11000000
00001000
00000000
00010000
00000010
00000100
00000001
,  // measure 17
00000010
00000100
00000010
00000001
00001000
00000100
00010000
00000000
,  // measure 18
00001020
00000000
00000130
00000102
00000000
00001003
00001200
00000000
,  // measure 19
00010300
00020100
00000000
00031000
01000000
00100000
10000000
00000000
,  // measure 20
01010000
10000000
00100000
01000000
00100000
10000000
00010000
00000000
,  // measure 21
00101000
00010000
00000010
00001000
00000100
00010000
00001000
00000000
,  // measure 22
02001000
00000000
03100000
01200000
00000000
10300000
21000000
00000000
,  // measure 23
30010000
02010000
00000000
03001000
00100000
00000010
00000100
00000000
,  // measure 24
00000001
00001000
00000100
00000010
00000100
00010000
00001000
00000000
,  // measure 25
01010000
00001100
01010000
00001100
,  // measure 26
00010000
00001000
00000000
00011000
00000000
00010000
00000010
00000100
,  // measure 27
00000001
00000000
00001001
00000000
00001100
00001000
00000010
00000100
,  // measure 28
00000001
00000010
00000100
00010000
00000100
00001000
00000010
00000100
,  // measure 29
00000001
00000000
00000110
00000000
00000001
00000100
00000010
00001000
,  // measure 30
00000100
00010000
00001000
01000000
00001000
00100000
00010000
01000000
,  // measure 31
00100000
00000000
10100000
00000000
11000000
00010000
10000000
00000000
,  // measure 32
00100000
01000000
00001000
00100000
00010000
01000000
00100000
10000000
,  // measure 33
00010000
00000000
00101000
00000000
00010000
00000100
00001000
00000010
,  // measure 34
00000100
00000001
00000010
00000100
00001000
00000001
00001000
00000010
,  // measure 35
00010000
00011000
00000000
00000010
00001000
00000100
00001000
00000001
,  // measure 36
00000011
00000000
00001000
00000100
00010100
00010000
00011000
00000000
,  // measure 37
01000000
01020000
00100000
10030000
,  // measure 38
11000000
00000000
00000000
00000000
00110000
00000000
00000000
00000000
00000000
00000000
10010000
00000000
00000000
00000000
00000000
01000000
00000000
00000000
00100000
00000000
00000000
10000000
00000000
00000000
,  // measure 39
00010000
00110000
00000000
00011000
00000000
00000010
00000100
00000001
,  // measure 40
00000101
00000000
00000010
00001000
00000100
00000010
00000001
00001000
,  // measure 41
00000010
00001200
00010000
00001300
,  // measure 42
00001001
00000000
00000110
00000000
00000011
00000000
00001100
00000000
00011000
00000000
01010000
00000000
,  // measure 43
10000000
00202000
00000000
00003000
,  // measure 44
00001000
00000000
00000000
00000000
00001000
00000000
00000000
00000000
00301000
00010000
00001000
00010000
00001000
00000000
01000000
00000000
,  // measure 45
00100000
01000000
00010000
00100000
00010000
01000000
00100000
10000000
,  // measure 46
01000000
00000000
00100000
00000000
00001000
00000000
00010000
00000000
00000000
00000000
00000010
00000100
00000010
00000000
00020000
00000000
,  // measure 47
00000000
00001000
00031000
00010000
00000010
00001000
00000100
00000110
,  // measure 48
00000000
00000011
00000000
00001001
00000000
00001000
00000100
00010000
,  // measure 49
00011000
00001000
01000000
00010000
00100000
01000000
10000000
00100000
,  // measure 50
01000000
00010000
00100000
01000000
00000000
11000000
00000000
00110000
,  // measure 51
00000000
01001000
00100000
00000000
10000000
00100000
01000000
00001000
,  // measure 52
00010000
00000010
00000100
00000001
00000010
00000100
00001000
00000000
,  // measure 53
00001020
00000000
00010030
00010200
00000000
00001300
00001002
00000000
,  // measure 54
00000103
00000120
00000000
00010030
00001000
01000000
00100000
00000000
,  // measure 55
10010000
01000000
00100000
10000000
00010000
00100000
01000000
00000000
,  // measure 56
11000000
00100000
00001000
00010000
00000010
00001000
00000001
00000000
,  // measure 57
00002001
00000000
00003100
00020100
00000000
00031000
02001000
00000000
,  // measure 58
03100000
20100000
00000000
31000000
10000000
00010000
01000000
00000000
,  // measure 59
00110000
00010000
10000000
01000000
10000000
00100000
01000000
00000000
,  // measure 60
01010000
00001100
01010000
00001100
,  // measure 61
00010000
00001000
00000000
00011000
00000000
01000000
00010000
10000000
,  // measure 62
00100000
00000000
11000000
00000000
01010000
01000000
00001000
00010000
,  // measure 63
00000010
00000100
00000010
00001000
00000100
00000010
00000001
00001000
,  // measure 64
00000100
00000000
00011000
00000000
00100000
00010000
01000000
00100000
,  // measure 65
10000000
01000000
00100000
00010000
01000000
00001000
00010000
00000100
,  // measure 66
00001000
00000000
00010100
00000000
00101000
00010000
01000000
00000000
,  // measure 67
00010000
10000000
00100000
10000000
01000000
00100000
00001000
00010000
,  // measure 68
00000100
00000000
00001001
00000000
00000010
00000100
00000001
00001000
,  // measure 69
00000100
00010000
00001000
00010000
00000010
00000100
00000001
00001000
,  // measure 70
00000100
00000000
00011000
00000000
00010100
00001000
00000010
00000100
,  // measure 71
00000001
00000010
00000001
00001000
00000010
00000100
00000010
00010000
,  // measure 72
00000100
00010000
00001000
01000000
00010000
10000000
00100000
01000000
,  // measure 73
00001000
00010000
00000010
00001000
00000100
00000010
00000001
00000100
,  // measure 74
00000000
00000110
00001001
00000000
00000000
00000000
00000000
00000000
;
