#VERSION:0.83;
#TITLE:La SeƱorita Virtual;
#SUBTITLE:;
#ARTIST:2MB;
#TITLETRANSLIT:;
#SUBTITLETRANSLIT:;
#ARTISTTRANSLIT:;
#GENRE:;
#ORIGIN:;
#CREDIT:;
#BANNER:La Senorita Virtual.png;
#BACKGROUND:La Senorita Virtual-bg.png;
#PREVIEWVID:;
#JACKET:La Senorita Virtual-jacket.png;
#CDIMAGE:;
#DISCIMAGE:;
#LYRICSPATH:;
#CDTITLE:;
#MUSIC:La Senorita Virtual.ogg;
#OFFSET:0.000000;
#SAMPLESTART:27.666000;
#SAMPLELENGTH:20.000000;
#SELECTABLE:YES;
#DISPLAYBPM:182.000000;
#BPMS:0.000=182.186,
20.000=182.175;
#STOPS:;
#DELAYS:;
#WARPS:;
#TIMESIGNATURES:0.000=4=4;
#TICKCOUNTS:0.000=4;
#COMBOS:0.000=1;
#SPEEDS:0.000=1.000=0.000=0;
#SCROLLS:0.000=1.000;
#FAKES:;
#LABELS:0.000=Song Start;
#BGCHANGES:;
#KEYSOUNDS:;
#ATTACKS:
;

//---------------dance-single - ----------------
#NOTEDATA:;
#CHARTNAME:;
#STEPSTYPE:dance-single;
#DESCRIPTION:;
#CHARTSTYLE:;
#DIFFICULTY:Beginner;
#METER:4;
#RADARVALUES:0.177291,0.284105,0.000000,0.000000,0.000000,121.000000,121.000000,0.000000,0.000000,0.000000,0.000000,0.000000,0.000000,0.000000,0.177291,0.284105,0.000000,0.000000,0.000000,121.000000,121.000000,0.000000,0.000000,0.000000,0.000000,0.000000,0.000000,0.000000;
#CREDIT:;
#DISPLAYBPM:182.000000;
#NOTES:
0000
0000
0000
0000
,
0000
0000
0000
0000
,
0000
0000
0000
0000
,
0000
0000
0000
0000
,
0000
0000
0000
0000
,
0000
0000
0000
0000
,
0100
0000
0000
0000
,
0100
0000
0000
0000
,
0100
0000
0000
0000
,
0100
0000
0000
0000
,
0001
0000
0001
0000
,
0001
0000
0001
0000
,
0001
0000
0001
0000
,
0001
0000
0001
0000
,
1000
0000
1000
0000
,
1000
0000
1000
0000
,
1000
0000
1000
0000
,
0010
0000
0010
0010
,
0010
0000
0000
0000
,
0000
0000
0000
0000
,
0000
0000
0000
0000
,
0100
0000
0100
0100
,
0100
0000
0000
0000
,
0010
0000
0000
0000
,
0010
0000
0000
0000
,
0100
0000
0000
0000
,
0001
0001
0000
0000
,
0001
0001
0000
0000
,
1000
1000
1000
0000
,
0001
0001
0001
0000
,
0100
0100
0000
0000
,
0100
0100
0000
0000
,
0010
0010
0010
0000
,
1000
1000
1000
0000
,
0010
0000
0000
0000
,
0010
0000
0000
0000
,
0010
0000
0000
0000
,
0010
0000
0000
0000
,
0100
0000
0000
0000
,
0100
0000
0000
0000
,
0100
0000
0000
0000
,
0100
0000
0000
0000
,
0001
0001
0000
0000
,
0001
0001
0000
0000
,
1000
1000
1000
0000
,
0001
0001
0001
0000
,
0100
0100
0000
0000
,
0100
0100
0000
0000
,
0010
0010
0010
0000
,
1000
1000
1000
1000
,
1000
0000
0000
0000
,
0000
0000
0000
0000
,
0100
0100
0000
0000
,
0000
0000
0000
0000
,
1000
1000
1000
0000
,
1000
1000
1000
0000
,
0001
0001
0001
0000
,
0001
0001
0001
0000
,
0100
0100
0100
0000
,
0100
0100
0100
0000
,
0010
0010
0010
0000
,
0010
0010
0010
0000
,
1000
1000
0000
0000
,
0001
0001
0000
0000
,
0100
0100
0000
0000
,
0010
0010
0000
0000
,
0001
0001
0000
0000
,
0100
0100
0000
0000
,
1000
0000
0001
0000
,
1000
1000
0000
0000
,
0000
0000
0000
0000
;

//---------------dance-single - ----------------
#NOTEDATA:;
#CHARTNAME:;
#STEPSTYPE:dance-single;
#DESCRIPTION:;
#CHARTSTYLE:;
#DIFFICULTY:Easy;
#METER:8;
#RADARVALUES:0.414656,0.500774,0.133335,0.000000,0.000000,283.000000,270.000000,13.000000,0.000000,0.000000,0.000000,0.000000,0.000000,0.000000,0.414656,0.500774,0.133335,0.000000,0.000000,283.000000,270.000000,13.000000,0.000000,0.000000,0.000000,0.000000,0.000000,0.000000;
#CREDIT:;
#DISPLAYBPM:182.000000;
#NOTES:
0000
0000
0000
0000
,
0000
0000
0000
0000
,
0000
0000
0000
0000
,
0000
0000
0000
0000
,
0000
0000
0000
0000
,
0000
0000
0000
0000
,
0011
0100
0100
1000
,
0010
1000
0010
0010
,
1010
0100
0001
0100
,
0010
0001
0010
0010
,
0010
0100
0001
0100
,
0010
1000
0010
0100
,
0010
0001
1000
0000
0100
0000
1000
0000
,
0010
0001
1000
0000
0001
0000
0100
0000
,
1001
0010
0001
0100
,
1000
0010
0010
0100
,
1000
0001
0000
0000
1000
0001
0000
0000
,
0010
0001
0001
0100
,
1001
0010
1000
0100
,
0001
0010
0001
0010
,
0001
1000
0000
0000
0001
1000
0000
0000
,
0010
0100
0001
0001
,
0010
0001
0001
0100
,
0010
0000
1000
0001
1000
0000
0001
0000
,
0010
0000
0000
1000
0100
0000
0010
0000
,
0000
0100
1000
0100
1000
0000
0001
0000
,
0010
0100
0001
0010
,
1000
0000
1000
0001
0010
0000
0010
0000
,
0100
0010
1000
0010
,
0001
0000
0001
1000
0100
0000
0100
0000
,
1001
0010
0001
0100
,
1000
0010
1000
0001
,
1000
0001
0000
0000
1000
0001
0000
0000
,
1000
1000
0001
0001
,
0010
0000
0000
1000
0100
0000
0000
0000
,
0010
0000
0000
0001
0100
0000
0000
0000
,
0010
0000
0000
1000
0001
0000
0000
0000
,
0010
0000
0000
0001
1000
0000
0000
0000
,
0010
0000
0000
0100
0001
0000
0000
0000
,
0010
0000
0000
0100
1000
0000
0000
0000
,
0010
0000
0000
1000
0100
0000
0010
0000
,
0000
0100
0001
0100
0001
0000
1000
0000
,
0010
0100
1000
0010
,
0001
0000
0001
1000
0010
0000
0010
0000
,
0100
0010
0001
0100
,
1000
0000
1000
0001
0100
0000
0100
0000
,
1001
0010
1000
0100
,
0001
0010
0001
0100
,
0001
1000
0000
0000
0001
1000
0000
0000
,
1010
1100
0101
0011
,
0000
0000
0000
0000
,
0010
0010
0010
0010
,
0010
1000
0100
0001
,
0010
0100
1000
0100
,
1001
1000
0010
0001
,
1000
0100
0001
0010
,
0001
0010
1000
0001
,
0010
0010
0010
0000
,
0010
0000
1000
0001
0100
0000
1000
0001
,
0100
0001
1000
0100
,
0010
0000
0001
1000
0010
0000
0001
1000
,
0010
1000
0001
0100
,
0010
0000
1000
0001
0100
0000
1000
0001
,
0100
0000
0001
0100
1000
0000
0100
0000
,
0010
0000
0001
1000
0010
0000
0001
1000
,
0010
0000
1000
0100
0001
0000
0100
0000
,
0010
0000
1000
0001
0100
0000
1000
0001
,
0100
0000
0001
0100
1000
0000
0110
0000
,
0010
0000
1000
0001
0010
0000
1000
0001
,
0010
0000
1000
0100
0001
0000
1001
0000
,
0000
0000
0000
0000
;

//---------------dance-single - ----------------
#NOTEDATA:;
#CHARTNAME:;
#STEPSTYPE:dance-single;
#DESCRIPTION:;
#CHARTSTYLE:;
#DIFFICULTY:Medium;
#METER:10;
#RADARVALUES:0.524548,0.572314,0.246156,0.000000,0.000000,358.000000,334.000000,24.000000,0.000000,0.000000,0.000000,0.000000,0.000000,0.000000,0.524548,0.572314,0.246156,0.000000,0.000000,358.000000,334.000000,24.000000,0.000000,0.000000,0.000000,0.000000,0.000000,0.000000;
#CREDIT:;
#DISPLAYBPM:182.000000;
#NOTES:
0000
0000
0000
0000
,
0000
0000
0000
0000
,
0000
0000
0000
0000
,
0000
0000
0000
0000
,
0000
0000
0000
0000
,
0000
0000
0000
0000
,
0011
0100
0100
1000
,
0010
1000
0100
0100
,
1010
0100
0001
0100
,
0010
0001
0010
0010
,
0010
0001
0100
0000
0001
0010
0100
0000
,
0010
0001
1000
0000
0010
1000
0100
0000
,
0010
0001
1000
0000
0100
0001
1000
0000
,
0010
0001
1000
0000
0001
1000
0100
0000
,
1001
0010
0001
0100
,
1000
0000
0010
0000
1000
0001
0010
0100
,
1000
0001
0000
0000
1000
0001
0000
0000
,
0010
0001
0100
1000
,
1001
0010
1000
0100
,
0001
0000
0010
0000
0001
1000
0010
0100
,
0001
1000
0000
0000
0001
1000
0000
0000
,
0010
1000
0100
0001
,
0010
0000
0001
1000
0001
0000
0100
0000
,
0010
0000
1000
0001
1000
0000
0001
0000
,
0010
0000
0001
1000
0100
0000
0010
0000
,
0000
0100
0100
0100
0010
0000
1001
0000
,
1000
0010
0100
0000
0100
0001
0010
0000
,
1000
0001
1000
0001
0010
0100
0010
0000
,
0100
1000
0010
0000
0010
1000
0100
0000
,
0001
1000
0001
1000
0100
0010
0100
0000
,
0010
0011
0101
1100
,
1010
0000
0010
0000
1000
0001
0010
0100
,
1000
0001
0000
0000
1000
0001
0000
0000
,
0010
0001
0100
1000
,
0010
0000
0001
1000
0001
0000
1000
0000
,
0010
0000
0100
0001
0100
0000
0001
0000
,
0010
0000
0001
1000
0001
0000
1000
0000
,
0010
0000
1000
0001
1000
0000
0001
0000
,
0010
0000
0100
1000
0001
0000
1000
0000
,
0010
0000
1000
0001
0010
0000
0001
0000
,
0010
0000
0100
1000
0001
0000
0010
0000
,
0000
0100
0100
0100
0010
0000
1001
0000
,
0001
0010
0100
0000
0100
1000
0010
0000
,
0001
1000
0001
1000
0010
0100
0010
0000
,
0100
0001
0010
0000
0010
0001
0100
0000
,
1000
0001
1000
0001
0100
0010
0100
0000
,
0010
1010
1100
0101
,
0011
0000
0010
0000
0001
1000
0010
0100
,
0001
1000
0000
0000
0001
1000
0000
0000
,
0010
1000
0100
0001
,
1000
0001
1000
0000
0010
0100
0010
0100
,
0010
0100
0010
0000
1000
0001
1000
0001
,
0010
0010
0010
0010
,
0001
0100
1000
0010
,
0010
0010
0010
0010
,
0001
1000
0010
0100
,
0100
0100
0100
0100
,
1010
0101
0011
1100
,
0010
0000
0100
0010
0001
0000
0100
0010
,
0001
0000
0001
0100
1000
0000
0110
0000
,
0010
0000
0100
0010
1000
0000
0100
0010
,
1000
0000
1000
0100
0001
0000
0110
0000
,
0010
0001
0100
0010
1000
0000
0100
0010
,
0001
0000
0001
0100
1000
0000
0110
0000
,
0010
1000
0100
0010
0001
0000
0100
0010
,
1000
0000
1000
0100
0001
0000
0110
0000
,
0010
0001
0100
0010
1000
0000
0100
0010
,
0001
1000
0001
0100
1000
0000
0110
0000
,
0010
1000
0100
0010
0001
0000
0100
0010
,
1000
0001
1000
0100
0001
0000
0110
0000
,
0000
0000
0000
0000
;

//---------------dance-single - ----------------
#NOTEDATA:;
#CHARTNAME:;
#STEPSTYPE:dance-single;
#DESCRIPTION:;
#CHARTSTYLE:;
#DIFFICULTY:Hard;
#METER:12;
#RADARVALUES:0.596343,0.608083,0.492313,0.000000,0.000000,407.000000,359.000000,48.000000,0.000000,0.000000,0.000000,0.000000,0.000000,0.000000,0.596343,0.608083,0.492313,0.000000,0.000000,407.000000,359.000000,48.000000,0.000000,0.000000,0.000000,0.000000,0.000000,0.000000;
#CREDIT:;
#DISPLAYBPM:182.000000;
#NOTES:
0000
0000
0000
0000
,
0000
0000
0000
0000
,
0000
0000
0000
0000
,
0000
0000
0000
0000
,
0000
0000
0000
0000
,
0000
0000
0000
0000
,
0011
0000
0100
0001
0000
0001
1000
0100
,
1000
0000
0100
1000
0000
1000
0001
0100
,
0010
0000
0100
0001
0000
0001
0100
0010
,
1000
0000
1000
0001
0010
1000
0001
0100
,
0010
0001
0100
0000
0010
1000
0001
0000
,
0001
1000
0010
0000
0010
1000
0100
0000
,
0010
0001
1000
0000
0100
0001
1000
0000
,
0001
1000
0010
0000
0001
1000
0100
0000
,
1001
0011
0101
1100
,
0000
1000
0001
0100
1000
0001
0010
0100
,
1000
0001
0000
0000
1000
0001
0000
0011
,
0000
1100
0000
0001
0100
0001
1000
0100
,
1001
1100
0101
0011
,
0000
0001
1000
0100
0001
1000
0010
0100
,
0001
1000
0000
0000
0001
1000
0000
0000
,
0010
1000
0100
0001
,
0011
0000
0001
1000
0000
1000
0001
1000
,
0010
0000
1000
0001
1000
0100
0010
0000
,
0110
0000
0000
1100
0101
0000
1001
0000
,
0000
0100
0100
0100
0100
0000
1001
0000
,
0010
0001
0100
0000
0100
0001
0010
0000
,
1000
0001
1000
0001
0010
0100
0010
0000
,
0001
1000
0010
0000
0010
1000
0100
0000
,
0001
1000
0001
1000
0100
0010
0100
0000
,
1001
0011
0101
1100
,
0000
0001
1000
0100
0001
1000
0010
0100
,
0001
1000
0000
0000
0001
1000
0000
1010
,
0000
0101
0000
1000
0100
1000
0001
0100
,
0010
0000
1000
0100
0000
0001
0010
1000
,
0010
0000
0100
0001
0000
1000
0010
0001
,
0100
0000
1000
0001
0000
0010
1000
0010
,
0001
0000
1000
0001
0000
0001
0100
1000
,
0010
0000
0100
1000
0000
0100
0010
1000
,
0001
0000
1000
0001
0010
1000
0001
0000
,
0110
0000
0000
0101
1100
0000
1001
0000
,
0000
0010
0010
0010
0010
0000
1001
0000
,
0010
1000
0100
0000
0100
1000
0010
0000
,
0001
1000
0001
1000
0010
0100
0010
0000
,
0100
0001
0010
0000
0010
0001
0100
0000
,
1000
0001
1000
0001
0100
0010
0100
0000
,
1001
1010
0101
1100
,
0000
1000
0001
0100
1000
0001
0010
0100
,
1000
0001
0000
0000
1000
0001
0000
0011
,
0000
1100
0000
0001
0100
0001
1000
0100
,
0010
0000
0000
0000
,
0010
0010
0010
0010
,
1000
0001
1000
0000
1000
0001
1000
0001
,
0010
0100
0010
0000
0010
0100
0010
0000
,
0010
0000
0010
0000
,
0011
1100
1010
0101
,
0010
1000
0010
1000
0010
0000
0010
0000
,
1010
0101
0011
1100
,
0010
0000
0100
0010
0001
0000
0100
0001
,
0010
0000
0001
0001
1000
0000
0110
0000
,
0010
0000
0100
0010
1000
0000
0100
1000
,
0010
0000
1000
1000
0001
0000
0110
0000
,
0100
0010
0001
0100
1000
0000
0010
1000
,
0100
0000
1000
1000
0010
0000
0110
0000
,
0100
1000
0010
0100
0001
0000
0010
0001
,
0100
0000
0001
0001
1000
0000
0110
0000
,
0100
0010
0001
0100
1000
0000
0010
1000
,
0100
0001
0010
1000
0001
0000
0110
0000
,
0100
1000
0010
0100
0001
1000
0010
0001
,
0100
1000
0001
0100
1000
0000
0110
0000
,
0000
0000
0000
0000
;

//---------------dance-double - ----------------
#NOTEDATA:;
#CHARTNAME:;
#STEPSTYPE:dance-double;
#DESCRIPTION:;
#CHARTSTYLE:;
#DIFFICULTY:Easy;
#METER:9;
#RADARVALUES:0.367769,0.465005,0.112822,0.000000,0.000000,251.000000,240.000000,11.000000,0.000000,0.000000,0.000000,0.000000,0.000000,0.000000,0.367769,0.465005,0.112822,0.000000,0.000000,251.000000,240.000000,11.000000,0.000000,0.000000,0.000000,0.000000,0.000000,0.000000;
#CREDIT:;
#DISPLAYBPM:182.000000;
#NOTES:
00000000
00000000
00000000
00000000
,
00000000
00000000
00000000
00000000
,
00000000
00000000
00000000
00000000
,
00000000
00000000
00000000
00000000
,
00000000
00000000
00000000
00000000
,
00000000
00000000
00000000
00000000
,
00110000
00010000
00001000
00001000
,
00010000
00010000
00001000
00000100
,
00001000
00001000
00010000
01000000
,
00100000
00010000
00100000
10000000
,
00100000
00010000
00001000
00000100
,
00000010
00000001
00000010
00000100
,
00001000
00100000
01000000
10000000
,
00100000
00010000
00001000
00000000
,
00001001
00000010
00000001
00000100
,
00001000
00100000
00100000
01000000
,
10000000
00010000
00000000
00000000
01000000
00001000
00000000
00000000
,
00100000
00010000
00010000
00000000
,
10010000
00000000
00000000
00000000
,
00010000
00000010
00000010
00000100
,
00000001
00001000
00000000
00000000
00000100
00010000
00000000
00000000
,
00100000
00000000
00010000
00000000
,
00000010
00000010
00000100
00000100
,
00000010
00000000
00001000
00000001
00001000
00000000
00000001
00000000
,
00000010
00000000
00000000
00010000
00001000
00000000
00100000
00000000
,
00000000
01000000
10000000
01000000
10000000
00000000
00000000
00000000
,
00100000
00010000
00001000
00000100
,
00000001
00000000
00000001
00001000
00000010
00000000
00000010
00000000
,
00000100
00000010
00001000
00000010
,
00010000
00000000
00001000
00010000
00000100
00000000
00000100
00000000
,
00001001
00000010
00000001
00000100
,
00001000
00010000
01000000
00100000
,
10000000
00010000
00000000
00000000
01000000
00001000
00000000
00000000
,
00010000
00010000
00001000
00000000
,
00100000
00000000
00000000
00010000
01000000
00000000
00000000
00000000
,
00100000
00000000
00000000
00001000
00000100
00000000
00000000
00000000
,
00000010
00000000
00000000
00001000
00000001
00000000
00000000
00000000
,
00000010
00000000
00000000
00000001
00000100
00000000
00000000
00000000
,
00010000
00000000
00000000
10000000
01000000
00000000
00000000
00000000
,
00100000
00000000
00000000
00001000
00010000
00000000
00000000
00000000
,
00100000
00000000
00000000
10000000
01000000
00000000
00100000
00000000
,
00000000
00001000
00010000
00001000
00010000
00000000
00000000
00000000
,
00010000
00001000
00010000
01000000
,
10000000
00000000
10000000
00010000
00100000
00000000
00100000
00000000
,
01000000
00100000
00010000
00100000
,
00001000
00000000
00010000
00001000
01000000
00000000
00000000
00000000
,
10010000
00100000
10000000
01000000
,
00010000
00100000
00010000
01000000
,
00001000
00010000
00000000
00000000
00001000
01000000
00000000
00000000
,
00011000
01001000
00011000
00010100
,
00000000
00000000
00000000
00000000
,
00001000
00000000
00000000
00000000
,
00010000
00000000
00000000
00000000
,
00100000
00100000
00100000
00100000
,
10010000
00000000
00010000
00000000
,
00000010
00000000
00000010
00000000
,
00001000
00000000
00001000
00000000
,
00100000
00000000
00100000
00000000
,
00100000
00000000
00010000
10000000
01000000
00000000
00010000
00000000
,
01000000
00010000
00001000
00000100
,
00000010
00000000
00001000
00000001
00000010
00000000
00001000
00000000
,
00000010
00000001
00001000
00010000
,
00100000
00000000
10000000
00010000
01000000
00000000
00010000
10000000
,
01000000
10000000
00010000
00001000
,
00000100
00000000
00000001
00001000
00000010
00000000
00001000
00000001
,
00000010
00000001
00001000
00010000
,
00100000
00000000
00010000
10000000
01000000
00000000
00100000
10000000
,
01000000
00000000
10000000
01000000
00010000
00000000
00001000
00000000
,
00000100
00000000
00001000
00000001
00000010
00000000
00001000
00000001
,
00000100
00000000
00000001
00000100
00001000
00000000
00011000
00000000
,
00000000
00000000
00000000
00000000
;

//---------------dance-double - ----------------
#NOTEDATA:;
#CHARTNAME:;
#STEPSTYPE:dance-double;
#DESCRIPTION:;
#CHARTSTYLE:;
#DIFFICULTY:Medium;
#METER:10;
#RADARVALUES:0.442495,0.536544,0.041026,0.000000,0.000000,302.000000,298.000000,4.000000,0.000000,0.000000,0.000000,0.000000,0.000000,0.000000,0.442495,0.536544,0.041026,0.000000,0.000000,302.000000,298.000000,4.000000,0.000000,0.000000,0.000000,0.000000,0.000000,0.000000;
#CREDIT:;
#DISPLAYBPM:182.000000;
#NOTES:
00000000
00000000
00000000
00000000
,
00000000
00000000
00000000
00000000
,
00000000
00000000
00000000
00000000
,
00000000
00000000
00000000
00000000
,
00000000
00000000
00000000
00000000
,
00000000
00000000
00000000
00000000
,
00110000
01000000
01000000
10000000
,
00100000
00010000
00001000
00000100
,
00001010
00000100
00000001
00000100
,
00000010
00000001
00000010
00000100
,
00000010
00000001
00000100
00000000
00000001
00000000
00000100
00000000
,
00000010
00001000
00000001
00000000
00001000
00000000
00010000
00000000
,
00100000
00010000
10000000
00000000
01000000
00000000
10000000
00000000
,
00100000
10000000
00010000
00000000
10000000
00000000
01000000
00000000
,
00000000
00100000
00010000
00001000
,
00000100
00000000
00000010
00000000
00001000
00000001
00000010
00000100
,
00001000
00000001
00000000
00000000
00001000
00000001
00000000
00000000
,
00000010
00000001
00000100
00001000
,
00000000
00000010
00001000
00010000
,
01000000
00000000
00100000
00000000
00010000
10000000
00100000
01000000
,
00010000
10000000
00000000
00000000
00010000
10000000
00000000
00000000
,
00100000
10000000
01000000
00010000
,
00100000
00000000
00001000
00010000
00001000
00000000
00010000
00000000
,
00000100
00000000
00010000
00001000
00010000
00000000
00001000
00000000
,
01000000
00000000
00010000
10000000
01000000
00000000
00100000
00000000
,
00000000
01000000
01000000
01000000
00100000
00000000
00000000
00000000
,
01000000
00010000
00001000
00000100
,
00001000
00000001
00001000
00000001
00000010
00000100
00000010
00000000
,
00000100
00001000
00010000
01000000
,
00010000
10000000
00010000
10000000
01000000
00100000
01000000
00000000
,
00010000
01000000
00001000
00000100
,
00001010
00000000
00000010
00000000
00001000
00000001
00000010
00000100
,
00001000
00000001
00000000
00000000
00010000
00001000
00000000
00000000
,
00100000
00010000
01000000
10000000
,
00100000
00000000
00010000
10000000
00010000
00000000
00000000
00000000
,
00100000
00000000
01000000
00010000
01000000
00000000
00000000
00000000
,
00100000
00000000
00001000
00010000
00001000
00000000
00000000
00000000
,
00000010
00000000
00010000
00001000
00010000
00000000
00000000
00000000
,
00000010
00000000
00000100
00001000
00000001
00000000
00000000
00000000
,
00000010
00000000
00001000
00000001
00000010
00000000
00000000
00000000
,
00000010
00000000
00000100
00001000
00000001
00000000
00000010
00000000
,
00000000
00000100
00000100
00000100
00000010
00000000
00000000
00000000
,
00010000
01000000
00100000
10000000
,
00010000
10000000
00010000
10000000
00100000
00010000
00001000
00000000
,
00001000
00000010
00000100
00000001
,
00001000
00000001
00001000
00000001
00000100
00001000
00010000
00000000
,
01000000
00000000
00000000
00000000
,
00000000
00000000
00100000
00000000
00010000
10000000
01000000
10000000
,
00010000
10000000
00000000
00000000
00001000
00010000
00000000
00000000
,
00000010
00001000
00000100
00000001
,
00001000
00000001
00001000
00000000
00000010
00000100
00000010
00000100
,
00000010
00000100
00000010
00000000
00001000
00010000
01000000
00000000
,
00100000
00100000
00100000
00100000
,
00010000
01000000
10000000
00000000
,
00100000
00100000
00100000
00100000
,
00010000
00001000
00000010
00000100
,
00000100
00000100
00000100
00000100
,
00000000
00000000
00000000
00000000
,
00100000
00000000
01000000
00100000
00010000
00000000
01000000
00100000
,
00010000
00010000
00001000
00000100
,
00000010
00000000
00000100
00000010
00001000
00000000
00000100
00000010
,
00001000
00001000
00010000
01000000
,
00100000
00010000
01000000
00100000
10000000
00000000
00100000
00010000
,
01000000
00010000
00001000
00000100
,
00000010
00001000
00000100
00000010
00001000
00000000
00000010
00001000
,
00000100
00001000
00010000
01000000
,
00100000
00010000
01000000
00100000
10000000
00000000
00100000
00010000
,
01000000
00001000
00010000
00001000
00010000
00000000
00000010
00000000
,
00000010
00001000
00000100
00000010
00000001
00000000
00000100
00001000
,
00000100
00010000
00001000
00010000
00001000
00000000
01010000
00000000
,
00000000
00000000
00000000
00000000
;

//---------------dance-double - ----------------
#NOTEDATA:;
#CHARTNAME:;
#STEPSTYPE:dance-double;
#DESCRIPTION:;
#CHARTSTYLE:;
#DIFFICULTY:Hard;
#METER:12;
#RADARVALUES:0.591947,0.608083,0.471800,0.000000,0.000000,404.000000,358.000000,46.000000,0.000000,0.000000,0.000000,0.000000,0.000000,0.000000,0.591947,0.608083,0.471800,0.000000,0.000000,404.000000,358.000000,46.000000,0.000000,0.000000,0.000000,0.000000,0.000000,0.000000;
#CREDIT:;
#DISPLAYBPM:182.000000;
#NOTES:
00000000
00000000
00000000
00000000
,
00000000
00000000
00000000
00000000
,
00000000
00000000
00000000
00000000
,
00000000
00000000
00000000
00000000
,
00000000
00000000
00000000
00000000
,
00000000
00000000
00000000
00000000
,
00110000
00000000
01000000
00010000
00000000
00010000
10000000
00010000
,
00100000
00000000
01000000
10000000
00000000
10000000
00010000
01000000
,
00001000
00000000
00010000
00000100
00000000
00001000
00000001
00000100
,
00000010
00000000
00000100
00000001
00001000
00000100
00001000
00000001
,
00000100
00000010
00010000
00000000
01000000
00000000
00100000
00000000
,
00010000
10000000
00100000
00000000
10000000
00000000
01000000
00000000
,
00010000
00001000
00000100
00000000
00000100
00001000
00000001
00000000
,
00000001
00001000
00000010
00000000
00001000
00000001
00000100
00000000
,
00001001
00011000
01010000
11000000
,
00000000
10000000
00010000
01000000
00010000
10000000
00100000
01000000
,
00010000
10000000
00000000
00000000
00001000
00010000
00000000
00011000
,
00000000
00001100
00000000
00000001
00000100
00000001
00001000
00000100
,
00001001
00001100
00000101
00000011
,
00000000
00000001
00001000
00000100
00001000
00000001
00000010
00000100
,
00001000
00000001
00000000
00000000
00010000
00001000
00000000
00000000
,
00100000
00010000
00001000
00000100
,
00000010
00000000
00000001
00001000
00000000
00001000
00000001
00001000
,
00000010
00000000
00001000
00000001
00001000
00000100
00000010
00000000
,
00000110
00000000
00000000
00000101
00001100
00000000
00011000
00000000
,
00000000
01000000
01000000
01000000
01000000
00000000
10010000
00000000
,
00100000
00010000
01000000
00000000
00010000
00001000
00000100
00000000
,
00001000
00000001
00001000
00000001
00000010
00000100
00000010
00000000
,
00000001
00001000
00000010
00000000
00001000
00010000
01000000
00000000
,
00010000
10000000
00010000
10000000
01000000
00100000
01000000
00000000
,
10010000
00110000
01010000
11000000
,
00000000
10000000
00010000
01000000
00010000
10000000
00100000
01000000
,
00010000
10000000
00000000
00000000
00001000
00010000
00000000
00011000
,
00000000
00001100
00000000
00000001
00000100
00000001
00001000
00000100
,
00000010
00000000
00010000
00001000
00000000
00010000
00001000
00010000
,
00100000
00000000
01000000
10000000
00100000
01000000
00010000
00000000
,
01000000
00000000
00001000
00010000
00000000
00000010
00001000
00000001
,
00001000
00000000
00000001
00000100
00000000
00000010
00001000
00000100
,
00001000
00000000
00010000
00001000
00000000
00001000
00010000
00001000
,
00010000
00000000
00010000
00001000
00000100
00000001
00001000
00000000
,
00000110
00000000
00000000
00000101
00001100
00000000
00011000
00000000
,
00000000
00100000
00100000
00100000
00100000
00000000
10010000
00000000
,
00100000
10000000
01000000
00000000
01000000
10000000
00100000
00000000
,
00001000
00010000
00001000
00010000
00000010
00000100
00000010
00000000
,
00000100
00000001
00000010
00000000
00000010
00000001
00000100
00000000
,
00010000
00001000
00010000
00001000
01000000
00100000
01000000
00000000
,
10010000
10100000
01010000
11000000
,
00000000
10000000
00010000
01000000
00010000
10000000
00100000
01000000
,
00010000
10000000
00000000
00000000
00001000
00010000
00000000
00011000
,
00000000
00001100
00000000
00000001
00000100
00000001
00001000
00000100
,
00000010
00000000
00000000
00000000
,
00100000
00100000
00100000
00100000
,
10000000
00010000
10000000
00000000
01000000
00001000
01000000
00001000
,
00000100
00000010
00000100
00000000
00000010
00000100
00000010
00000000
,
00000010
00001000
00100000
00010000
,
10100000
01010000
00110000
11000000
,
00100000
00010000
00001000
00000100
00000010
00000000
00000010
00000000
,
00001010
00000101
00000011
00001100
,
00000010
00000000
00000100
00000010
00000001
00000000
00000100
00000001
,
00000010
00000000
00001000
00010000
01000000
00000000
01100000
00000000
,
00100000
00000000
01000000
00100000
10000000
00000000
01000000
10000000
,
00100000
00000000
00010000
00001000
00000100
00000000
00000110
00000000
,
00000100
00001000
00010000
01000000
10000000
00000000
00100000
01000000
,
10000000
00000000
10000000
10000000
01000000
00000000
00100000
00000000
,
01000000
00010000
00001000
00000100
00000001
00000000
00000010
00000100
,
00000001
00000000
00000001
00000001
00000100
00000000
00000010
00000000
,
00000100
00001000
00010000
01000000
10000000
00000000
00100000
01000000
,
00010000
00100000
00010000
10000000
01000000
00000000
10010000
00000000
,
01000000
00010000
00001000
00000010
00000001
00000000
00001000
00000001
,
00000010
00001000
00000001
00000100
00001100
00000000
00000101
00000000
,
00000000
00000000
00000000
00000000
;

//---------------dance-couple - ----------------
#NOTEDATA:;
#CHARTNAME:;
#STEPSTYPE:dance-couple;
#DESCRIPTION:;
#CHARTSTYLE:;
#DIFFICULTY:Medium;
#METER:8;
#RADARVALUES:0.385352,0.608083,0.205130,0.000000,0.000000,263.000000,243.000000,20.000000,0.000000,0.000000,0.000000,0.000000,0.000000,0.000000,0.385352,0.608083,0.205130,0.000000,0.000000,263.000000,243.000000,20.000000,0.000000,0.000000,0.000000,0.000000,0.000000,0.000000;
#CREDIT:;
#DISPLAYBPM:182.000000;
#NOTES:
00000000
00000000
00000000
00000000
,
00000000
00000000
00000000
00000000
,
00000000
00000000
00000000
00000000
,
00000000
00000000
00000000
00000000
,
00000000
00000000
00000000
00000000
,
00000000
00000000
00000000
00000000
,
00110000
01000000
01000000
10000000
,
00001010
00000100
00000100
00000001
,
10100000
01000000
00010000
01000000
,
00000011
00000100
00001000
00000100
,
00100000
01000000
00010000
01000000
,
00000010
00000100
00001000
00000100
,
00100000
10000000
00010000
00000000
01000000
00000000
00010000
00000000
,
00000010
00000001
00001000
00000000
00000100
00000000
00001000
00000000
,
10010000
00100000
10000000
01000000
,
00001001
00000010
00000001
00000100
,
10000000
00010000
00000000
00000000
00000001
00001000
00000000
00000000
,
00100000
00010000
00010000
01000000
,
00000010
00001000
00001000
00000100
,
00011000
00100010
00011000
00100010
,
00010000
10000000
00000000
00000000
00001000
00000001
00000000
00000000
,
00100000
01000000
00010000
00010000
,
00000010
00000100
00001000
00001000
,
00100000
00000000
00010000
10000000
00010000
00000000
10000000
00000000
,
00000010
00000000
00001000
00000001
00001000
00000000
00000001
00000000
,
00000000
01000100
10000001
01000100
10000001
00000000
00011000
00000000
,
10000001
00100000
01000000
00000000
01000000
00010000
00100000
00000000
,
10000001
00010000
10000000
00010000
00100000
01000000
00100000
00000000
,
01000001
10000000
00100000
00000000
00100000
10000000
01000000
00000000
,
00010001
10000000
00010000
10000000
01000000
00100000
01000000
00000000
,
00100001
00110000
01010000
11000000
,
10100001
00000000
00100000
00000000
10000000
00010000
00100000
01000000
,
10000001
00010000
00000000
00000000
10000000
00010000
00000000
00000000
,
00100001
00010000
01000000
10000000
,
00100010
00000000
10001000
01000100
00000000
00010001
00100010
10001000
,
00100010
00000000
01000100
00010001
00000000
10001000
00100010
00010001
,
01000100
00000000
10001000
00010001
00000000
00100010
10001000
00100010
,
00010001
00000000
10001000
00010001
00000000
00010001
01000100
10001000
,
00100010
00000000
01000100
10001000
00000000
01000100
00100010
10001000
,
00010001
00000000
10001000
00010001
00100010
10001000
00010001
00000000
,
01100110
00000000
00000000
01010101
11001100
00000000
10011001
00000000
,
00000000
00100010
00100010
00100010
00100010
00000000
10011001
00000000
,
10001000
00000010
00000100
00000000
00000100
00000001
00000010
00000000
,
10001000
00000001
00001000
00000001
00000010
00000100
00000010
00000000
,
10000100
00001000
00000010
00000000
00000010
00001000
00000100
00000000
,
10000001
00001000
00000001
00001000
00000100
00000010
00000100
00000000
,
10000010
00000011
00000101
00001100
,
10001010
00000000
00000010
00000000
00001000
00000001
00000010
00000100
,
10001000
00000001
00000000
00000000
00001000
00000001
00000000
00000000
,
10000010
00000001
00000100
00001000
,
10001000
00010001
10001000
00000000
00100010
01000100
00100010
01000100
,
00100010
01000100
00100010
00000000
10001000
00010001
10001000
00010001
,
00100000
00100000
00100000
00100000
,
00010000
01000000
10000000
00100000
,
00000010
00000010
00000010
00000010
,
00000001
00001000
00000010
00000100
,
01000000
00000100
01000000
00000100
,
10100000
00000101
00110000
00001100
,
00100010
00000000
01000100
00100010
00010001
00000000
01000100
00010001
,
00100010
00000000
00010001
00010001
10001000
00000000
01100110
00000000
,
00100010
00000000
01000100
00100010
10001000
00000000
01000100
10001000
,
00100010
00000000
10001000
10001000
00010001
00000000
01100110
00000000
,
01000100
00100010
00010001
01000100
10001000
00000000
00100010
10001000
,
01000100
00000000
10001000
10001000
00100010
00000000
01100110
00000000
,
01000100
10001000
00100010
01000100
00010001
00000000
00100010
00010001
,
01000100
00000000
00010001
00010001
10001000
00000000
01100110
00000000
,
01000100
00100010
00010001
01000100
10001000
00000000
00100010
10001000
,
01000100
00010001
00100010
10001000
00010001
00000000
01100110
00000000
,
01000100
10001000
00100010
01000100
00010001
10001000
00100010
00010001
,
01000100
10001000
00010001
01000100
10001000
00000000
01100110
00000000
;

//---------------dance-solo - ----------------
#NOTEDATA:;
#CHARTNAME:;
#STEPSTYPE:dance-solo;
#DESCRIPTION:;
#CHARTSTYLE:;
#DIFFICULTY:Easy;
#METER:7;
#RADARVALUES:0.441030,0.500774,0.523082,0.000000,0.000000,301.000000,250.000000,51.000000,0.000000,0.000000,0.000000,0.000000,0.000000,0.000000,0.441030,0.500774,0.523082,0.000000,0.000000,301.000000,250.000000,51.000000,0.000000,0.000000,0.000000,0.000000,0.000000,0.000000;
#CREDIT:;
#DISPLAYBPM:182.000000;
#NOTES:
000000
000000
000000
000000
,
000000
000000
000000
000000
,
000000
000000
000000
000000
,
000000
000000
000000
000000
,
000000
000000
000000
000000
,
000000
000000
000000
000000
,
001000
001000
000100
100001
,
000100
000100
001000
100001
,
000010
000010
001001
100000
,
010000
010000
101000
000001
,
001000
001000
000100
100001
,
000100
000100
001000
100001
,
000010
000010
001001
100000
,
010000
010000
101000
000001
,
001000
001000
000100
100001
,
000100
000100
001000
100001
,
000010
000010
001001
100000
,
010000
010000
101000
000001
,
010010
000000
001100
000000
,
001001
000000
101000
000000
,
100100
000000
000101
000000
,
001010
000000
011000
000000
,
001000
001000
000100
100001
,
000100
000100
001000
100001
,
000010
000010
001001
100000
,
010000
010000
101000
000001
,
000100
000001
000100
000000
000100
100000
000100
000000
,
000001
001000
100000
001000
,
000100
000001
001000
000000
000100
100000
001000
000000
,
000010
000010
010000
000000
,
000100
000010
001000
000000
000100
010000
001000
000000
,
000001
001100
100000
001100
,
000010
000010
010000
010000
,
000100
000001
000100
100000
,
000100
000010
000001
001000
,
100000
010000
000100
000010
,
000100
010000
100000
001000
,
000001
000010
000100
010000
,
000100
000010
000001
001000
,
100000
010000
000100
000010
,
000100
010000
100000
001000
,
000001
000010
000100
010000
,
000100
000001
001000
000000
000100
100000
001000
000000
,
000001
001000
100000
001000
,
000100
000010
001000
000000
000100
010000
001000
000000
,
000010
000010
010000
000000
,
000100
000010
001000
000000
000100
010000
001000
000000
,
000001
100000
001000
001000
,
000010
000010
010000
010000
,
000100
000001
000100
100000
,
001000
000001
001000
000010
,
001000
000100
001000
010000
,
000100
000100
000100
000100
,
000010
001000
010000
001000
,
001010
000000
001000
000000
,
000001
000000
000100
000000
,
100000
000000
001000
000000
,
000001
000000
000010
000000
,
001000
001000
001100
100001
,
000100
000100
001100
100001
,
000010
000010
001001
101000
,
010000
010000
101000
001001
,
001000
001000
001100
100001
,
000100
000100
001100
100001
,
000010
000010
001001
101000
,
010000
010000
101000
001001
,
001000
001000
001100
100001
,
000100
000100
001100
100001
,
000010
000010
001001
101000
,
010000
010000
101000
001001
;

//---------------dance-solo - ----------------
#NOTEDATA:;
#CHARTNAME:;
#STEPSTYPE:dance-solo;
#DESCRIPTION:;
#CHARTSTYLE:;
#DIFFICULTY:Medium;
#METER:10;
#RADARVALUES:0.498174,0.643853,0.492313,0.000000,0.000000,340.000000,292.000000,48.000000,0.000000,0.000000,0.000000,0.000000,0.000000,0.000000,0.498174,0.643853,0.492313,0.000000,0.000000,340.000000,292.000000,48.000000,0.000000,0.000000,0.000000,0.000000,0.000000,0.000000;
#CREDIT:;
#DISPLAYBPM:182.000000;
#NOTES:
000000
000000
000000
000000
,
000000
000000
000000
000000
,
000000
000000
000000
000000
,
000000
000000
000000
000000
,
000000
000000
000000
000000
,
000000
000000
000000
000000
,
100001
000000
000100
001000
000000
000100
001000
000000
,
100001
000000
000100
001000
000000
000100
001000
000000
,
000001
000000
100000
000100
000000
010000
001000
000000
,
100000
000000
000001
000100
000000
000010
001000
000000
,
100001
000000
000100
001000
000000
000100
001000
000000
,
100001
000000
000100
001000
000000
000100
001000
000000
,
000001
000000
100000
000100
000000
010000
001000
000000
,
100000
000000
000001
000100
000000
000010
001000
000000
,
100001
000100
001000
000100
,
100001
000000
000100
001000
000100
001000
000100
000000
,
000001
000001
100000
100000
,
000010
010000
001000
100001
,
001100
001100
100001
100001
,
000101
000101
101000
101000
,
001001
001001
100100
100100
,
000010
010000
000010
010000
,
100001
000000
000100
001000
000000
000100
001000
000000
,
100001
000000
000100
001000
000000
000100
001000
000000
,
000001
000000
100000
000100
000000
010000
001000
000000
,
100000
000000
000001
000100
000000
000010
001000
000000
,
000001
000001
001000
000000
100000
100000
001000
000000
,
000010
000100
100000
000000
,
000100
010000
000001
000000
000100
010000
000001
000000
,
000100
010000
000001
000000
,
000100
000010
100000
000000
000100
000010
100000
000000
,
000100
000001
001000
100000
,
000001
100000
000001
100000
,
000010
000010
100000
000000
,
000100
000000
000010
001000
000000
000001
100000
000000
,
000100
000000
000010
001000
000000
000001
100000
000000
,
000100
000000
000010
001000
000000
000001
100000
000000
,
000100
000000
000010
001000
000000
000001
100000
000000
,
000100
000000
000100
010000
000000
001000
100000
000000
,
000100
000000
000100
010000
000000
001000
100000
000000
,
000100
000000
000100
010000
000000
001000
100000
000000
,
000100
000000
000100
010000
000000
001000
100000
000000
,
000001
000001
001000
000000
100000
100000
001000
000000
,
000010
000100
100000
000000
,
000100
010000
000001
000000
000100
010000
000001
000000
,
000100
010000
000001
000000
,
000100
000010
100000
000000
000100
000010
100000
000000
,
000100
000001
001000
100000
,
001001
101000
001001
101000
,
000110
000110
100000
000000
,
000110
000110
010100
010100
,
001001
001001
101000
101000
,
000100
000010
000001
001000
,
000100
010000
100000
001000
,
000010
000010
010000
010000
,
000001
000001
100000
100000
,
000001
001000
100000
001000
,
001000
001001
001000
101000
,
100001
000000
000100
001000
000000
000100
001000
000000
,
100001
000000
000100
001000
000000
000100
001000
000000
,
000001
000000
100000
000100
000000
010000
001000
000000
,
100000
000000
000001
000100
000000
000010
001000
000000
,
100001
000100
001000
000100
,
100001
000000
000100
001000
000100
001000
000100
000000
,
000001
000001
100000
100000
,
000100
001000
000101
100100
,
100001
000100
001000
000100
,
100001
000000
000100
001000
000100
001000
000100
000000
,
000001
000001
100000
100000
,
000110
010100
001000
010010
;

//---------------dance-solo - ----------------
#NOTEDATA:;
#CHARTNAME:;
#STEPSTYPE:dance-solo;
#DESCRIPTION:;
#CHARTSTYLE:;
#DIFFICULTY:Hard;
#METER:12;
#RADARVALUES:0.609530,0.643853,1.179499,0.000000,0.000000,416.000000,301.000000,115.000000,0.000000,0.000000,0.000000,0.000000,0.000000,0.000000,0.609530,0.643853,1.179499,0.000000,0.000000,416.000000,301.000000,115.000000,0.000000,0.000000,0.000000,0.000000,0.000000,0.000000;
#CREDIT:;
#DISPLAYBPM:182.000000;
#NOTES:
000000
000000
000000
000000
,
000000
000000
000000
000000
,
000000
000000
000000
000000
,
000000
000000
000000
000000
,
000000
000000
000000
000000
,
000000
000000
000000
000000
,
000101
000000
100100
100000
000000
000010
010000
000000
,
000101
000000
100100
100000
000000
000010
010000
000000
,
100100
000000
000101
000001
000000
010000
000010
000000
,
100100
000000
000101
000001
000000
010000
000010
000000
,
101000
000000
100000
001000
000000
000100
001000
000000
,
101000
000000
100000
001000
000000
000100
001000
000000
,
001001
000000
000001
001000
000000
000100
001000
000000
,
001001
000000
000001
001000
000000
000100
001000
000000
,
000110
010100
000110
010100
,
000110
000000
000100
000010
001000
000001
000000
000000
,
001000
001000
000101
000000
,
001000
001000
100100
000000
,
000110
010100
000101
100100
,
001001
101000
001100
100001
,
100001
001100
101000
001001
,
000101
100100
000011
110000
,
101000
000000
100000
001000
000000
000100
001000
000000
,
101000
000000
100000
001000
000000
000100
001000
000000
,
001001
000000
000001
001000
000000
000100
001000
000000
,
001001
000000
000001
001000
000000
000100
001000
000000
,
000010
100000
000001
000000
000100
000010
001001
000000
,
000101
100001
001001
001000
,
000100
010000
000001
000000
000100
000010
001001
000000
,
100010
010001
001100
001000
,
000100
000010
001000
000000
000100
010000
001000
000000
,
000100
000010
001000
000000
000100
010000
001000
000000
,
100010
010001
001100
100001
,
001000
001000
000010
000000
,
001000
000000
000001
000100
000000
001000
000100
000000
,
001000
000000
100000
000100
000000
001000
000010
000000
,
001000
000000
000001
000100
000000
001000
000100
000000
,
001000
000000
100000
000100
000000
001000
000010
000000
,
001000
000000
000001
000100
000000
001000
000100
000000
,
001000
000000
100000
000100
000000
001000
000010
000000
,
001000
000000
000001
000100
000000
001000
000100
000000
,
001000
000000
100000
000100
000000
001000
000010
000000
,
100000
000001
010000
000000
000100
100000
011000
000000
,
000101
100001
001001
000000
,
000100
010000
101000
000000
000100
000010
001001
000000
,
100010
010001
001100
000000
,
000100
000010
001000
000000
000100
010000
001000
000000
,
000100
000010
001000
000000
000100
010000
001000
000000
,
100010
010001
001100
100001
,
001000
001000
010010
000000
,
000110
010010
010100
010010
,
100100
010010
000101
010010
,
010100
001010
000110
011000
,
100100
001010
000101
011000
,
001000
001000
100000
000000
001000
001000
010000
000000
,
001000
001000
000100
000000
001000
001000
000010
000000
,
001000
001000
000001
000000
001000
001000
001000
000000
,
001000
001000
100000
000000
001000
001000
010000
000000
,
101000
000000
101000
100000
000000
000001
001000
000000
,
101000
000000
101000
100000
000000
000001
001000
000000
,
001001
000000
001001
000001
000000
100000
001000
000000
,
001001
000000
001001
000001
000000
100000
001000
000000
,
000110
010100
000110
010100
,
000110
000000
000100
000010
001000
000001
000000
000000
,
000101
100100
001100
001100
,
000110
001001
101000
010100
,
000110
010100
000011
110000
,
000110
000000
000100
000010
001000
000001
000000
000000
,
000101
100100
001100
001100
,
000110
001001
101000
010010
;

//---------------dance-single - ----------------
#NOTEDATA:;
#CHARTNAME:;
#STEPSTYPE:dance-single;
#DESCRIPTION:;
#CHARTSTYLE:;
#DIFFICULTY:Challenge;
#METER:15;
#RADARVALUES:0.857152,0.935106,0.676930,0.451287,0.492313,585.000000,519.000000,66.000000,44.000000,0.000000,0.000000,0.000000,0.000000,0.000000,0.857152,0.935106,0.676930,0.451287,0.492313,585.000000,519.000000,66.000000,44.000000,0.000000,0.000000,0.000000,0.000000,0.000000;
#CREDIT:;
#DISPLAYBPM:182.000000;
#NOTES:
0000
0000
0000
0000
,
0000
0000
0000
0000
,
0000
0000
0000
0000
,
0000
0000
0000
0000
,
0000
0000
0000
0000
,
0000
0000
0000
0000
,
1001
0000
0010
1000
0100
0010
0001
0100
,
1000
0000
0001
1000
0100
0010
0001
1000
,
0010
0000
1000
0001
0010
0001
0100
0010
,
1000
0000
0100
1000
0001
0100
0001
0010
,
0002
0000
0100
0000
1003
0000
0000
0000
1000
0010
1000
0000
0001
0010
0001
0000
,
2000
0000
0010
0000
3001
0000
0000
0000
1000
0100
1000
0000
0001
0100
0001
0000
,
0020
0000
1000
0000
0130
0000
0000
0000
0100
0001
0010
0000
0100
1000
0010
0000
,
0200
0000
0001
0000
1300
0000
0000
0000
0010
1000
0100
0000
0010
0001
0100
0000
,
0002
0010
0003
0000
0002
0100
0003
0000
0002
1000
0003
0000
0002
1000
0003
0000
,
0000
1010
1010
0100
0101
0001
1001
1000
,
1100
0001
0100
0000
1100
0001
0100
1100
,
0000
0000
1000
0100
1000
0000
0001
0100
0001
0000
0010
0000
1001
0000
0000
0000
,
2000
0100
3000
0000
2000
0010
3000
0000
2000
0001
3000
0000
2000
0001
3000
0000
,
0000
1100
1100
1000
1010
0010
0110
0100
,
1001
0020
0100
0000
0100
0000
0130
0000
,
0210
0000
0301
0010
0100
1000
0010
0100
,
0101
0000
0001
1000
0100
0010
0001
0100
,
1010
0000
1000
0001
0010
0001
0100
0010
,
1001
0000
1000
1100
0101
0000
1001
0000
,
0010
1000
0010
1000
0010
0100
0010
0100
0001
1000
0000
0001
1000
0000
1100
0000
,
0000
0000
1000
0000
1000
0000
1000
0000
0001
0010
0001
0000
0100
0000
0100
0000
,
0010
0000
0010
0000
1000
0000
1001
0000
0000
0000
0001
0100
0001
0000
0011
0000
,
0000
0000
0010
0000
0010
0000
0010
0000
0001
1000
0001
0000
0100
0000
0102
0000
,
0000
0000
2003
0000
0000
0000
3010
0000
1000
0100
0010
0000
0001
0000
0100
0000
,
0020
1000
0030
0000
0020
0001
0030
0000
0020
0100
0030
0000
0020
0100
0030
0000
,
1000
0000
1000
0000
0100
0000
0100
0000
0010
0001
0100
0000
0001
0000
1000
0000
,
0011
1000
0001
0000
0011
1000
0001
0101
,
0001
0000
0010
0000
0100
0000
1000
0000
0010
0100
0010
0100
0010
1000
0001
0000
,
0011
0000
0000
0000
0001
0000
0100
0000
0010
1000
0010
0000
1000
0100
1000
0000
,
1100
0000
0000
0000
1000
0000
0001
0000
0100
0010
0100
0000
0001
0010
0001
0000
,
0101
0000
0000
0000
0010
0000
1000
0000
0100
1000
0001
0000
0100
0001
0010
0000
,
0110
0000
0000
0000
0100
0000
1000
0000
0010
0100
0001
0000
0010
0001
1000
0000
,
1001
0000
0000
0000
0001
0000
0100
0000
0010
0100
0010
0000
1000
0001
1000
0000
,
0101
0000
0000
0000
1000
0000
0001
0000
0100
0001
0100
0000
0010
1000
0010
0000
,
0110
0000
0001
0011
1010
0000
0110
0000
,
1000
0100
1000
0001
0010
0100
0010
0001
0100
0010
0000
0100
0010
0000
1010
0000
,
0000
0000
0100
0000
0100
0000
0100
0000
1000
0001
1000
0000
0010
0000
0010
0000
,
1000
0100
1000
0000
0001
0000
0101
0000
0000
0000
0010
0100
0010
0000
0110
0000
,
0000
0000
1000
0000
1000
0000
1000
0000
0001
0010
0001
0010
0001
0000
0102
0000
,
0000
0000
2003
0000
0000
0000
3100
0000
1000
0010
1000
0010
0100
0000
0001
0000
,
0200
0001
0300
0000
0200
1000
0300
0000
0200
0010
0300
0000
0200
0010
0300
0000
,
0001
1001
1001
0100
1100
1000
1010
0001
,
0101
1000
0100
0000
0101
1000
0100
0101
,
0000
0000
0011
0000
0001
0000
0100
0000
0010
1000
0010
1000
0100
0010
0001
0000
,
1002
0000
0203
0000
0310
1000
0100
0010
,
0001
0100
0102
0000
1003
0001
0010
0100
,
1000
0010
0210
0000
0310
0100
0001
0010
,
0001
0100
2001
0000
3001
0010
0100
1000
,
2010
0000
0001
0001
0001
0000
0100
0100
,
0100
0000
0010
0010
3010
1000
0001
0100
,
0102
0000
0010
0010
0010
0000
1000
1000
,
1003
0001
0010
0100
1000
0010
0100
0001
,
0200
0000
0000
0000
0301
1000
0001
0000
0000
0000
1000
0100
0010
0000
0001
0000
,
0200
0000
0000
0000
0310
1000
0010
0000
0000
0000
1000
0001
0100
0000
0010
0000
,
2000
0000
0000
0000
3001
0010
0001
0000
0000
0000
0100
0001
1000
0000
0100
0000
,
0020
0000
0000
0000
0031
1000
0001
0000
0000
0000
0010
0100
1000
0000
0001
0000
,
2000
0010
3000
0000
0020
0100
0030
0000
0200
0001
0300
0000
0002
1000
0003
0000
,
0000
0101
0101
0100
0110
0010
1010
1000
,
1100
0001
1000
0000
1100
0001
1000
0101
,
0000
0000
0011
0000
0000
0000
1001
0000
1000
0100
0010
0100
1000
0000
0000
0000
,
0002
0000
0010
0000
0103
0000
0000
0000
0001
0010
0001
0000
1000
0100
1000
0000
,
0020
0000
1000
0000
0130
0000
0000
0000
1000
0001
0010
0000
0001
1000
0100
0000
,
2000
0000
0010
0000
3001
0000
0000
0000
0100
1000
0001
0000
0100
0010
1000
0000
,
0001
0010
0001
0010
0100
1000
0100
1000
0010
0100
0010
0100
0001
0000
1001
0000
,
0000
0000
0000
0000
,
0000
0000
0000
0000
0000
0010
0000
1000
,
0000
0001
0000
0000
0000
0000
0000
0000
0000
0000
0000
0000
0100
0000
0000
0010
;

//---------------dance-solo - ----------------
#NOTEDATA:;
#CHARTNAME:;
#STEPSTYPE:dance-solo;
#DESCRIPTION:;
#CHARTSTYLE:;
#DIFFICULTY:Beginner;
#METER:6;
#RADARVALUES:0.353117,0.485005,0.358978,0.082052,0.000000,241.000000,206.000000,35.000000,8.000000,0.000000,0.000000,0.000000,0.000000,0.000000,0.353117,0.485005,0.358978,0.082052,0.000000,241.000000,206.000000,35.000000,8.000000,0.000000,0.000000,0.000000,0.000000,0.000000;
#CREDIT:;
#DISPLAYBPM:182.000000;
#NOTES:
000000
000000
000000
000000
,
000000
000000
000000
000000
,
000000
000000
000000
000000
,
000000
000000
000000
000000
,
000000
000000
000000
000000
,
000000
000000
000000
000000
,
010010
010000
000000
010000
,
010010
000010
000000
000010
,
001010
001000
000000
001000
,
000010
010000
000010
010000
,
001000
001000
001000
001000
,
010000
010000
010000
010000
,
000010
000010
000010
000010
,
010000
000010
010000
000010
,
011000
001010
010010
010010
,
000000
010000
010000
010000
,
001010
000000
000000
000000
,
001000
000010
010000
000010
,
011000
001010
010010
010010
,
000000
000010
000010
000010
,
011000
000000
000000
000000
,
010000
000010
001000
000010
,
001010
000010
000000
010000
,
011000
010000
000000
000010
,
010010
000000
001000
001000
,
000000
000010
010000
000010
,
010000
010000
000010
000010
,
010000
001000
000010
000000
,
000010
000010
010000
010000
,
000010
001000
010000
000000
,
000010
001000
000010
001000
,
010000
010000
000010
000010
,
001000
001000
000000
001000
,
000010
010000
000010
000000
,
001010
001000
000000
000010
,
010010
000010
000000
010000
,
011000
010000
000000
001000
,
010000
010000
000010
000010
,
010010
010000
000000
000010
,
001010
001000
000000
000010
,
011000
000000
010000
010000
,
000000
000010
001000
010000
,
000010
000010
010000
010000
,
001000
001000
001000
000000
,
010000
010000
000010
000010
,
001000
001000
001000
000000
,
010000
001000
010000
001000
,
000010
000010
010000
010000
,
001000
001000
000000
010000
,
000010
000010
001000
000000
,
020020
000000
000000
000000
,
000000
000000
000000
030030
,
000000
000000
000000
000000
,
000010
010000
000010
010000
,
022000
000000
000000
033000
,
000000
000000
000000
000000
,
002020
000000
000000
003030
,
010000
000010
010000
000010
,
010010
010000
000010
001000
,
000010
001000
000010
010000
,
001000
010000
000010
010000
,
001000
001000
001000
001000
,
011000
001010
010010
010010
,
000010
010000
001000
010000
,
000010
000010
010000
010000
,
001000
010000
001000
000010
,
011000
001010
010010
010010
,
000010
010000
001000
010000
,
000010
000010
010000
010000
,
000010
010000
000010
010000
,
020020
000000
000000
000000
,
000000
000000
000000
000000
,
000000
000000
000000
030030
;

//---------------dance-solo - ----------------
#NOTEDATA:;
#CHARTNAME:;
#STEPSTYPE:dance-solo;
#DESCRIPTION:;
#CHARTSTYLE:;
#DIFFICULTY:Challenge;
#METER:16;
#RADARVALUES:0.884991,0.972510,0.697443,0.471800,0.512826,604.000000,536.000000,68.000000,46.000000,0.000000,0.000000,0.000000,0.000000,0.000000,0.884991,0.972510,0.697443,0.471800,0.512826,604.000000,536.000000,68.000000,46.000000,0.000000,0.000000,0.000000,0.000000,0.000000;
#CREDIT:;
#DISPLAYBPM:182.000000;
#NOTES:
// measure 0
000000
000000
000000
000000
,  // measure 1
000000
000000
000000
000000
,  // measure 2
000000
000000
000000
000000
,  // measure 3
000000
000000
000000
000000
,  // measure 4
000000
000000
000000
000000
,  // measure 5
000000
000000
000000
000000
,  // measure 6
101000
000000
000000
000000
100000
000000
000100
000000
001000
000010
001000
000000
000001
000000
010000
000000
,  // measure 7
010100
000000
000000
000000
000100
000000
100000
000000
000001
010000
000001
000000
001000
000000
000010
000000
,  // measure 8
010010
000000
000000
000000
010000
000000
001000
000000
000100
000001
000100
000000
000010
000000
100000
000000
,  // measure 9
100001
000000
000000
000000
000010
000000
000100
000000
000001
001000
000001
000000
100000
000000
010000
000000
,  // measure 10
200000
000000
000100
000000
300010
000000
000000
000000
010000
001000
010000
000000
000001
000000
001000
000000
,  // measure 11
000020
000000
010000
000000
001030
000000
000000
000000
000100
100000
000100
000000
010000
000000
000001
000000
,  // measure 12
002000
000000
000010
000000
003001
000000
000000
000000
010000
000100
010000
000000
000010
000000
100000
000000
,  // measure 13
001000
000000
010000
000000
000100
000000
001000
000000
000010
100000
000010
000000
010000
000000
000001
000000
,  // measure 14
020000
000010
030000
000000
020000
000001
030000
000000
020000
000100
030000
000000
020000
001000
030000
000000
,  // measure 15
000000
011000
011000
010000
010010
000010
000110
000100
,  // measure 16
000101
000001
100000
000100
001000
000010
010000
010002
,  // measure 17
000000
000000
100003
001000
010000
000000
000010
000100
000001
000000
001000
000000
000100
000000
010000
000000
,  // measure 18
000020
100000
000030
000000
000020
000100
000030
000000
000020
010000
000030
000000
000020
001000
000030
000000
,  // measure 19
000000
001010
001010
001000
001100
000100
100100
100000
,  // measure 20
101000
000002
100000
000000
001000
000000
010003
000000
,  // measure 21
000120
000000
000130
000001
001000
000100
100000
000000
,  // measure 22
101000
000000
000000
100000
000100
000000
001000
000000
000010
010000
000010
000000
001000
000001
000100
000000
,  // measure 23
000101
000000
000000
000001
010000
000000
001000
000000
100000
000010
100000
000000
000010
001000
000100
000000
,  // measure 24
001100
000000
000000
000100
001000
000000
001010
000000
010010
000000
010000
000000
011000
000000
000000
000000
,  // measure 25
100000
000100
100000
000100
010000
000010
010000
000010
001000
000001
000000
001000
000001
000000
000012
000000
,  // measure 26
000000
000000
100000
000000
100003
000000
000100
000000
001000
000001
000100
000000
000010
000000
010000
000000
,  // measure 27
010010
001000
000100
200100
000000
000010
300010
120000
,  // measure 28
000000
000000
100000
000000
130000
000000
000001
000000
000100
000010
010000
000000
001000
000000
101000
000000
,  // measure 29
000000
000000
001100
000000
000000
000000
000101
000000
000000
000000
000001
010000
000100
000000
001000
000000
,  // measure 30
000002
010000
000003
000000
000002
000010
000003
000000
000002
000100
000003
000000
000002
001000
000003
000000
,  // measure 31
000000
000011
000011
000001
100001
100000
100100
000100
,  // measure 32
001100
000010
010000
001000
000100
000001
100000
000100
,  // measure 33
001000
000100
001000
000000
000010
010000
000010
000000
100000
000001
100000
000000
000100
010000
000001
000000
,  // measure 34
000010
000100
000010
000100
000010
000000
100000
000000
001000
000000
010000
000000
000001
000000
100000
000000
,  // measure 35
001000
010000
001000
010000
001000
000000
100000
000000
000010
000000
000100
000000
000001
000000
000010
000000
,  // measure 36
000001
001000
000001
001000
000001
000000
000100
000000
000010
000000
100000
000000
000010
000000
010000
000000
,  // measure 37
000100
001000
000100
001000
000100
000000
010000
000000
000010
000000
100000
000000
000001
000000
100000
000000
,  // measure 38
010000
100000
010000
100000
010000
000000
001000
000000
000100
000000
000010
000000
000001
000000
001000
000000
,  // measure 39
000010
010000
000010
010000
000010
000000
000100
000000
000001
000000
001000
000000
000100
000000
100000
000000
,  // measure 40
101000
000000
000000
001000
100000
000000
000001
000000
000101
000000
000100
000000
000110
000000
000000
000000
,  // measure 41
000010
000100
000010
000100
000001
100000
000001
100000
001000
010000
000000
001000
010000
000000
012000
000000
,  // measure 42
000000
000000
100000
000000
103000
000000
000010
000000
000100
000001
010000
000000
000010
000000
001000
000000
,  // measure 43
000100
010000
000010
000000
001000
000000
001200
000000
000000
000000
100000
000000
100300
000000
201000
000000
,  // measure 44
000000
000000
000010
000000
300010
000000
000100
000000
000001
100000
001000
000000
010000
000000
000001
000000
,  // measure 45
100000
000100
010000
000000
000001
000000
000201
000000
000000
000000
000310
001000
000010
000000
100000
000000
,  // measure 46
002000
010000
003000
000000
002000
000010
003000
000000
002000
000001
003000
000000
002000
100000
003000
000000
,  // measure 47
000000
100001
100001
000001
010001
010000
010100
000100
,  // measure 48
100100
001000
000001
000100
000010
010000
001000
100000
,  // measure 49
000010
010000
000010
000000
000100
000001
000100
000000
000001
100000
001000
000000
100000
001000
010000
000000
,  // measure 50
020010
000000
001000
000000
030001
010000
000010
001000
,  // measure 51
000100
000100
001200
000000
100300
000010
010000
001000
,  // measure 52
100000
100000
120000
000000
031000
000010
000100
000001
,  // measure 53
000021
000000
000031
100000
000100
010000
001000
000000
,  // measure 54
100200
000000
001300
000100
010000
001000
000100
000010
,  // measure 55
000100
000001
100000
000100
001000
000010
010000
001000
,  // measure 56
100000
000001
000100
001000
010000
000100
100000
000010
,  // measure 57
020010
000000
031000
100000
000100
010000
000001
000000
,  // measure 58
000101
000000
000000
000000
100000
001000
100000
000000
000000
000000
000100
001000
000100
000000
010000
000000
,  // measure 59
011000
000000
000000
000000
100000
000010
100000
000000
000000
000000
000001
000100
000001
000000
001000
000000
,  // measure 60
001010
000000
000000
000000
000100
001000
000100
000000
000000
000000
010000
000010
010000
000000
000001
000000
,  // measure 61
100001
000000
000000
000000
010000
001000
010000
000000
000000
000000
000100
100000
000100
000000
001000
000000
,  // measure 62
000200
000010
000300
000000
000200
010000
000300
000000
000200
000001
000300
000000
000200
100000
000300
000000
,  // measure 63
000000
001100
001100
000100
100100
100000
110000
010000
,  // measure 64
010001
001000
100000
000100
001000
000010
010000
010010
,  // measure 65
000000
000000
000001
000100
001000
000000
010000
000010
100000
000000
000100
000000
010000
000000
001000
000000
,  // measure 66
200000
000010
300000
000000
200000
001000
300000
000000
200000
000100
300000
000000
200000
000001
300000
000000
,  // measure 67
000000
100100
100100
000100
010100
010000
011000
001000
,  // measure 68
001100
000010
010000
001000
100000
000001
000100
001000
,  // measure 69
100000
001000
100000
001000
000100
000010
000100
000010
010000
000001
010000
000001
001000
000000
001100
000000
,  // measure 70
000000
000000
000000
000000
,  // measure 71
000000
000000
000000
000000
000000
000200
000000
002300
,  // measure 72
000000
003001
000000
000000
000000
000000
000000
000000
000000
000000
000000
000000
020000
000000
000000
030010
;
