#VERSION:0.83;
#TITLE:LUV TO ME;
#SUBTITLE:-super euro version-;
#ARTIST:tiger YAMATO with Y&Co.;
#TITLETRANSLIT:;
#SUBTITLETRANSLIT:;
#ARTISTTRANSLIT:;
#GENRE:;
#ORIGIN:;
#CREDIT:;
#BANNER:LUV TO ME -super euro version--bn.png;
#BACKGROUND:LUV TO ME -super euro version--bg.png;
#PREVIEWVID:;
#JACKET:LUV TO ME -super euro version--jacket.png;
#CDIMAGE:;
#DISCIMAGE:;
#LYRICSPATH:;
#CDTITLE:;
#MUSIC:LUV TO ME -super euro version-.ogg;
#OFFSET:0.000000;
#SAMPLESTART:22.500000;
#SAMPLELENGTH:20.000000;
#SELECTABLE:YES;
#DISPLAYBPM:160.000000;
#BPMS:0.000=160.000;
#STOPS:;
#DELAYS:;
#WARPS:;
#TIMESIGNATURES:0.000=4=4;
#TICKCOUNTS:0.000=4;
#COMBOS:0.000=1;
#SPEEDS:0.000=1.000=0.000=0;
#SCROLLS:0.000=1.000;
#FAKES:;
#LABELS:0.000=Song Start;
#BGCHANGES:;
#KEYSOUNDS:;
#ATTACKS:
;

//---------------dance-single - ----------------
#NOTEDATA:;
#CHARTNAME:;
#STEPSTYPE:dance-single;
#DESCRIPTION:;
#CHARTSTYLE:;
#DIFFICULTY:Hard;
#METER:13;
#RADARVALUES:0.664517,0.693720,0.477839,0.477839,0.151153,477.000000,428.000000,49.000000,49.000000,0.000000,0.000000,0.000000,0.000000,0.000000,0.664517,0.693720,0.477839,0.477839,0.151153,477.000000,428.000000,49.000000,49.000000,0.000000,0.000000,0.000000,0.000000,0.000000;
#CREDIT:;
#DISPLAYBPM:160.000000;
#NOTES:
0000
0000
0000
0000
,
0000
0000
0000
0000
,
0000
0000
0000
0000
,
0000
0000
0000
0000
,
0110
0001
0010
0100
1000
0010
0100
0001
,
0010
1000
0010
0100
0010
0001
1000
0010
,
0100
1000
0100
0010
1000
0001
0010
0100
,
2002
0000
0000
3003
,
1100
0001
0100
0010
1000
0001
0010
0100
,
1000
0001
0012
0000
0103
2010
0000
3001
,
1000
0010
0100
0001
0010
1000
0010
0100
,
1000
0010
0100
0001
0010
1000
0010
0100
,
1000
0001
0010
0100
1000
0010
0100
0001
,
0010
0100
2100
0000
3001
0102
0000
1003
,
0001
0010
1000
0010
0001
1000
0100
0000
,
1001
0220
0000
0330
,
0201
0000
0000
0000
0302
0000
0000
0000
1003
0100
1000
0100
1000
0000
0001
0000
,
0020
0000
0000
0000
0230
0000
0000
0000
1300
0010
1000
0010
1000
0000
0100
0000
,
0010
0001
0000
2000
0000
0000
3100
0000
1000
0010
0000
0200
0000
0000
0301
0000
,
0011
0000
0000
0110
0000
0000
1100
0000
0000
1001
0000
0000
0010
0000
0100
0000
,
0002
1000
0000
1000
0000
1000
0000
1003
0010
0000
0010
0000
0020
0000
0000
0000
,
1030
0100
0010
0001
1010
0000
0101
0000
,
0010
0001
1000
0010
0100
1000
0100
0001
,
2000
0001
3001
0000
1000
0100
0010
0001
,
0000
1100
0001
1000
0100
0001
0100
1000
,
0010
0100
0001
0010
1000
0010
0001
0100
,
0202
0000
0303
2010
0000
3001
1000
0100
,
0010
0001
1000
0010
0000
0100
1001
0000
,
0010
1000
0001
0010
1000
0010
0100
0001
,
0100
0010
0100
1000
0000
0001
0001
0002
,
0010
0000
1003
0201
0000
0001
0301
0100
,
0001
0010
0100
1000
0000
2020
3030
0000
,
0001
0000
0000
0000
0001
0000
0000
1000
0010
0000
0100
0000
0100
0000
0000
0000
,
0001
0010
0100
2000
0000
3020
0000
0130
,
0001
0010
0100
1000
0010
0100
0001
1000
,
1100
0000
0000
0110
0000
0000
0011
0000
0000
0000
1002
0000
0203
0000
0000
0000
,
0310
0001
0010
0100
0010
1000
0100
0000
,
1000
0001
0010
0200
0000
2300
0000
3001
,
0010
0010
0100
0100
1000
0001
1000
0001
,
0101
0000
0000
1100
0000
0000
1001
0000
0210
0000
0010
0000
0310
0000
0000
0000
,
2000
0000
3002
0000
2003
0000
3001
0100
,
1001
0010
0100
1000
0100
0001
0010
0100
,
0001
0100
0010
0001
1000
0010
0100
0001
,
1000
0001
0010
0100
1000
0010
0001
0010
,
0100
1000
0100
0010
1000
0001
0010
0100
,
0110
1000
0001
0010
1000
0010
0100
1000
,
0001
0100
0010
1000
0100
0001
0100
0010
,
0100
1000
0001
0100
0010
1000
0001
0010
,
0001
0100
0010
1000
0100
0010
0001
1000
,
1010
0001
1000
0100
0010
0001
0100
0000
,
0101
0010
0100
0001
0010
0100
1000
0000
,
1100
0010
0100
0010
1000
0001
0100
0000
,
0001
0000
0000
0001
0000
0000
0001
0000
0000
0100
0000
0000
0120
0000
0000
2000
0000
0000
0000
0000
3030
0000
0000
0000
,
1100
1000
0001
0010
0100
1000
0001
0000
,
0011
0010
0100
0001
0100
1000
0010
0000
,
1010
0010
1000
0100
0010
0001
0100
0010
,
1000
0100
0010
0001
1000
0100
0001
0000
,
0012
0000
0000
0000
2003
0000
0000
0000
3010
0100
0010
0100
0010
0000
1000
0000
,
0200
0000
0000
0000
0320
0000
0000
0000
0031
0100
0001
0100
0001
0000
0010
0000
,
0100
1000
0000
0002
0000
0000
0013
0000
0001
0100
0000
0020
0000
0000
1030
0000
,
1100
0000
0000
0101
0000
0000
1010
0000
0000
0011
0000
0000
1000
0000
0001
0000
,
0200
0001
0000
0001
0000
0001
0000
0301
1000
0000
1000
0000
2000
0000
0000
0000
,
3010
1000
0001
0100
0011
0000
1100
0000
,
0001
0010
0100
1000
0010
0001
0010
1000
,
0002
0100
0103
0000
0001
0010
0100
1000
,
1100
0202
0000
0000
,
0000
0000
0303
2002
,
0000
0000
0000
3003
;

//---------------dance-single - ----------------
#NOTEDATA:;
#CHARTNAME:;
#STEPSTYPE:dance-single;
#DESCRIPTION:;
#CHARTSTYLE:;
#DIFFICULTY:Medium;
#METER:11;
#RADARVALUES:0.494556,0.594617,0.331562,0.711883,0.078015,355.000000,321.000000,34.000000,73.000000,0.000000,0.000000,0.000000,0.000000,0.000000,0.494556,0.594617,0.331562,0.711883,0.078015,355.000000,321.000000,34.000000,73.000000,0.000000,0.000000,0.000000,0.000000,0.000000;
#CREDIT:;
#DISPLAYBPM:160.000000;
#NOTES:
0000
0000
0000
0000
,
0000
0000
0000
0000
,
0000
0000
0000
0000
,
0000
0000
0000
0000
,
0010
0000
0000
1000
0000
0000
0001
0000
0000
1000
0000
0000
0010
0000
0000
0000
,
0100
0000
0000
0001
0000
0000
0010
0000
0000
0001
0000
0000
0100
0000
0000
0000
,
0001
0000
0000
1000
0000
0000
0010
0000
0000
1000
0000
0000
0001
0000
0000
0000
,
2002
0000
0000
3003
,
1000
0100
0010
0002
0000
1000
0000
0010
,
0000
0103
0102
0000
1003
2100
0000
3001
,
1000
0001
0010
0200
0000
0001
0000
1000
,
0000
0001
0000
0010
0000
1300
0000
0001
,
0100
0001
1000
0020
0000
0001
0000
0100
,
0000
1030
2010
0000
3001
0021
0000
0130
,
0010
0001
1000
0002
0000
0100
0103
0000
,
1001
0220
0000
0330
,
2000
0000
3002
0000
0013
0001
1000
0010
,
0200
0000
0302
0000
1003
0001
1000
0100
,
0020
0000
0000
0032
0000
0000
1003
0000
0002
0000
0000
0203
0000
0000
0310
0000
,
1000
0000
0000
0001
0000
0000
1000
0000
0000
0001
0000
0000
0010
0000
0100
0000
,
1000
0010
0100
0001
0010
0010
0010
0000
,
0001
0100
0010
1000
1100
0000
0101
0000
,
0001
0010
0100
1000
0001
0100
0010
1000
,
1002
0010
0100
0013
,
0000
0001
0100
0000
0001
0010
1000
0000
,
0100
0010
0000
0002
0000
1003
0001
0100
,
0020
0000
0130
0220
0000
0000
0330
0001
,
2000
0000
0000
0000
0000
0000
3010
0000
0000
0100
0000
0000
0000
0000
0000
0202
0000
0000
0000
0000
0000
0000
0303
0000
,
0000
1000
0001
0000
0010
0100
1000
0000
,
0001
0010
0000
0100
0000
1000
1000
0002
,
0000
0000
0013
0022
0000
0000
0033
0100
,
0002
0000
0000
0000
0000
0000
1003
0000
0000
0010
0000
0000
0000
0000
0000
2002
0000
0000
0000
0000
3003
0000
0000
0000
,
2000
3020
0230
0302
,
0013
0001
1000
0020
0000
0230
0000
0301
,
0010
0000
0001
1000
0200
0000
0300
1000
,
0002
0000
0000
0023
0000
0000
0230
0000
0000
0000
0000
0000
0300
0000
0000
0000
,
1000
0001
0010
0001
2000
0000
3000
0000
,
0001
0010
0001
2000
0000
3200
0000
0300
,
1000
0001
0100
0000
0001
0010
1000
0000
,
0001
0000
0000
1000
0000
0000
0020
0000
0200
0000
0000
0000
0030
0000
0000
0000
,
1000
1000
0001
0301
,
1000
0001
0010
0100
0000
1001
0000
0110
,
0000
0001
0010
1000
0000
1100
0000
0001
,
1000
0010
0100
0001
0000
0011
0000
1010
,
0000
0001
0100
0020
0000
2030
0000
3001
,
1000
0010
0100
0001
0000
0101
0000
0000
,
0001
1000
0010
0100
0000
0110
0000
1001
,
0000
1000
0100
0002
0000
0023
0000
0230
,
0000
1300
0001
0010
0100
0200
0000
1300
,
0001
0100
0010
0100
0000
1010
0000
0000
,
0100
0010
0001
1000
0000
0011
0000
1000
,
1000
0001
0100
0010
0000
0101
0000
0000
,
1000
0000
0000
1000
0000
0000
0001
0000
0000
0001
0000
0000
0200
0000
0000
0020
0000
0000
0000
0000
0330
0000
0000
0000
,
0100
0001
1000
1020
0000
0130
0000
0000
,
0010
0001
0100
0210
0000
0301
0000
0000
,
1000
0001
0010
0200
0000
1300
0000
1001
,
0000
0000
0000
0001
0000
0000
0010
0000
0000
0100
0000
0000
2000
0000
0000
0002
0000
0000
0000
0000
3003
0000
0000
0000
,
0020
0000
0230
0000
0310
0001
1000
0100
,
2000
0000
3002
0000
0103
0010
1000
0001
,
2000
0000
0000
0100
0000
0000
3010
0000
0002
0000
0000
0100
0000
0000
0013
0000
,
1000
0000
0000
0001
0000
0000
1000
0000
0000
0001
0000
0000
0100
0000
0010
0000
,
1000
0001
0010
0100
1000
1000
1000
0000
,
0010
0100
0001
1000
1010
0000
0011
0000
,
0010
0001
0100
0000
0010
1000
0100
0000
,
2001
0010
0100
3010
,
1100
0202
0000
0000
,
0000
0000
0303
2002
,
0000
0000
0000
3003
;

//---------------dance-single - ----------------
#NOTEDATA:;
#CHARTNAME:;
#STEPSTYPE:dance-single;
#DESCRIPTION:;
#CHARTSTYLE:;
#DIFFICULTY:Easy;
#METER:7;
#RADARVALUES:0.394252,0.462480,0.565605,0.302306,0.000000,283.000000,225.000000,58.000000,31.000000,0.000000,0.000000,0.000000,0.000000,0.000000,0.394252,0.462480,0.565605,0.302306,0.000000,283.000000,225.000000,58.000000,31.000000,0.000000,0.000000,0.000000,0.000000,0.000000;
#CREDIT:;
#DISPLAYBPM:160.000000;
#NOTES:
0000
0000
0000
0000
,
0000
0000
0000
0000
,
0000
0000
0000
0000
,
0000
0000
0000
0000
,
1001
0001
1000
0100
,
0010
0001
0100
0010
,
1000
0100
0010
0001
,
2002
0000
0000
3003
,
0010
1000
0001
0100
,
0010
0000
0000
0000
0000
0000
1010
0000
0000
0000
0000
0000
0000
0000
0000
0202
0000
0000
0000
0000
0303
0000
0000
0000
,
0001
0010
0001
0100
,
0010
1000
0100
1000
,
0001
0010
0100
1000
,
0001
0000
0000
0000
0000
0000
0011
0000
0000
0000
0000
0000
0000
0000
0000
2200
0000
0000
0000
0000
3300
0000
0000
0000
,
0010
0100
0001
1000
,
1001
0220
0000
0330
,
0101
0101
1000
0100
,
1100
1100
0001
0100
,
0010
1001
0010
1001
,
1000
0001
0010
0100
,
1000
0010
0110
0110
,
0001
0010
0101
0101
,
0010
0100
0001
1000
,
2200
0000
0000
3300
,
0001
0001
1000
1000
,
0010
0010
0100
0100
,
0002
0000
0000
2000
0000
0000
3003
0000
,
0010
1000
0100
0001
,
0010
0010
0100
0100
,
1000
0001
1000
0001
,
0200
0000
0000
0020
0000
0000
0330
0000
,
1000
0001
0010
1001
,
0001
0100
1000
0100
,
0010
0100
0010
0001
,
0100
0010
1000
0001
,
1001
0110
2002
3003
,
0010
1000
0100
0010
,
0001
0100
0001
0010
,
0100
1000
0010
0100
,
0101
1100
0202
0003
,
1000
1000
0001
0301
,
1001
0100
0010
1000
,
0110
0010
0001
0100
,
1010
0001
1000
0100
,
0010
0001
0202
0303
,
0011
1000
0001
0010
,
0110
0100
0010
0001
,
0101
1000
0001
0010
,
0001
0100
2020
3030
,
1001
0010
1000
0100
,
1100
0001
1000
0010
,
0101
0010
0100
0001
,
0011
1010
0022
0033
,
0110
0010
0001
0100
,
1001
0010
1000
0100
,
1100
0001
0101
1000
,
0110
1001
2000
3100
,
1100
1100
0010
0001
,
0101
0101
0010
1000
,
0100
1001
0100
1001
,
0010
0100
0001
1000
,
0100
0010
0011
0011
,
0001
1000
0110
0110
,
0010
1000
0100
0001
,
0202
0000
0000
0303
,
2000
0002
0000
0000
,
0000
0000
3003
2002
,
0000
0000
0000
3003
;

//---------------dance-single - ----------------
#NOTEDATA:;
#CHARTNAME:;
#STEPSTYPE:dance-single;
#DESCRIPTION:;
#CHARTSTYLE:;
#DIFFICULTY:Beginner;
#METER:4;
#RADARVALUES:0.188071,0.260374,0.068263,0.048759,0.000000,135.000000,128.000000,7.000000,5.000000,0.000000,0.000000,0.000000,0.000000,0.000000,0.188071,0.260374,0.068263,0.048759,0.000000,135.000000,128.000000,7.000000,5.000000,0.000000,0.000000,0.000000,0.000000,0.000000;
#CREDIT:;
#DISPLAYBPM:160.000000;
#NOTES:
0000
0000
0000
0000
,
0000
0000
0000
0000
,
0000
0000
0000
0000
,
0000
0000
0000
0000
,
2000
0000
3000
0000
,
0002
0000
0003
0000
,
0200
0000
0300
0000
,
1001
0000
0000
0000
,
0010
0000
0010
0000
,
1000
0000
0001
0000
,
0010
0000
0010
0000
,
0100
0000
0010
0000
,
0001
0000
0100
0000
,
1000
0000
0010
0000
,
1000
0000
0001
0000
,
0110
0000
0000
0000
,
0001
0001
0000
0000
,
1000
1000
0000
0000
,
0110
0000
1001
0000
,
0001
0001
0001
0000
,
0100
0100
0100
0000
,
0010
0000
1000
0000
,
0100
0000
0010
0000
,
0002
0000
0000
0003
,
0000
0000
1000
0000
,
0001
0000
0010
0000
,
0100
0000
0100
0000
,
1000
0000
0001
0000
,
0000
0000
0010
0000
,
0001
0000
0100
0000
,
1000
0000
1000
0000
,
0001
0000
0100
0000
,
0010
0010
0010
0000
,
0100
0100
0100
0000
,
0001
0001
0001
0000
,
1000
1000
1000
0000
,
0100
0100
0100
0000
,
0010
0010
0010
0000
,
0001
0001
0001
0000
,
1000
1000
1000
0000
,
1001
0000
0110
0000
,
0010
0000
0010
0000
,
0100
0000
0100
0000
,
0001
0000
0001
0000
,
1000
0000
1000
0000
,
0001
0000
0001
0000
,
0010
0000
0010
0000
,
0100
0000
0100
0000
,
1000
0000
1000
0000
,
0001
0000
0100
0000
,
0010
0000
0100
0000
,
0001
0000
0010
0000
,
1000
0000
0100
0000
,
0001
0000
1000
0000
,
0010
0000
0100
0000
,
0010
0000
1000
0000
,
0100
0000
0010
0000
,
0001
0001
0000
0000
,
1000
1000
0000
0000
,
0001
0000
0100
0000
,
1000
1000
1000
0000
,
0010
0010
0010
0000
,
1000
0000
0001
0000
,
0010
0000
0001
0000
,
0200
0000
0300
0000
,
0010
0010
0000
0000
,
0000
0000
0000
1001
;

//---------------dance-single - ----------------
#NOTEDATA:;
#CHARTNAME:;
#STEPSTYPE:dance-single;
#DESCRIPTION:;
#CHARTSTYLE:;
#DIFFICULTY:Challenge;
#METER:15;
#RADARVALUES:0.853980,1.057097,0.438832,0.214540,0.648496,613.000000,568.000000,45.000000,22.000000,0.000000,0.000000,0.000000,0.000000,0.000000,0.853980,1.057097,0.438832,0.214540,0.648496,613.000000,568.000000,45.000000,22.000000,0.000000,0.000000,0.000000,0.000000,0.000000;
#CREDIT:;
#DISPLAYBPM:160.000000;
#NOTES:
// measure 0
0000
0000
0000
0000
,  // measure 1
0000
0000
0000
0000
,  // measure 2
0000
0000
0000
0000
,  // measure 3
0000
0000
0000
0000
,  // measure 4
0001
0100
0010
0100
1000
1000
0010
0001
,  // measure 5
1000
0010
0100
0100
1000
0010
0001
0001
,  // measure 6
1000
0100
0010
0001
0100
0001
0010
1000
,  // measure 7
1002
0000
0100
0000
0010
0000
0103
0010
,  // measure 8
0110
0001
0010
1000
0010
0100
0010
0001
,  // measure 9
0100
0010
1010
1000
0001
0011
0010
0100
,  // measure 10
1100
0001
1000
0010
0100
1000
0100
0010
,  // measure 11
1000
0001
0010
1000
0010
0100
1000
0001
,  // measure 12
0101
0100
0001
0010
1000
0010
0100
0001
,  // measure 13
0100
1000
1010
0010
0100
0101
0001
1000
,  // measure 14
1100
0001
1000
0010
0100
1000
0100
0001
,  // measure 15
1001
0220
0000
0330
,  // measure 16
1010
0000
0000
0000
0101
0000
0000
0000
0001
0010
0100
1000
0010
0000
0100
0000
,  // measure 17
0110
0000
0000
0000
1010
0000
0000
0000
1000
0001
0010
0100
1000
0000
0001
0000
,  // measure 18
0100
0010
0000
1001
0000
0010
0100
0000
0001
1000
0000
0110
0000
1000
0001
0000
,  // measure 19
0010
0001
0000
0001
0100
0000
0100
0010
0000
0010
1000
0000
0001
0000
1000
0000
,  // measure 20
0010
0100
0000
0001
0000
1000
0000
0100
0010
0000
0011
0000
1100
0000
0000
0001
,  // measure 21
1000
0010
0100
0001
1000
0100
0010
0001
0200
0000
0000
0000
0320
0000
0000
1030
,  // measure 22
0010
0100
0010
0100
0001
1000
0001
1000
0100
0001
0100
1000
0010
1000
0001
0020
,  // measure 23
1000
0000
1000
0000
1000
0000
0001
0000
0130
1000
0100
0010
0001
0100
0001
0010
,  // measure 24
0100
1000
0001
0010
0010
0001
1000
0100
,  // measure 25
1000
0010
0100
0001
1000
0001
0100
0010
,  // measure 26
1000
0100
0010
0001
0010
0001
1000
0100
,  // measure 27
0100
0000
0001
0000
1000
0000
0010
0000
0001
0000
0010
0000
0100
0000
1000
0001
,  // measure 28
1000
0010
0100
0001
1000
0001
0010
0100
,  // measure 29
0010
1000
0100
0001
0010
0100
0001
1000
,  // measure 30
0100
1000
0010
0100
0001
0001
0010
1100
,  // measure 31
1001
0000
0011
0110
0000
2200
3300
0002
,  // measure 32
0013
0000
0001
0100
0001
0000
1000
0100
1000
0000
0010
0000
0100
0000
0001
0000
,  // measure 33
0010
1000
0010
0100
0001
0100
1000
0010
,  // measure 34
0100
0000
0001
0010
0001
0000
1000
0010
1000
0000
0100
0000
0010
0000
0001
0000
,  // measure 35
1000
0001
0000
0100
0010
0000
1010
0000
0000
0000
0120
0000
2030
0000
0000
0000
,  // measure 36
3001
0000
1000
0100
1000
0000
0001
0010
0001
0000
0100
0000
0010
0000
1000
0000
,  // measure 37
0100
0001
0100
0010
1000
0010
0001
0100
,  // measure 38
0010
0010
0100
0100
0001
0001
1000
1000
,  // measure 39
0010
1000
0000
0001
0100
0000
0110
0000
1001
0000
1000
0100
0010
0001
0100
0010
,  // measure 40
1000
0100
1000
0100
0001
0100
0001
0100
1000
0010
1000
0010
0001
0010
0001
0010
,  // measure 41
1000
0100
0010
0001
0100
0000
0010
0000
1000
0000
0001
0000
0010
0000
0100
0000
,  // measure 42
1000
0001
0010
0001
0100
0000
0010
0000
0001
0000
0010
0000
1000
0000
0100
0000
,  // measure 43
0010
0100
0010
0001
0100
0000
1000
0000
0100
0000
0001
0000
0010
0000
0100
0000
,  // measure 44
1000
0001
1000
0001
0010
0100
0010
0100
0010
0000
0001
0000
0100
0000
1000
0000
,  // measure 45
0010
1000
0100
1000
0010
0000
0100
0000
0001
0000
0010
0000
0100
0000
1000
0000
,  // measure 46
0100
0010
0001
0100
0001
0000
1000
0000
0010
0000
0100
0000
0010
0000
1000
0000
,  // measure 47
0100
0010
0001
1000
0001
0000
0010
0000
1000
0000
0010
0000
0100
0000
0001
0000
,  // measure 48
0100
1000
0100
1000
0001
0010
0001
0010
0001
0000
0100
0000
0010
0000
1000
0000
,  // measure 49
0100
1000
0100
1000
0001
0000
0010
0000
1000
0000
0010
0000
0001
0000
0000
0000
,  // measure 50
0100
0001
0100
0001
1000
0000
0010
0000
0001
0000
0010
0000
1000
0000
0000
0000
,  // measure 51
0100
0010
0100
0010
0001
0000
1000
0000
0100
0000
1000
0000
0001
0000
0000
0000
,  // measure 52
1100
0000
0000
0110
0000
0000
0011
0000
0000
0101
0000
0000
1001
0000
0000
2020
0000
0000
0000
0000
3030
0000
0000
0000
,  // measure 53
0010
1000
0010
1000
0001
0000
0100
0000
1000
0000
0100
0000
0001
0000
0000
0000
,  // measure 54
0010
0001
0010
0001
1000
0000
0100
0000
0001
0000
0100
0000
1000
0000
0000
0000
,  // measure 55
0001
1000
0001
1000
0010
0000
0100
0000
1000
0000
0100
0000
0001
0000
0010
0000
,  // measure 56
0100
0000
0000
0010
0000
0000
0100
0000
0000
0010
0000
0000
0001
0000
0000
1000
0000
0000
0001
0000
0000
1000
0000
0000
0010
0000
0000
0000
0000
0000
1010
0000
0000
0000
0000
0000
0202
0000
0000
0000
0000
0000
0000
0000
0303
0000
0000
0000
,  // measure 57
0011
0000
0000
0000
1100
0000
0000
0000
1000
0001
0010
0100
1000
0010
0100
0000
,  // measure 58
0101
0000
0000
0000
1010
0000
0000
0000
0001
1000
0010
0100
0001
0010
0100
0000
,  // measure 59
1000
0010
0000
0110
0000
0010
1000
0000
0001
0100
0000
1001
0000
0100
0001
0000
,  // measure 60
1000
0001
0000
0001
0100
0000
0100
0010
0000
0010
1000
0000
0100
0000
0010
0000
,  // measure 61
0001
0100
0000
0010
0000
1000
0000
0001
0100
0000
0110
0000
1001
0000
0000
1000
,  // measure 62
0010
0100
0001
1000
0010
0100
0001
1000
0200
0000
0000
0000
0320
0000
0000
0031
,  // measure 63
1000
0100
1000
0100
0010
0001
0010
0001
0100
1000
0100
0001
0010
0001
1000
0020
,  // measure 64
0001
0000
0001
0000
0001
0000
0130
0010
1000
0100
0010
0001
1000
0010
0100
0001
,  // measure 65
0020
0200
0000
0000
,  // measure 66
0000
0000
0330
2002
,  // measure 67
0000
0000
0000
3003
;
