#VERSION:0.83;
#TITLE:LEADING CYBER;
#SUBTITLE:;
#ARTIST:dj TAKA;
#TITLETRANSLIT:;
#SUBTITLETRANSLIT:;
#ARTISTTRANSLIT:;
#GENRE:;
#ORIGIN:;
#CREDIT:;
#BANNER:LEADING CYBER-bn.png;
#BACKGROUND:LEADING CYBER-bg.png;
#PREVIEWVID:;
#JACKET:LEADING CYBER-jacket.png;
#CDIMAGE:;
#DISCIMAGE:;
#LYRICSPATH:;
#CDTITLE:;
#MUSIC:LEADING CYBER.ogg;
#OFFSET:0.000000;
#SAMPLESTART:28.799999;
#SAMPLELENGTH:20.000000;
#SELECTABLE:YES;
#DISPLAYBPM:150.000000;
#BPMS:0.000=150.000;
#STOPS:;
#DELAYS:;
#WARPS:;
#TIMESIGNATURES:0.000=4=4;
#TICKCOUNTS:0.000=4;
#COMBOS:0.000=1;
#SPEEDS:0.000=1.000=0.000=0;
#SCROLLS:0.000=1.000;
#FAKES:;
#LABELS:0.000=Song Start;
#BGCHANGES:;
#KEYSOUNDS:;
#ATTACKS:
;

//---------------dance-single - ----------------
#NOTEDATA:;
#CHARTNAME:;
#STEPSTYPE:dance-single;
#DESCRIPTION:;
#CHARTSTYLE:;
#DIFFICULTY:Beginner;
#METER:3;
#RADARVALUES:0.147392,0.258929,0.099206,0.000000,0.000000,104.000000,94.000000,10.000000,0.000000,0.000000,0.000000,0.000000,0.000000,0.000000,0.147392,0.258929,0.099206,0.000000,0.000000,104.000000,94.000000,10.000000,0.000000,0.000000,0.000000,0.000000,0.000000,0.000000;
#CREDIT:;
#DISPLAYBPM:150.000000;
#NOTES:
0000
0000
0000
0000
,
0000
0000
0000
0000
,
0000
0000
0000
0000
,
0000
0000
0000
0000
,
0000
0000
0000
0000
,
1001
0000
0000
0000
,
1000
0000
0000
0000
,
0100
0000
0000
0000
,
0010
0000
0000
0000
,
1001
0000
0000
0000
,
1000
0000
0000
0000
,
0100
0000
0000
0000
,
0010
0000
0000
0000
,
0010
0000
0001
0000
,
0001
0000
0100
0000
,
0100
0000
1000
0000
,
1000
0000
0010
0000
,
0000
0000
0000
0000
,
1000
0000
0000
0000
,
0100
0100
0000
0000
,
0010
0000
0000
0000
,
0001
0001
0000
0000
,
0010
0000
0000
0000
,
0100
0100
0000
0000
,
1000
0000
0000
0000
,
0100
0100
0000
0000
,
1000
0000
1000
0000
,
1000
0000
1000
0000
,
0100
0000
0100
0000
,
1000
0000
1000
0000
,
0001
0001
0001
0001
,
0001
0001
0001
0000
,
0100
0100
0100
0100
,
0100
0100
0100
0000
,
1000
1000
0000
0000
,
0010
0010
0000
0000
,
0110
0110
0000
0000
,
0001
0001
0000
0000
,
0010
0010
0000
0000
,
0110
0110
0000
0000
,
1000
1000
1000
1000
,
1000
1000
1000
0000
,
1000
0000
0000
0000
,
0100
0000
0000
0000
,
0110
0000
0000
0000
,
0010
0000
0000
0000
,
0001
0000
0000
0000
,
0010
0000
0000
0000
,
0110
0000
0000
0000
,
0100
0000
0000
0000
,
1000
1000
0000
0000
,
1000
1000
0000
0000
,
0110
0110
0000
0000
,
0001
0001
0000
0000
,
0010
0010
0000
0000
,
0010
0010
0000
0000
,
0100
0100
0000
0000
,
0010
0010
0000
0000
,
0100
0000
0000
0000
,
0000
0000
0000
0000
;

//---------------dance-single - ----------------
#NOTEDATA:;
#CHARTNAME:;
#STEPSTYPE:dance-single;
#DESCRIPTION:;
#CHARTSTYLE:;
#DIFFICULTY:Easy;
#METER:8;
#RADARVALUES:0.279195,0.489087,0.039683,0.000000,0.000000,197.000000,193.000000,4.000000,0.000000,0.000000,0.000000,0.000000,0.000000,0.000000,0.279195,0.489087,0.039683,0.000000,0.000000,197.000000,193.000000,4.000000,0.000000,0.000000,0.000000,0.000000,0.000000,0.000000;
#CREDIT:;
#DISPLAYBPM:150.000000;
#NOTES:
0000
0000
0000
0000
,
0000
0000
0000
0000
,
0000
0000
0000
0000
,
0000
0000
0000
0000
,
0000
0000
0000
0000
,
0001
0000
1000
0000
,
0001
0000
1000
0001
,
1000
0001
0010
0001
,
0010
0001
1000
0010
,
1000
0010
0100
0001
,
0001
1000
1000
0001
,
0100
1000
0100
0001
,
1000
0100
0001
0100
,
1000
0010
0001
0010
,
1000
0001
0001
1000
,
1000
0100
0100
0010
,
0001
0001
1000
1000
,
0001
0000
0000
0000
,
1000
1000
0000
0000
0000
0000
0000
0000
,
0001
0001
0000
0000
0000
0000
0000
0000
,
0010
0010
0000
0000
0000
0000
0000
0000
,
0100
0100
0000
0000
1000
1000
0000
0000
,
0001
0001
0000
0000
1000
1000
0000
0000
,
0001
0001
0000
0000
0010
0010
0000
0000
,
0100
0100
0000
0000
1000
1000
0000
0000
,
0001
1000
0010
0010
,
1000
0000
0100
0000
,
0001
0000
0100
0000
,
1000
0000
0100
0000
,
0001
0000
0100
0100
,
1000
0000
0100
0000
,
0001
0000
0100
0100
,
1000
0000
0100
0000
,
0001
0000
0100
0100
,
1000
1000
0000
0000
,
0001
0001
0100
0100
,
1001
1001
0100
0000
,
1000
0001
0100
0100
,
0001
1000
0100
0100
,
1000
0001
0100
0100
,
1001
1001
0100
0100
,
0010
1000
0100
0001
,
0010
1000
0100
0001
,
0010
1000
0100
0001
,
0010
1000
0100
0001
,
0010
1000
0100
0001
,
0010
0001
0100
1000
,
0010
0001
0100
1000
,
0010
0001
0100
1000
,
0010
0001
0100
1000
,
0010
1000
0100
0001
,
0010
1000
0100
0001
,
0010
1000
0100
0001
,
0010
1000
0100
0001
,
0010
1000
0100
0001
0100
1000
0010
0001
,
0010
1000
0100
0001
0100
1000
0010
0001
,
0010
1000
0100
0001
,
0010
1000
0100
0001
,
0010
0000
0000
0000
,
0000
0000
0000
0000
;

//---------------dance-single - ----------------
#NOTEDATA:;
#CHARTNAME:;
#STEPSTYPE:dance-single;
#DESCRIPTION:;
#CHARTSTYLE:;
#DIFFICULTY:Medium;
#METER:9;
#RADARVALUES:0.385488,0.431548,0.138889,0.000000,0.000000,272.000000,258.000000,14.000000,0.000000,0.000000,0.000000,0.000000,0.000000,0.000000,0.385488,0.431548,0.138889,0.000000,0.000000,272.000000,258.000000,14.000000,0.000000,0.000000,0.000000,0.000000,0.000000,0.000000;
#CREDIT:;
#DISPLAYBPM:150.000000;
#NOTES:
0000
0000
0000
0000
,
0000
0000
0000
0000
,
0000
0000
0000
0000
,
0000
0000
0000
0000
,
0000
0000
0000
0000
,
0010
0010
0010
0000
1000
0000
0001
0000
,
0100
0100
0100
0000
0001
0000
1000
0000
,
0010
0010
0010
0000
0001
0000
1000
0000
,
0010
0010
0010
0000
1000
0000
0001
0000
,
0100
0100
1000
0000
0001
0000
1000
0000
,
0100
0100
0001
0000
1000
0000
0001
0000
,
1000
1000
0001
0000
0010
0000
0001
0000
,
0001
0001
1000
0000
0010
0000
1000
0000
,
1001
1001
0100
0000
0010
0000
0001
0000
,
1001
1001
0100
0000
0010
0000
1000
0000
,
0100
0100
1000
0000
0010
0000
0001
0000
,
0100
0100
0001
0000
0010
0000
1000
0000
,
0000
0000
0000
0000
,
0001
1000
0100
0001
,
1000
1000
0100
0000
0001
0000
0100
0000
,
1000
1000
0100
0000
0001
0000
0100
0000
,
0010
0010
0000
0000
1000
1000
0000
0000
,
0001
0001
0100
0000
1000
0000
0100
0000
,
0001
0001
0100
0000
1000
0000
0100
0000
,
0010
0010
0000
0000
0001
0001
0000
0000
,
1000
1000
0000
0000
0001
0000
0001
0000
,
1000
0000
0001
0000
1000
0100
0001
0000
,
1000
1000
0001
0000
0100
0001
0100
0000
,
0001
0000
1000
0000
0001
0100
1000
0000
,
0001
0001
1000
0000
0100
1000
0100
0000
,
1000
0000
0001
0000
0100
0100
0100
0000
,
0001
0000
1000
0000
0100
0100
0100
0000
,
1000
0001
1000
0001
,
0100
0001
0100
0001
0100
1000
0100
1000
,
0001
1000
0001
0100
,
0001
0001
1000
0101
,
1000
0001
1000
0100
,
1000
1000
0001
1100
,
1001
0100
1001
0100
,
0110
1000
0110
0001
,
1100
0101
1100
0101
,
0010
0001
0100
1000
,
0010
1000
0100
0001
,
1000
1000
0100
0000
0000
0010
0000
0001
,
1000
1000
0100
0000
0000
0010
0000
0001
,
1000
1000
0000
0000
0001
0001
0000
0000
,
0001
0001
0100
0000
0000
0010
0000
1000
,
0001
0001
0100
0000
0000
0010
0000
1000
,
0001
0001
0100
0000
0000
0001
0000
1000
,
0010
0010
0000
0000
0100
0100
0000
0000
,
0010
0010
1000
0001
0000
1000
0000
0001
,
0010
0010
0001
1000
0000
0001
0000
1000
,
0100
0100
0100
1000
0000
0001
0000
1000
,
0100
0100
0000
0000
0100
0100
0000
0000
,
0010
0010
0010
0010
0000
1000
0000
0001
,
0010
0010
0010
0010
0000
0001
0000
1000
,
0100
1000
0001
0100
0000
0001
0000
1000
,
0010
1000
0100
0001
0100
1000
0010
0001
,
0010
0000
0000
0000
,
0000
0000
0000
0000
;

//---------------dance-single - ----------------
#NOTEDATA:;
#CHARTNAME:;
#STEPSTYPE:dance-single;
#DESCRIPTION:;
#CHARTSTYLE:;
#DIFFICULTY:Hard;
#METER:13;
#RADARVALUES:0.517290,0.632937,0.059524,0.000000,0.099206,365.000000,359.000000,6.000000,0.000000,0.000000,0.000000,0.000000,0.000000,0.000000,0.517290,0.632937,0.059524,0.000000,0.099206,365.000000,359.000000,6.000000,0.000000,0.000000,0.000000,0.000000,0.000000,0.000000;
#CREDIT:;
#DISPLAYBPM:150.000000;
#NOTES:
0000
0000
0000
0000
,
0000
0000
0000
0000
,
0000
0000
0000
0000
,
0000
0000
0000
0000
,
0000
0000
0000
0000
,
1001
0100
0000
1000
0100
0000
0010
0100
,
0001
1000
0000
0001
1000
0100
0001
0000
,
1000
0100
0001
1000
0010
0001
1000
0010
,
0010
1000
0000
0010
1000
0100
0010
1000
,
0001
1000
0000
0001
0100
0000
0001
0100
,
0001
1000
0000
0100
1000
1000
0100
0010
,
0100
0010
0001
0000
1000
0000
0000
0000
0001
0000
1000
0000
0000
0000
0001
0000
,
1000
0010
0001
1000
0001
0010
1000
1000
,
0010
0010
1000
0100
0001
0100
0001
0001
,
0100
0010
0001
1000
0100
0010
0001
0000
,
0100
0010
1000
0000
0100
1000
0000
0010
,
0100
0010
0100
0000
0010
0100
0100
0010
,
0100
0000
0000
0000
0001
0000
0100
0000
0000
1000
0000
0000
0010
0001
0000
0000
,
1000
1000
0000
0000
0001
0001
0001
0100
,
1000
1000
0000
0000
0001
0001
0001
0100
,
1000
1000
0000
0000
0001
0001
0001
0100
,
1000
1000
0000
0000
0001
0001
0001
0100
,
1000
1000
0010
1000
0001
0001
0001
0010
,
1000
1000
0010
1000
0001
0001
0001
0010
,
0100
0100
0010
0001
0100
0100
1000
1000
,
0010
0000
0001
0000
1000
0010
0001
0000
1000
0000
0000
0000
0100
0000
0000
0000
,
1000
0000
0010
0000
0000
1000
0010
0000
,
1000
0100
0010
0000
0001
1000
0110
0000
,
1000
0000
0010
0000
0000
1000
0010
0000
,
1000
0100
0010
0000
0001
1000
0110
0000
,
1001
0000
0010
0000
0000
1000
0001
0010
,
1000
0100
0010
0000
0000
1000
0101
0010
,
1000
0000
0010
0010
0010
0000
0010
0100
,
1000
0100
0010
0010
0010
0010
0100
0001
,
1000
0000
0001
0000
0000
0100
0001
0000
,
0100
0000
0100
0000
1000
0000
1000
0100
0001
0010
0001
0000
1000
0000
0001
0100
,
1000
0000
0001
0000
0000
0100
0001
0000
,
0010
0000
0010
0000
1000
0000
0001
0100
0000
0010
0001
0000
0010
0000
0100
0010
,
1000
0000
0100
0000
1000
0000
0001
0100
0000
0010
0001
0000
1000
0000
0001
0010
,
1000
0000
0100
0000
1000
0000
0010
0100
0001
0010
0001
0000
0010
0000
0000
0010
,
0001
0000
1000
0000
1000
0000
0000
0100
0010
0000
0010
0000
0001
0000
0000
0100
,
0001
0000
0000
0000
1000
0000
1000
1000
,
0100
1000
0001
0000
1000
0000
0000
1000
0001
0000
0100
0000
0001
0000
0010
0000
,
0000
1000
0000
0001
1000
0000
0010
0100
,
1000
0001
0000
0100
0100
0000
0001
1000
,
0001
0100
0000
0010
1000
1000
0001
1000
,
0001
0100
0000
0001
0100
0000
0001
0100
,
0001
1000
0000
0001
1000
0100
0001
0000
,
1000
0010
0001
1000
0010
0001
1000
0010
,
0010
1000
0000
0001
1000
0100
0010
1000
,
0001
1000
0000
0001
0100
0000
0001
0100
,
0010
1000
0000
0100
1000
1000
0010
0001
,
0100
0001
1000
0000
0001
1000
0000
0000
,
1000
0010
0001
1000
0001
0010
1000
1000
,
0001
0010
1000
0100
0001
0100
0010
0001
,
0100
1000
0001
1000
0100
0010
0001
0000
,
0100
0001
1000
0000
0100
1000
0000
0010
,
0100
0001
0100
0000
0001
0100
0100
0010
,
1001
0000
0000
0000
,
0000
0000
0000
0000
;

//---------------dance-double - ----------------
#NOTEDATA:;
#CHARTNAME:;
#STEPSTYPE:dance-double;
#DESCRIPTION:;
#CHARTSTYLE:;
#DIFFICULTY:Easy;
#METER:7;
#RADARVALUES:0.269274,0.316468,0.049603,0.000000,0.000000,190.000000,185.000000,5.000000,0.000000,0.000000,0.000000,0.000000,0.000000,0.000000,0.269274,0.316468,0.049603,0.000000,0.000000,190.000000,185.000000,5.000000,0.000000,0.000000,0.000000,0.000000,0.000000,0.000000;
#CREDIT:;
#DISPLAYBPM:150.000000;
#NOTES:
00000000
00000000
00000000
00000000
,
00000000
00000000
00000000
00000000
,
00000000
00000000
00000000
00000000
,
00000000
00000000
00000000
00000000
,
00000000
00000000
00000000
00000000
,
00001000
00000000
00010000
00000000
,
00000010
00000000
00010000
00001000
,
00010000
00001000
00000010
00000001
,
00000010
00001000
00010000
00100000
,
10000000
00010000
01000000
00001000
,
00010000
00000100
00001000
00000001
,
00000100
00001000
00000100
00001001
,
00001000
00000100
00010000
00000100
,
00001000
00100000
00010000
00100000
,
10000000
00010000
00010000
10000000
,
00010000
00000100
00000100
00000001
,
00000010
00000010
00001000
00001000
,
00000100
00000000
00000000
00000000
,
00001000
00001000
00000000
00000000
00000000
00000000
00000000
00000000
,
00010000
00010000
00000000
00000000
00000000
00000000
00000000
00000000
,
00000010
00001000
00000000
00000000
00000000
00000000
00000000
00000000
,
00100000
00010000
00000000
00000000
00001000
00000100
00000000
00000000
,
00000001
00000100
00000000
00000000
00001000
00010000
00000000
00000000
,
00010000
00001000
00000000
00000000
00000010
00001000
00000000
00000000
,
00100000
00010000
00000000
00000000
00010000
00001000
00000000
00000000
,
00000001
00001000
00000010
00001000
,
00010000
00000000
00000100
00000000
,
00010000
00000000
01000000
00000000
,
10000000
00000000
01000000
00000000
,
00010000
00000000
00001000
00010000
,
00001000
00000000
01000000
00000000
,
00010000
00000000
01000000
01000000
,
10000000
00000000
00010000
00000000
,
00001000
00000000
00000100
00000100
,
00000001
00001000
00000000
00000000
,
00000001
00000001
00000100
00000100
,
00011000
00011000
01000000
00000000
,
10000000
00010000
00000100
00000100
,
00000001
00001000
00010000
00010000
,
00001000
00010000
01000000
01000000
,
00011000
00011000
00000100
00010000
,
00000010
00010000
00000100
00010000
,
00000010
00010000
00000100
00010000
,
00000010
00001000
00000100
00000001
,
00000010
00001000
00010000
00100000
,
00100000
10000000
01000000
00010000
,
00000010
00000001
00000100
00001000
,
00100000
00010000
01000000
10000000
,
01000000
00010000
00000010
00000001
,
00000100
00001000
00100000
10000000
,
00100000
00001000
00000100
00000001
,
00000010
00001000
00100000
10000000
,
00100000
00001000
01000000
00010000
,
00000100
00000001
00000010
00001000
,
00010000
00000100
00000010
00010000
,
10000000
00010000
00000100
00001000
,
00000010
00000001
00000100
00010000
,
00100000
10000000
00100000
00001000
,
00010000
00000000
00000000
00000000
,
00000000
00000000
00000000
00000000
;

//---------------dance-double - ----------------
#NOTEDATA:;
#CHARTNAME:;
#STEPSTYPE:dance-double;
#DESCRIPTION:;
#CHARTSTYLE:;
#DIFFICULTY:Medium;
#METER:10;
#RADARVALUES:0.385488,0.460317,0.138889,0.000000,0.000000,272.000000,258.000000,14.000000,0.000000,0.000000,0.000000,0.000000,0.000000,0.000000,0.385488,0.460317,0.138889,0.000000,0.000000,272.000000,258.000000,14.000000,0.000000,0.000000,0.000000,0.000000,0.000000,0.000000;
#CREDIT:;
#DISPLAYBPM:150.000000;
#NOTES:
00000000
00000000
00000000
00000000
,
00000000
00000000
00000000
00000000
,
00000000
00000000
00000000
00000000
,
00000000
00000000
00000000
00000000
,
00000000
00000000
00000000
00000000
,
00000010
00000010
00001000
00000000
00010000
00000000
00001000
00000000
,
01000000
01000000
00010000
00000000
00001000
00000000
00010000
00000000
,
00100000
00100000
00100000
00000000
00010000
00000000
00001000
00000000
,
00000010
00000010
00000010
00000000
00001000
00000000
00010000
00000000
,
01000000
01000000
10000000
00000000
00010000
00000000
01000000
00000000
,
00010000
00010000
01000000
00000000
00100000
00000000
00010000
00000000
,
00001000
00001000
00010000
00000000
00100000
00000000
00010000
00000000
,
00010000
00010000
00001000
00000000
00000010
00000000
00001000
00000000
,
00011000
00011000
00010000
00000000
00100000
00000000
00010000
00000000
,
00011000
00011000
00001000
00000000
00000010
00000000
00001000
00000000
,
00000100
00000100
00001000
00000000
00000010
00000000
00010000
00000000
,
01000000
01000000
00010000
00000000
00100000
00000000
00001000
00000000
,
00000000
00000000
00000000
00000000
,
00010000
00001000
00000100
00000001
,
00001000
00001000
00000100
00000000
00010000
00000000
01000000
00000000
,
10000000
10000000
00100000
00000000
00010000
00000000
00001000
00000000
,
00010000
00010000
00000000
00000000
00001000
00001000
00000000
00000000
,
00010000
00010000
00000100
00000000
00010000
00000000
00000100
00000000
,
00001000
00001000
00000100
00000000
00010000
00000000
00001000
00000000
,
00100000
00100000
00000000
00000000
00010000
00010000
00000000
00000000
,
00001000
00001000
00000000
00000000
00010000
00000000
00001000
00000000
,
00001000
00000000
00010000
00000000
00001000
00000100
00000001
00000000
,
00001000
00001000
00000001
00000000
00000100
00000001
00000100
00000000
,
00000001
00000000
00001000
00000000
00000100
00010000
00001000
00000000
,
00010000
00010000
01000000
00000000
10000000
01000000
10000000
00000000
,
00100000
00000000
00010000
00000000
00100000
00100000
00010000
00000000
,
00001000
00000000
00010000
00000000
00001000
00001000
00000100
00000000
,
00000001
00001000
00000001
00001000
,
00000100
00001000
00000100
00010000
00001000
00010000
00001000
01000000
,
00010000
10000000
00010000
01000000
,
00100000
00100000
00010000
00011000
,
00001000
00000100
00000001
00000100
,
00001000
00010000
00100000
01010000
,
00010000
00000100
00001001
00000100
,
00000110
00011000
01100000
00010000
,
11000000
01010000
00011000
00001100
,
00000010
00001000
00000100
00010000
,
00000100
00001000
00000100
00010000
,
00001000
00001000
00000100
00000000
00000000
00001000
00000000
00010000
,
00001000
00001000
00000100
00000000
00000000
00100000
00000000
00010000
,
10000000
10000000
00000000
00000000
00010000
00010000
00000000
00000000
,
00001000
00001000
00000100
00000000
00000000
00000010
00000000
00001000
,
00000100
00010000
01000000
00000000
00000000
10000000
00000000
00100000
,
00010000
00001000
00000010
00000000
00000000
00000001
00000000
00000100
,
00000010
00000010
00000000
00000000
00001000
00001000
00000000
00000000
,
00000010
00000010
00001000
00000100
00000000
00010000
00000000
00010000
,
00100000
00100000
00010000
00001000
00000000
00010000
00000000
00001000
,
00010000
00010000
00010000
01000000
00000000
00010000
00000000
00001000
,
00000100
00000100
00000000
00000000
00010000
00010000
00000000
00000000
,
00100000
00100000
00100000
00100000
00000000
10000000
00000000
00010000
,
00100000
00100000
00100000
00100000
00000000
00001000
00000000
00000100
,
00001000
00000100
00000001
00000100
00000000
00000001
00000000
00001000
,
00100000
00001000
00000100
00000001
00000100
00001000
00100000
00010000
,
00100000
00000000
00000000
00000000
,
00000000
00000000
00000000
00000000
;

//---------------dance-double - ----------------
#NOTEDATA:;
#CHARTNAME:;
#STEPSTYPE:dance-double;
#DESCRIPTION:;
#CHARTSTYLE:;
#DIFFICULTY:Hard;
#METER:13;
#RADARVALUES:0.511621,0.604167,0.039683,0.000000,0.089286,361.000000,357.000000,4.000000,0.000000,0.000000,0.000000,0.000000,0.000000,0.000000,0.511621,0.604167,0.039683,0.000000,0.089286,361.000000,357.000000,4.000000,0.000000,0.000000,0.000000,0.000000,0.000000,0.000000;
#CREDIT:;
#DISPLAYBPM:150.000000;
#NOTES:
00000000
00000000
00000000
00000000
,
00000000
00000000
00000000
00000000
,
00000000
00000000
00000000
00000000
,
00000000
00000000
00000000
00000000
,
00000000
00000000
00000000
00000000
,
00011000
00000100
00000000
00001000
00000100
00000000
00000010
00000001
,
00000100
00001000
00000000
00010000
00001000
01000000
00010000
00000000
,
10000000
01000000
00010000
01000000
00100000
00010000
10000000
00100000
,
00100000
00010000
00000000
00100000
00001000
00000100
00001000
00010000
,
00001000
00010000
00000000
00010000
00000100
00000000
00001000
00000100
,
00010000
00001000
00000000
01000000
10000000
10000000
01000000
00100000
,
01000000
00100000
00010000
00000000
01000000
00000000
00000000
00000000
00010000
00000000
01000000
00000000
00000000
00000000
00001000
00000000
,
00010000
00100000
00010000
00001000
00010000
00001000
00001000
00001000
,
00000010
00000010
00000001
00000100
00001000
00000100
00000001
00000001
,
00001000
00000010
00000001
00000010
00001000
00000100
00010000
00000000
,
01000000
00100000
00010000
00000000
01000000
10000000
00000000
00100000
,
01000000
00100000
00010000
00000000
00100000
00010000
00001000
00010000
,
00001000
00000000
00000000
00000000
00001000
00000000
00000100
00000000
00000000
00001000
00000000
00000000
00000100
00000001
00000000
00000000
,
00001000
00001000
00000000
00000000
00000010
00000010
00000010
00000100
,
00001000
00001000
00000000
00000000
00010000
00010000
00010000
01000000
,
10000000
10000000
00000000
00000000
00100000
00100000
00100000
01000000
,
00010000
00010000
00000000
00000000
00001000
00001000
00001000
00010000
,
00001000
00001000
00100000
00001000
00010000
00010000
00010000
00100000
,
00010000
00001000
00100000
00001000
00010000
00010000
00010000
00000010
,
00001000
00001000
00000100
00000001
00000100
00000100
00001000
00001000
,
00100000
00000000
00010000
00000000
00001000
00010000
00001000
00000000
00001000
00000000
00000000
00000000
00000100
00000000
00000000
00000000
,
00001000
00000000
00100000
00000000
00000000
10000000
00100000
00000000
,
00010000
01000000
00100000
00000000
00010000
00001000
00000100
00000000
,
00001000
00000000
00000010
00000000
00000000
00001000
00000010
00000000
,
00001000
00000100
00000010
00000000
00000001
00001000
00000110
00000000
,
00011000
00000000
00100000
00000000
00000000
10000000
00010000
00100000
,
00001000
00010000
00001000
00000000
00000000
00010000
01000000
10000000
,
00010000
00000000
01000000
01000000
01000000
00000000
00100000
00010000
,
00001000
00010000
00100000
00100000
00100000
00100000
01000000
00010000
,
00100000
00000000
00010000
00000000
00000000
00000100
00000001
00000000
,
00000100
00000000
00000100
00000000
00001000
00000000
00001000
00000000
00010000
00001000
00010000
00000000
00001000
00000000
00010000
00001000
,
00010000
00000000
00001000
00000000
00000000
00000100
00000001
00000000
,
00000010
00000000
00000010
00000000
00000001
00000000
00001000
00000100
00000000
00000010
00000001
00000000
00000010
00000000
00000001
00000010
,
00000001
00000000
00000100
00000000
00001000
00000000
00000100
00000000
00000000
00001000
00010000
00000000
00001000
00000000
00010000
00001000
,
00010000
00000000
01000000
00000000
10000000
00000000
00100000
01000000
00010000
00100000
00010000
00000000
00100000
00000000
00000000
00100000
,
00010000
00000000
00001000
00000000
00001000
00000000
00000000
00010000
00001000
00000000
00001000
00000000
00010000
00000000
00000000
00001000
,
00000100
00000000
00000000
00000000
00001000
00000000
00001000
00001000
,
00010000
00001000
00010000
00000000
00001000
00000000
00000000
00010000
00001000
00000000
00000100
00000000
00000001
00000000
00000010
00000000
,
00000000
00001000
00000000
00010000
00001000
00000000
00010000
01000000
,
10000000
00010000
00000000
01000000
01000000
00000000
00010000
10000000
,
00010000
01000000
00000000
00100000
00010000
00001000
00010000
00001000
,
00010000
00001000
00000000
00000100
00000001
00000000
00001000
00000100
,
00010000
00001000
00000000
00010000
00001000
00000100
00000001
00000000
,
00001000
00100000
00010000
00001000
00010000
00001000
00010000
00001000
,
00010000
00001000
00000000
00000100
00001000
00000100
00000001
00001000
,
00000100
00001000
00000000
01000000
10000000
00000000
00010000
01000000
,
00100000
00010000
00000000
00001000
00010000
00001000
00010000
00001000
,
00000100
00000001
00001000
00000000
00000100
00001000
00000000
00000000
,
00010000
01000000
10000000
10000000
00010000
00100000
00010000
00010000
,
10000000
00100000
00010000
00001000
00000100
00000001
00000010
00001000
,
00010000
00001000
00010000
00001000
00000100
00000001
00000010
00000000
,
00000010
00001000
00010000
00000000
00100000
10000000
00000000
00100000
,
01000000
00010000
01000000
00000000
00010000
00000010
00000010
00000100
,
00011000
00000000
00000000
00000000
,
00000000
00000000
00000000
00000000
;

//---------------dance-couple - ----------------
#NOTEDATA:;
#CHARTNAME:;
#STEPSTYPE:dance-couple;
#DESCRIPTION:;
#CHARTSTYLE:;
#DIFFICULTY:Medium;
#METER:9;
#RADARVALUES:0.297619,0.604167,0.029762,0.000000,0.059524,210.000000,207.000000,3.000000,0.000000,0.000000,0.000000,0.000000,0.000000,0.000000,0.297619,0.632937,0.029762,0.000000,0.059524,210.000000,207.000000,3.000000,0.000000,0.000000,0.000000,0.000000,0.000000,0.000000;
#CREDIT:;
#DISPLAYBPM:150.000000;
#NOTES:
00000000
00000000
00000000
00000000
,
00000000
00000000
00000000
00000000
,
00000000
00000000
00000000
00000000
,
00000000
00000000
00000000
00000000
,
00000000
00000000
00000000
00000000
,
00010001
00000000
10001000
00000000
,
00010001
00000000
00001000
00000001
,
10000000
00010000
00000010
00000001
,
00100000
00010000
10001000
00100010
,
00000100
00000100
10001000
00000000
00000001
00000000
10001000
00000000
,
00000100
00000100
10000001
00000000
00001000
00000000
10000001
00000000
,
10000000
10000000
00010001
00000000
00100000
00000000
00010001
00000000
,
00010000
00010000
10000001
00000000
00100000
00000000
10000001
00000000
,
00001001
00001001
00000100
00000000
00000010
00000000
00000001
00000000
,
10010000
10010000
01000000
00000000
00100000
00000000
10000000
00000000
,
00000100
00000100
00001000
00000000
00000010
00000000
00000001
00000000
,
01000000
01000000
00010000
00000000
00100000
00000000
10000000
00000000
,
00000000
00000000
00000000
00000000
,
10000000
10000000
00000001
00000000
00010000
00010000
00010001
01000000
,
10000000
10000000
00000001
00000000
00010000
00010000
00010001
01000000
,
00001000
00001000
10000000
00000000
00000001
00000001
10000001
00000100
,
00001000
00001000
10000000
00000000
00000001
00000001
10000001
00000100
,
10000000
10000000
00100000
10000000
00010000
00010000
00010000
00100000
,
00001000
00001000
00000010
00001000
00000001
00000001
00000001
00000010
,
01000100
01000100
00100010
00010001
01000100
01000100
10001000
10001000
,
00100010
00000000
00010001
00000000
10001000
00100010
00010001
00000000
10001000
00000000
00000000
00000000
01000100
00000000
00000000
00000000
,
10000010
00000000
01000000
00000000
,
00010010
00000000
01000000
01000000
,
10000010
00000000
01000000
00000000
,
00010010
00000000
01000000
01000000
,
00100001
00000000
00000100
00000000
,
00101000
00000000
00000100
00000100
,
00100001
00000000
00000100
00000000
,
00101000
00000000
00000100
00000100
,
10000000
00000000
00010000
00000000
00000000
01000000
00010000
00000000
,
01000000
00000000
01000000
00000000
10000000
00000000
10000000
01000000
00010000
00100000
00010000
00000000
10000000
00000000
00010000
01000000
,
00001000
00000000
00000001
00000000
00000000
00000100
00000001
00000000
,
00000100
00000000
00000100
00000000
00001000
00000000
00001000
00000100
00000001
00000010
00000001
00000000
00001000
00000000
00000001
00000100
,
10001000
00000000
01000100
00000000
10001000
00000000
00010001
01000100
00000000
00100010
00010001
00000000
10001000
00000000
00010001
00100010
,
10001000
00000000
01000100
00000000
10001000
00000000
00100010
01000100
00010001
00100010
00010001
00000000
00100010
00000000
00000000
00100010
,
00010001
00000000
10001000
00000000
10001000
00000000
00000000
01000100
00100010
00000000
00100010
00000000
00010001
00000000
00000000
01000100
,
00010001
00000000
10001000
10001000
,
00100010
10001000
01000100
00010001
,
00001000
00001000
10000100
00000000
00000000
00000010
10000000
00000001
,
00001000
00001000
10000100
00000000
00000000
00000010
10000000
00000001
,
00001000
00001000
10000000
00000000
00000001
00000001
10000000
00000000
,
00010001
00010001
01000100
00000000
00000000
00100010
00000000
10001000
,
00010000
00010000
01000001
00000000
00000000
00100000
00000001
10000000
,
00010000
00010000
01000001
00000000
00000000
00010000
00000001
10000000
,
00100000
00100000
00000001
00000000
01000000
01000000
00000001
00000000
,
00000001
00001000
00000000
00010001
01000100
00000000
00010001
01000100
,
00100010
10001000
00000000
01000100
10001000
10001000
00100010
00010001
,
01000100
00010001
10001000
00000000
00010000
10000000
00000000
00000000
,
10001000
00100010
00010001
10001000
00010001
00100010
10001000
10001000
,
00000001
00000010
00001000
00000100
00000001
00000100
00000010
00010001
,
01000000
10000000
00010000
10000000
01000000
00100000
00010000
00000000
,
01000100
00010001
10001000
00000000
01000100
10001000
00000000
00100010
,
01000100
00010001
01000100
00000000
00010001
01000100
01000100
00100010
,
10011001
00000000
00000000
00000000
;

//---------------dance-solo - ----------------
#NOTEDATA:;
#CHARTNAME:;
#STEPSTYPE:dance-solo;
#DESCRIPTION:;
#CHARTSTYLE:;
#DIFFICULTY:Easy;
#METER:8;
#RADARVALUES:0.279195,0.489087,0.039683,0.000000,0.000000,197.000000,193.000000,4.000000,0.000000,0.000000,0.000000,0.000000,0.000000,0.000000,0.279195,0.489087,0.039683,0.000000,0.000000,197.000000,193.000000,4.000000,0.000000,0.000000,0.000000,0.000000,0.000000,0.000000;
#CREDIT:;
#DISPLAYBPM:150.000000;
#NOTES:
000000
000000
000000
000000
,
000000
000000
000000
000000
,
000000
000000
000000
000000
,
000000
000000
000000
000000
,
000000
000000
000000
000000
,
000001
000000
100000
000000
,
000010
000000
010000
000001
,
100000
000001
000100
000001
,
000010
000001
100000
010000
,
100000
000100
010000
000001
,
000001
100000
100000
000001
,
001000
010000
001000
000001
,
010000
001000
000010
001000
,
100000
000100
000001
000100
,
100000
000001
000001
100000
,
100000
001000
001000
000100
,
000010
000001
000010
010000
,
001000
000000
000000
000000
,
100000
100000
000000
000000
000000
000000
000000
000000
,
000001
000001
000000
000000
000000
000000
000000
000000
,
000100
000100
000000
000000
000000
000000
000000
000000
,
001000
001000
000000
000000
010000
010000
000000
000000
,
000010
000010
000000
000000
100000
100000
000000
000000
,
000001
000001
000000
000000
000100
000100
000000
000000
,
001000
001000
000000
000000
010000
010000
000000
000000
,
000001
100000
000100
000100
,
010000
000000
001000
000000
,
000010
000000
001000
000000
,
100000
000000
001000
000000
,
000001
000000
001000
001000
,
010000
000000
001000
000000
,
000010
000000
001000
001000
,
100000
000000
001000
000000
,
000001
000000
001000
001000
,
100000
100000
000000
000000
,
000001
000001
001000
001000
,
010010
100001
001000
000000
,
100000
000001
001000
001000
,
000001
100000
001000
001000
,
010000
000010
001000
001000
,
000100
100001
001000
001000
,
000100
100000
001000
000001
,
001000
010000
001000
000010
,
001000
100000
001000
000001
,
000100
100000
001000
000001
,
000100
100000
001000
000001
,
000100
000001
001000
100000
,
000100
000010
001000
010000
,
000100
000001
001000
100000
,
000100
000001
001000
100000
,
000100
100000
001000
000001
,
000100
100000
001000
000001
,
000100
100000
001000
000001
,
000100
100000
001000
000001
,
000100
100000
001000
000001
001000
010000
000010
000100
,
000010
100000
001000
000001
001000
100000
000100
000001
,
000100
100000
001000
000001
,
000100
010000
001000
000010
,
001100
000000
000000
000000
;

//---------------dance-solo - ----------------
#NOTEDATA:;
#CHARTNAME:;
#STEPSTYPE:dance-solo;
#DESCRIPTION:;
#CHARTSTYLE:;
#DIFFICULTY:Medium;
#METER:9;
#RADARVALUES:0.385488,0.431548,0.138889,0.000000,0.000000,272.000000,258.000000,14.000000,0.000000,0.000000,0.000000,0.000000,0.000000,0.000000,0.385488,0.431548,0.138889,0.000000,0.000000,272.000000,258.000000,14.000000,0.000000,0.000000,0.000000,0.000000,0.000000,0.000000;
#CREDIT:;
#DISPLAYBPM:150.000000;
#NOTES:
000000
000000
000000
000000
,
000000
000000
000000
000000
,
000000
000000
000000
000000
,
000000
000000
000000
000000
,
000000
000000
000000
000000
,
000100
000100
000100
000000
010000
000000
000001
000000
,
001000
001000
001000
000000
000010
000000
100000
000000
,
000100
010000
000100
000000
000001
000000
001000
000000
,
000100
000010
000100
000000
100000
000000
001000
000000
,
001000
001000
010000
000000
000001
000000
100000
000000
,
001000
001000
000010
000000
100000
000000
000001
000000
,
100000
100000
000010
000000
000100
000000
000001
000000
,
000001
000001
010000
000000
000100
000000
100000
000000
,
100001
100001
001000
000000
000100
000000
000001
000000
,
100001
100001
001000
000000
000100
000000
100000
000000
,
001000
001000
010000
000000
000100
000000
000001
000000
,
001000
001000
000010
000000
000100
000000
100000
000000
,
000000
000000
000000
000000
,
000001
100000
001000
000010
,
100000
100000
001000
000000
000001
000000
001000
000000
,
100000
100000
001000
000000
000010
000000
001000
000000
,
000100
000100
000000
000000
010000
100000
000000
000000
,
000001
000001
001000
000000
100000
000000
001000
000000
,
000001
000001
001000
000000
010000
000000
001000
000000
,
000100
000100
000000
000000
000010
000001
000000
000000
,
100000
100000
000000
000000
000001
000000
000001
000000
,
100000
000000
000001
000000
100000
001000
000010
000000
,
100000
100000
000001
000000
001000
000001
001000
000000
,
000001
000000
100000
000000
000001
001000
010000
000000
,
000001
000001
100000
000000
001000
100000
001000
000000
,
100000
000000
000001
000000
001000
001000
001000
000000
,
000010
000000
010000
000000
001000
001000
001000
000000
,
100000
000001
010000
000010
,
001000
000001
001000
000001
001000
100000
001000
100000
,
000001
100000
000001
001000
,
000001
000001
010000
001001
,
100000
000001
100000
001000
,
100000
100000
000010
101000
,
100001
001000
010001
001000
,
001100
100000
001100
000001
,
101000
001001
101000
001001
,
000100
000010
001000
010000
,
000100
100000
001000
000010
,
100000
100000
001000
000000
000000
000100
000000
000001
,
100000
100000
001000
000000
000000
000100
000000
000010
,
010000
010000
000000
000000
000001
000001
000000
000000
,
000001
000001
001000
000000
000000
000100
000000
100000
,
000001
000001
001000
000000
000000
000100
000000
010000
,
000010
000010
001000
000000
000000
000001
000000
100000
,
000100
000100
000000
000000
001000
001000
000000
000000
,
000100
000100
010000
000001
000000
100000
000000
000001
,
000100
000100
000010
100000
000000
000001
000000
100000
,
001000
001000
001000
100000
000000
000010
000000
100000
,
001000
001000
000000
000000
001000
001000
000000
000000
,
000100
000100
000100
000100
000000
010000
000000
000001
,
000100
000100
000100
000100
000000
000010
000000
100000
,
001000
100000
000001
001000
000000
000001
000000
100000
,
000100
100000
001000
000001
001000
010000
000100
000010
,
000100
000000
000000
000000
;

//---------------dance-solo - ----------------
#NOTEDATA:;
#CHARTNAME:;
#STEPSTYPE:dance-solo;
#DESCRIPTION:;
#CHARTSTYLE:;
#DIFFICULTY:Hard;
#METER:13;
#RADARVALUES:0.521542,0.632937,0.089286,0.000000,0.099206,368.000000,359.000000,9.000000,0.000000,0.000000,0.000000,0.000000,0.000000,0.000000,0.521542,0.632937,0.089286,0.000000,0.099206,368.000000,359.000000,9.000000,0.000000,0.000000,0.000000,0.000000,0.000000,0.000000;
#CREDIT:;
#DISPLAYBPM:150.000000;
#NOTES:
000000
000000
000000
000000
,
000000
000000
000000
000000
,
000000
000000
000000
000000
,
000000
000000
000000
000000
,
000000
000000
000000
000000
,
100001
001000
000000
010000
001000
000000
000100
001000
,
000010
100000
000000
000001
100000
001000
000001
000000
,
000010
001000
000001
100000
000100
000001
000010
000100
,
000100
100000
000000
000100
000010
001000
000100
010000
,
000001
100000
000000
000010
001000
000000
000001
001000
,
000001
100000
000000
001000
100000
100000
001000
000100
,
001000
000100
000001
000000
100000
000000
000000
000000
000010
000000
100000
000000
000000
000000
000001
000000
,
010000
000100
100000
000001
100000
000100
100000
100000
,
000100
000100
010000
001000
000001
001000
000010
000010
,
001000
000100
000001
010000
001000
000100
000010
000000
,
001000
000100
010000
000000
001000
100000
000000
000100
,
001000
000010
001000
000000
010000
001000
001000
000010
,
001000
000000
000000
000000
000001
000000
001000
000000
000000
100000
000000
000000
010000
000001
000000
000000
,
100000
100000
000000
000000
000001
000001
000001
001000
,
010000
010000
000000
000000
000010
000010
000010
001000
,
100000
100000
000000
000000
000001
000001
000001
001000
,
010000
010000
000000
000000
000010
000010
000010
001000
,
100000
100000
010000
000100
000001
000010
000001
000100
,
100000
100000
000100
100000
000001
000010
000001
000100
,
001000
001000
000100
000001
001000
001000
010000
010000
,
100000
000000
000001
000000
100000
000100
000001
000000
000100
000000
000000
000000
100000
000000
000000
000000
,
001000
000000
000100
000000
000000
010000
000100
000000
,
100000
001000
000100
000000
000010
100000
001100
000000
,
100000
000000
000100
000000
000000
100000
000100
000000
,
100000
001000
000100
000000
000010
010000
001100
000000
,
100001
000000
000100
000000
000000
010000
001001
000100
,
101000
001000
000010
000000
000000
000001
001001
000100
,
101000
000000
000100
010000
000100
000000
000100
001000
,
010000
001000
000100
000100
000100
010000
001000
000010
,
000001
000000
100000
000000
000000
001000
000010
000000
,
001000
000000
001000
000000
010000
000000
000010
001000
000001
000100
000010
000000
100000
000000
000001
000100
,
000010
000000
000001
000000
000000
000100
000001
000000
,
000100
000000
000100
000000
010000
000000
000001
001000
000000
000100
000001
000000
000100
000000
001000
000100
,
000001
000000
001000
000000
100000
000000
010000
001000
000000
000100
000010
000000
100000
000000
000001
000100
,
001000
000000
001000
000000
100000
000000
000100
001000
000001
000100
000001
000000
000100
000000
000000
000100
,
000001
000000
010000
000000
010000
000000
000000
001000
000100
000000
000100
000000
000010
000000
000000
001000
,
000001
000000
000000
000000
010000
000000
100000
100000
,
001000
100000
000010
000000
100000
000000
000000
100000
000001
000000
001000
000000
000001
000000
000100
000000
,
000000
000010
000000
000010
100000
000000
000100
001000
,
100000
010000
000000
001000
001000
000000
000001
010000
,
000001
001000
000000
000100
100000
100000
000010
100000
,
000001
001000
000000
000010
001000
000000
000001
001000
,
000001
010000
000000
000001
100000
001000
000001
000000
,
000010
001000
000001
010000
000100
100000
000001
000100
,
000100
000010
000000
100000
000001
001000
000100
010000
,
000001
100000
000000
000001
001000
000000
000010
001000
,
000100
010000
000000
001000
100000
100000
000100
000001
,
000010
010000
100000
000000
000001
010000
000000
000000
,
100000
000100
000001
010000
000001
000100
000001
100000
,
000001
000100
000010
001000
000001
001000
000100
010000
,
001000
100000
000001
010000
001000
000100
000010
000000
,
001000
000001
100000
000000
001000
100000
000000
000100
,
001000
000010
001000
000000
000001
001000
001000
000100
,
100001
000000
000000
000000
;

//---------------dance-single - ----------------
#NOTEDATA:;
#CHARTNAME:;
#STEPSTYPE:dance-single;
#DESCRIPTION:;
#CHARTSTYLE:;
#DIFFICULTY:Challenge;
#METER:16;
#RADARVALUES:0.786565,0.845114,0.208333,0.069444,1.205357,555.000000,534.000000,21.000000,7.000000,0.000000,0.000000,0.000000,0.000000,0.000000,0.786565,0.845114,0.208333,0.069444,1.205357,555.000000,534.000000,21.000000,7.000000,0.000000,0.000000,0.000000,0.000000,0.000000;
#CREDIT:;
#DISPLAYBPM:150.000000;
#NOTES:
0000
0000
0000
0000
,
0000
0000
0000
0000
,
0000
0000
0000
0000
,
0000
0000
0000
0000
,
0000
0000
0000
0000
,
0010
0000
1000
0001
0000
0010
0001
0000
1000
0100
0000
0010
0100
0000
1000
0000
,
0010
0000
0100
0001
0000
1000
0010
1000
0000
0001
0010
0000
0100
0000
1000
0000
,
0010
1000
0010
1000
0000
0001
0000
0010
0000
0100
0000
1000
0000
0010
0100
0000
,
0001
1000
0001
1000
0001
0000
0010
0100
0000
1000
0010
0000
0100
0001
0000
1000
,
0010
0000
0100
0001
0000
0010
0100
0000
1000
0010
0000
1000
0001
0000
0010
0000
,
0001
0000
1000
0100
0000
1000
0010
0000
0100
0001
0010
0100
1000
0000
0001
0000
,
0000
0000
0010
0001
0000
1000
0010
0000
0100
0010
0000
1000
0000
0001
0100
0000
,
0110
0000
1001
0000
0110
0000
1001
0000
1000
0001
0000
0010
0100
0000
0000
1000
,
0001
0000
0010
0100
0000
0010
0001
0000
1000
0001
0000
1000
0010
0000
0100
0010
,
0000
0100
0001
0000
0010
0100
0000
1000
0001
0010
0000
0001
1000
0000
0100
0000
,
0000
0000
1000
0001
0000
0010
0100
0000
1000
0001
0000
1000
0010
0000
0100
0000
,
0001
0010
0000
0001
1000
0000
0100
0010
0000
0100
1000
0000
0001
1000
0010
0100
,
0000
0001
1000
0000
0001
1000
0000
0001
1000
0000
0001
1000
0000
0001
0000
1000
,
0001
0000
0101
0000
0000
0000
0000
0000
1000
0010
0100
0001
0010
0000
0100
0000
,
1000
0000
1100
0000
0000
0000
0000
0000
0010
1000
0001
0010
0100
0000
1000
0000
,
1010
0000
0101
0000
0000
0000
0000
0000
0001
0010
0000
0001
1000
0000
0010
0000
,
0100
0010
0000
1000
0100
0000
0010
0000
0001
1000
0000
0010
0100
0000
0001
0000
,
1000
0010
1000
0000
0101
0000
0000
0000
0001
1000
0010
1000
0100
0000
0010
0000
,
0001
0100
0001
0000
1100
0000
0000
0000
0010
1000
0000
0010
0100
0000
0001
0000
,
0010
0100
0000
1000
0001
0000
0100
0000
0001
0010
0000
0100
1000
0010
0000
1000
,
0001
0010
0100
1000
0001
0100
0010
1000
0002
0000
0000
0000
2003
0000
0000
0000
,
3010
0000
0000
0000
1010
0000
0000
0001
1000
0000
0100
0000
0011
0000
0000
0000
,
0001
1000
0001
0000
0010
0100
0000
0100
2000
0000
0000
0000
3020
0000
0000
0000
,
0130
0000
0000
0000
0110
0000
0000
0001
1000
0000
0010
0000
1001
0000
0000
0000
,
1000
0100
1000
0000
0010
0100
0000
0100
0002
0000
0000
0000
0023
0000
0000
0000
,
0031
1000
0000
0010
0000
0000
1000
0001
0010
0000
0100
1000
0000
0000
0010
0100
,
0001
0100
0000
0010
0000
0000
1000
0001
0010
0000
0100
1000
0000
0000
0001
0100
,
0010
1000
0000
0100
0000
0000
1000
0001
1000
0010
0000
0100
0000
0000
0001
0010
,
0001
1000
0001
1000
0010
1000
0010
1000
0100
0010
0100
0010
0001
0100
0001
0100
,
0010
1001
0100
1001
,
0001
1000
0000
0010
0000
1000
0100
0010
0001
0000
0100
0010
0000
1000
0001
0000
,
1000
0010
0001
0010
1000
0000
0000
0000
0101
0000
0000
0000
1100
0000
0000
0000
,
0010
1000
0000
0001
0000
0010
0100
1000
0010
0000
0100
0001
0000
1000
0010
0100
,
0010
1000
0000
0001
0000
0010
0001
1000
0010
0000
0100
0010
0000
0100
0001
1000
,
0001
0010
0000
0100
0000
1000
0010
1000
0001
0000
0010
0100
0000
0010
0001
1000
,
0010
0100
0000
0010
0000
1000
0001
0010
0100
0010
0000
0001
0000
1000
0010
1000
,
0001
0010
0001
0010
0100
1000
0100
1000
0010
1000
0010
1000
0001
0100
0001
0100
,
0000
0010
0100
0000
0001
0010
0000
0001
1000
0000
0010
1000
0000
0100
0010
0000
,
0001
0000
1000
0000
0001
0010
0000
0100
1000
0000
0010
1000
0000
0001
0100
0000
,
0000
0000
0010
0000
1000
0001
0000
0010
0100
0000
1000
0010
0000
0100
0001
0000
,
0010
0001
0000
0010
0100
1000
0000
0010
1000
0000
0001
0100
0000
0000
0001
1000
,
0010
1000
0001
0000
0010
0100
0000
1000
0001
0000
1000
0100
0000
0001
0010
0000
,
0100
1000
0100
0000
1000
0010
0000
0100
0001
0010
0000
0001
0100
0000
0010
0000
,
1000
0100
1000
0010
1000
0001
0000
0010
0001
0100
0010
0100
0000
0001
1000
0000
,
0010
0000
1000
0001
0000
0010
0001
0000
0100
0001
0000
1000
0100
0000
0010
0000
,
0100
0000
1000
0010
0000
1000
0001
0000
0010
0100
0000
0010
0001
1000
0001
0000
,
1000
0000
0010
0100
0000
0010
1000
0000
0001
0010
0100
1000
0001
0000
0010
0000
,
0000
0000
0001
1000
0000
1000
0010
0000
0100
0010
0100
0010
0000
0000
1000
0000
,
0100
0000
1000
0010
0000
1000
0001
0000
0010
0100
0000
0100
1000
0000
0000
0001
,
1000
0000
0010
0100
0000
0010
0100
0000
0001
1000
0000
0001
1000
0000
0100
0010
,
0000
0100
0010
0000
0001
1000
0000
0001
0010
0100
0000
1000
0010
0000
0100
0000
,
0000
0000
0001
1000
0000
1000
0010
0000
0100
0001
0000
0010
0001
0100
0000
0000
,
0101
0000
1010
0000
1100
0000
1000
0010
0000
1000
0001
0000
0010
0100
1000
0001
,
0200
0000
0000
0300
;

//---------------dance-solo - ----------------
#NOTEDATA:;
#CHARTNAME:;
#STEPSTYPE:dance-solo;
#DESCRIPTION:;
#CHARTSTYLE:;
#DIFFICULTY:Challenge;
#METER:17;
#RADARVALUES:0.826247,0.903398,0.238095,0.069444,1.279762,583.000000,559.000000,24.000000,7.000000,0.000000,0.000000,0.000000,0.000000,0.000000,0.826247,0.903398,0.238095,0.069444,1.279762,583.000000,559.000000,24.000000,7.000000,0.000000,0.000000,0.000000,0.000000,0.000000;
#CREDIT:;
#DISPLAYBPM:150.000000;
#NOTES:
000000
000000
000000
000000
,
000000
000000
000000
000000
,
000000
000000
000000
000000
,
000000
000000
000000
000000
,
000000
000000
000000
000000
,
000100
000000
100000
000010
000000
010000
001000
000000
000100
000001
000000
010000
000010
000000
001000
000000
,
000001
000000
100000
000100
000000
010000
001000
010000
000010
001000
000100
000000
100000
000000
000001
000000
,
000100
000010
010000
000010
000000
100000
000000
001000
000000
010000
000000
000100
000000
100000
000001
000000
,
000100
000001
100000
001000
010000
000000
000010
100000
000000
000100
001000
000000
000001
000010
000000
010000
,
001000
000000
100000
000100
000000
001000
000010
000000
010000
000001
000000
000010
000001
000000
010000
000000
,
001000
000000
100000
010000
000000
000100
000001
000000
010000
000010
000100
001000
100000
000000
000001
000000
,
000000
000000
100000
000010
000000
000100
001000
000000
000100
000001
000000
010000
000000
001000
100000
000000
,
110000
000000
001100
000000
000011
000000
100001
000000
000100
010000
000001
100000
001000
000000
000000
000010
,
100000
000000
001000
010000
000000
000001
000100
000010
000000
100000
000000
010000
000100
000000
001000
000001
,
000000
001000
000100
000000
010000
000010
000000
000100
000001
100000
001000
010000
000001
000000
000010
000000
,
000000
000000
000001
010000
000000
000100
100000
000000
000010
001000
000000
000100
001000
000000
000010
000000
,
100000
000010
010000
000010
001000
000000
000001
000100
000000
000001
100000
000000
000100
010000
001000
100000
,
000010
010000
000010
000000
010000
000010
000000
010000
000010
000000
010000
000010
000000
010000
000010
000000
,
001100
000000
010010
000000
000000
000000
000000
000000
100000
000100
010000
000001
001000
000000
000010
000000
,
000110
000000
011000
000000
000000
000000
000000
000000
001000
100000
000010
000100
000001
000000
010000
000000
,
010100
000000
001010
000000
000000
000000
000000
000000
000010
100000
000000
001000
000100
000000
000001
000000
,
010000
000100
000000
100000
000001
000000
000100
000000
000010
010000
000000
001000
100000
000000
000001
000000
,
000100
000001
001000
000000
100100
000000
000000
000000
100000
000010
001000
000100
010000
000000
000001
000000
,
000100
000001
100000
000000
001001
000000
000000
000000
000010
010000
000000
000100
100000
000000
001000
000000
,
010000
001000
000000
000100
000001
000000
100000
000000
000010
001000
000000
000010
010000
001000
000000
100000
,
000001
000100
001000
100000
000010
000100
001000
010000
000100
000000
000000
000000
000100
000000
000000
100000
,
000001
100000
000000
100000
000001
000000
000000
000100
001000
000000
001000
000000
110000
000000
000000
000000
,
000001
100000
000001
000000
000100
001000
000000
001000
020000
000000
000000
000000
030020
000000
000000
000000
,
000130
000001
000000
000001
000100
000000
000000
000010
010000
000000
010000
000000
001100
000000
000000
000000
,
000100
100000
000100
000000
001000
000010
000000
000010
200000
000000
000000
000000
300002
000000
000000
000000
,
000103
000001
000000
000011
000000
000001
100000
000100
100000
000000
001000
010000
000000
000100
100000
000010
,
010000
001000
000000
101000
000000
000001
010000
000010
000100
000000
001000
100000
000000
000010
010000
001000
,
100000
000100
000000
001100
000000
001000
000001
000100
000010
010000
000000
011000
000000
001000
100000
000001
,
000100
000010
000100
000010
001000
000001
001000
000001
100000
000100
100000
000100
010000
001000
010000
001000
,
100000
000010
000100
000000
000002
000000
000000
000000
010000
000000
000000
000000
001003
000000
000000
000000
,
000010
000100
000000
010010
000000
000001
100000
001000
010000
000000
000100
001000
000010
000000
000000
000000
,
100000
010000
000100
010000
200000
000000
000000
000000
000001
000000
000000
000000
300010
000000
000000
000000
,
001000
000001
000000
000101
000000
010000
001000
100000
000010
000000
010000
000001
000000
000100
000010
000100
,
000001
100000
000000
011000
000000
001000
100000
000100
001000
000000
000010
010000
000000
000001
010000
000010
,
000100
001000
000000
110000
000000
000100
100000
000001
000010
000000
001000
010000
000000
000100
010000
000001
,
100000
001000
000000
000110
000000
000100
000001
010000
000010
001000
000000
100100
000000
010000
000001
100000
,
001000
010000
001000
010000
000001
001000
000001
001000
000100
100000
000100
100000
000010
000100
000010
000100
,
001000
100000
010000
000000
100000
000001
000000
000010
000001
000000
001000
000100
000000
010000
000010
000000
,
100000
000000
000010
000000
000100
001000
000000
010000
000001
000000
001000
000100
000000
100000
000010
000000
,
000000
000000
001000
000000
000100
100000
000000
000010
000100
000000
000001
010000
000000
000001
001000
000000
,
000100
001000
000000
000010
100000
001000
000000
010000
000001
000000
000100
000010
000000
000000
100000
010000
,
000010
010000
100000
000000
001000
000100
000000
000001
010000
000000
000010
001000
000000
000100
100000
000000
,
000010
001000
000001
000000
000100
001000
000000
010000
000010
100000
000000
000001
100000
000000
010000
000000
,
000100
000000
100000
000000
000010
010000
000000
000001
000100
000010
000000
010000
001000
100000
000001
000000
,
000100
000010
001000
000000
000001
100000
000010
000000
010000
001000
000000
010000
000001
000000
100000
000100
,
100000
000000
000010
001000
000000
000100
010000
000000
000001
100000
000000
000001
010000
000000
000100
000000
,
001000
000000
100000
000001
000000
000100
000010
000000
010000
001000
100000
000001
000100
000000
000010
000000
,
000000
000000
100000
000010
000000
000100
001000
000000
010000
000001
000000
000100
000000
000010
010000
000000
,
001000
100000
000010
000100
000000
000001
010000
000000
000010
000100
000000
001000
100000
000000
000000
000001
,
100000
000010
000100
000010
000000
010000
001000
000100
000001
010000
000000
000010
001000
000000
000100
100000
,
000000
001000
010000
000001
000100
001000
000000
100000
000010
010000
000010
000100
000001
000000
001000
000000
,
000100
000000
010000
000010
000000
100000
001000
000000
000100
000001
000000
010000
000001
000000
001000
000000
,
000100
100000
001000
010000
000100
000000
100000
000010
000000
000100
000001
000000
010000
000001
010000
100000
,
000200
000000
000000
000300
;

//---------------dance-solo - ----------------
#NOTEDATA:;
#CHARTNAME:;
#STEPSTYPE:dance-solo;
#DESCRIPTION:;
#CHARTSTYLE:;
#DIFFICULTY:Beginner;
#METER:6;
#RADARVALUES:0.252268,0.291419,0.198413,0.019841,0.000000,178.000000,158.000000,20.000000,2.000000,0.000000,0.000000,0.000000,0.000000,0.000000,0.252268,0.291419,0.198413,0.019841,0.000000,178.000000,158.000000,20.000000,2.000000,0.000000,0.000000,0.000000,0.000000,0.000000;
#CREDIT:;
#DISPLAYBPM:150.000000;
#NOTES:
// measure 0
000000
000000
000000
000000
,  // measure 1
000000
000000
000000
000000
,  // measure 2
000000
000000
000000
000000
,  // measure 3
000000
000000
000000
000000
,  // measure 4
000000
000000
000000
000000
,  // measure 5
001000
001000
001000
000000
,  // measure 6
010000
010000
010000
010000
,  // measure 7
000000
000010
000000
010000
,  // measure 8
000010
000010
000010
000000
,  // measure 9
001000
001000
001000
000000
,  // measure 10
001000
001000
000010
010000
,  // measure 11
000000
001000
000000
001000
,  // measure 12
010000
010000
000010
000010
,  // measure 13
001000
001000
000000
000010
,  // measure 14
000000
010000
010000
001000
,  // measure 15
000000
010000
000010
010000
,  // measure 16
001000
001000
001000
001000
,  // measure 17
000000
000000
000000
000000
,  // measure 18
010010
000000
000000
000000
,  // measure 19
011000
000000
000000
000000
,  // measure 20
001010
000000
000000
000000
,  // measure 21
011000
000000
001010
000000
,  // measure 22
010000
010000
000000
000000
,  // measure 23
001000
001000
000000
000000
,  // measure 24
010000
010000
000000
000000
,  // measure 25
000010
000010
010000
010000
,  // measure 26
011000
011000
000000
000000
,  // measure 27
000010
000010
000010
000010
,  // measure 28
001010
001010
000000
000000
,  // measure 29
010000
010000
010000
010000
,  // measure 30
010010
000000
000010
010000
,  // measure 31
010010
000000
010000
000010
,  // measure 32
010010
000000
001000
000000
,  // measure 33
010000
010000
000010
000010
,  // measure 34
001010
011000
000000
000000
,  // measure 35
010000
000010
001000
001000
,  // measure 36
001010
011000
000000
000000
,  // measure 37
010000
000010
001000
001000
,  // measure 38
001010
000000
000010
010000
,  // measure 39
011000
000000
010000
000010
,  // measure 40
010010
000000
001000
000000
,  // measure 41
010000
001000
000010
001000
,  // measure 42
000000
010000
010000
010000
,  // measure 43
000000
000010
000010
000010
,  // measure 44
000000
001000
001000
001000
,  // measure 45
000010
010000
001000
000000
,  // measure 46
010000
010000
010000
010000
,  // measure 47
000010
000010
000010
000010
,  // measure 48
000000
001000
000000
000010
,  // measure 49
010000
000010
010000
001000
,  // measure 50
010000
010000
010000
010000
,  // measure 51
000010
000010
000010
000010
,  // measure 52
000000
001000
000010
001000
,  // measure 53
000010
010000
000010
001000
,  // measure 54
000010
010000
000010
010000
,  // measure 55
001000
010000
000010
001000
,  // measure 56
000000
000010
010000
001000
,  // measure 57
010000
000010
010000
001000
,  // measure 58
020020
000000
000000
030030
;
