#TITLE:LA LA LA LA YO-DEL;
#SUBTITLE:;
#ARTIST:DJ SIMON;
#TITLETRANSLIT:;
#SUBTITLETRANSLIT:;
#ARTISTTRANSLIT:;
#GENRE:;
#CREDIT:;
#BANNER:LA LA LA LA YO-DEL-bn.png;
#BACKGROUND:LA LA LA LA YO-DEL-bg.png;
#LYRICSPATH:;
#CDTITLE:;
#MUSIC:LA LA LA LA YO-DEL.ogg;
#OFFSET:0.000000;
#SAMPLESTART:56.727001;
#SAMPLELENGTH:20.000000;
#SELECTABLE:YES;
#DISPLAYBPM:165.000000;
#BPMS:0.000000=165.000000
;
#STOPS:
;
#BGCHANGES:;
#KEYSOUNDS:;
#ATTACKS:;

//---------------dance-solo - ----------------
#NOTES:
     dance-solo:
     :
     Beginner:
     3:
     0.184953,0.269906,0.087774,0.032915,0.000000,118.000000,110.000000,8.000000,3.000000,0.000000,0.000000,0.184953,0.269906,0.087774,0.032915,0.000000,118.000000,110.000000,8.000000,3.000000,0.000000,0.000000:
000000
000000
000000
000000
,
000000
000000
000000
000000
,
000000
000000
000000
000000
,
000000
000000
000000
000000
,
000000
000000
000000
000000
,
000000
000000
000000
000000
,
000010
000010
000010
000000
,
010000
010000
010000
000000
,
010010
000000
000000
000000
,
010000
000000
000010
000000
,
010000
000000
000010
000000
,
001000
000000
001000
000000
,
010010
000000
000000
000000
,
000010
000000
010000
000000
,
000010
000000
010000
000000
,
001000
001000
001000
000000
,
011000
000000
000000
000000
,
001000
000000
001000
000000
,
010000
000000
010000
000000
,
000010
000000
000010
000000
,
001010
000000
000000
000000
,
000010
000000
000010
000000
,
010000
000000
010000
000000
,
001000
001000
001000
000000
,
010010
000000
000000
000000
,
000010
000010
000010
000010
,
000000
000000
010000
000000
,
001000
001000
001000
001000
,
000000
000000
010000
000000
,
010000
010000
010000
000000
,
000010
000010
000010
000000
,
001000
001000
001000
000000
,
001000
001000
001000
000000
,
000010
000000
010000
000000
,
000010
000010
000010
000000
,
010000
000000
000010
000000
,
010000
010000
020000
000000
,
000000
000000
000000
000000
,
000000
000000
030000
000000
,
010010
000000
000000
000000
,
000010
000000
001000
000000
,
010000
000000
001000
000000
,
000010
000000
010000
000000
,
010010
000000
000000
000000
,
010000
000000
010000
000000
,
001000
001000
001000
000000
,
000010
000010
000010
000000
,
001000
000000
000000
000000
,
000000
000000
000000
000000
,
000000
000000
000000
000000
,
020020
000000
000000
000000
,
000000
000000
030030
000000
,
010000
000000
010000
000000
,
000010
000000
000010
000000
,
001000
000000
001000
000000
,
000010
000000
010000
000000
,
001000
000000
001000
000000
,
010000
000000
010000
000000
,
000010
000010
000010
000000
,
010000
010000
010000
000000
,
000010
000000
010000
000000
,
001000
001000
001000
000000
;

//---------------dance-solo - ----------------
#NOTES:
     dance-solo:
     :
     Easy:
     5:
     0.297805,0.404858,0.329153,0.307210,0.000000,190.000000,160.000000,30.000000,28.000000,0.000000,0.000000,0.297805,0.404858,0.329153,0.307210,0.000000,190.000000,160.000000,30.000000,28.000000,0.000000,0.000000:
000000
000000
000000
000000
,
000000
000000
000000
000000
,
000000
000000
000000
000000
,
000000
000000
000000
000000
,
000000
000000
000000
000000
,
000000
000000
000000
000000
,
000010
000010
010000
010000
,
001100
010010
100001
000000
,
020000
000000
000010
030010
,
002000
000000
000001
003001
,
200000
000000
000010
300010
,
101000
000000
001001
000000
,
000020
000000
100000
100030
,
002000
000000
010000
013000
,
000100
000100
001000
001000
,
001100
010010
100001
000000
,
000002
000000
000100
000103
,
020000
000000
000010
030010
,
002000
000000
100000
103000
,
100100
000000
000101
000000
,
020000
000000
000100
030100
,
002000
000000
000010
003010
,
100000
100000
000001
000001
,
001100
010010
100001
000000
,
020020
000000
000000
030030
,
000010
001000
010000
001000
,
000001
100000
001000
000000
,
010000
000100
000010
000100
,
100000
000001
000100
000000
,
000010
000010
000010
000010
,
010000
010000
010000
010000
,
001000
001000
001000
001000
,
000100
000100
000100
000100
,
000002
000000
001000
100003
,
000100
001000
000200
000300
,
010000
010000
001000
001000
,
100000
000001
002200
000000
,
000000
000000
000000
000000
,
000000
000000
000000
003300
,
000200
000000
010000
001300
,
200000
000000
001000
300010
,
020000
000000
000001
030100
,
011000
000000
001010
000000
,
000002
000000
000100
010003
,
002000
000000
000010
103000
,
000010
010000
000010
010000
,
001100
010010
100001
000000
,
010010
000000
000000
000000
,
000000
000000
000000
000000
,
000000
000000
000000
000000
,
200002
000000
000000
000003
,
000100
000100
000100
300100
,
200000
000000
000100
310000
,
000020
000000
000001
001030
,
020000
000000
000100
031000
,
010100
000000
000110
000000
,
000002
000000
010000
000103
,
002000
000000
000010
003001
,
100000
000001
100000
000001
,
001100
010010
100001
000000
,
001000
000100
001000
000100
,
001100
010010
100001
000000
;

//---------------dance-solo - ----------------
#NOTES:
     dance-solo:
     :
     Medium:
     8:
     0.438871,0.539811,0.296238,0.493730,0.000000,280.000000,253.000000,27.000000,45.000000,0.000000,0.000000,0.438871,0.539811,0.296238,0.493730,0.000000,280.000000,253.000000,27.000000,45.000000,0.000000,0.000000:
000000
000000
000000
000000
,
000000
000000
000000
000000
,
000000
000000
000000
000000
,
000000
000000
000000
000000
,
000000
000000
000000
000000
,
000000
000000
000000
000000
,
000010
001000
000100
000000
010000
000001
100000
000000
,
001100
010010
100001
000000
,
000100
020000
000000
000000
001000
000000
031000
000000
,
100000
000002
000000
000000
000100
000000
000103
000000
,
010000
000020
000000
000000
100000
000000
100030
000000
,
100000
001000
000000
000000
000100
000001
000000
000000
,
010000
002000
000000
000000
000001
000000
103000
000000
,
000100
200000
000000
000000
000010
000000
301000
000000
,
010000
001000
100000
000000
000010
000100
000001
000000
,
001100
010010
100001
000000
,
010000
002000
000000
000000
000001
000000
003100
000000
,
100000
000002
000000
000000
010000
000000
000013
000000
,
001000
000200
000000
000000
000010
000000
100300
000000
,
000100
001000
000000
000000
000010
010000
000000
000000
,
001000
200000
000000
000000
000010
000000
300001
000000
,
000100
000020
000000
000000
001000
000000
010030
000000
,
000001
100000
000100
000000
010000
000010
001000
000000
,
001100
010010
100001
000000
,
011000
001010
011000
001010
,
100002
000000
002003
000000
003200
000000
010300
010000
,
000000
000000
000010
001000
000100
000000
100000
000000
,
102000
000000
203000
000000
300200
000000
000310
000010
,
000000
010000
001000
000100
000010
100000
000000
000001
,
100000
001000
100000
000000
000001
001000
000001
000000
,
100000
000100
100000
000000
000001
000100
000001
000000
,
010000
001000
010000
000000
000010
001000
000010
000000
,
010000
000100
010000
000000
000010
000100
000010
000000
,
000100
000010
000000
010000
000002
000000
002003
000000
,
003100
100000
000100
100000
000020
000000
000030
001000
,
001200
100300
020010
030001
,
001100
010010
200002
000003
,
001000
001000
000100
000100
,
010000
000010
010000
300010
,
000100
000001
000000
000001
200000
000000
302000
000000
,
013000
000010
000000
000010
002000
000000
003200
000000
,
010300
001000
000000
001000
200000
000000
300020
000000
,
010030
000010
000100
000000
000001
100000
001000
000000
,
100000
000100
000000
000100
020000
000000
030020
000000
,
000130
000001
000000
000001
020000
000000
032000
000000
,
103000
001000
000100
000000
000001
010000
000010
000000
,
001100
010010
100001
000000
,
000100
000000
000000
001000
000000
000000
000010
000000
,
000000
100000
000000
000000
000001
000000
000000
010000
,
000000
000000
000010
000000
000000
001000
000000
000000
,
020020
000000
000000
000030
,
000001
000100
000001
030100
,
010000
000100
000000
000100
002000
000000
003020
000000
,
100030
001000
000000
001000
000200
000000
000302
000000
,
010003
000010
000000
000010
000200
000000
002300
000000
,
103000
000100
000001
000000
010000
001000
000010
000000
,
000100
000010
000000
000010
002000
000000
003002
000000
,
100003
000010
000000
000010
020000
000000
032000
000000
,
103000
000100
001000
000000
000010
010000
000001
000000
,
001000
000100
001000
000100
100000
000000
000000
000000
,
010000
000010
000100
000000
001000
100000
000001
000000
,
001100
010010
100001
000000
;

//---------------dance-solo - ----------------
#NOTES:
     dance-solo:
     :
     Hard:
     11:
     0.581504,0.607287,0.153605,0.373040,0.021944,371.000000,357.000000,14.000000,34.000000,0.000000,0.000000,0.581504,0.607287,0.153605,0.373040,0.021944,371.000000,357.000000,14.000000,34.000000,0.000000,0.000000:
000000
000000
000000
000000
,
000000
000000
000000
000000
,
000000
000000
000000
000000
,
000000
000000
000000
000000
,
000000
000000
000000
000000
,
000000
000000
000000
000000
,
000010
010000
001000
000100
000001
100000
000001
000000
,
000101
101000
100100
001001
,
010000
000010
000000
000100
000002
000000
200003
000000
,
301000
010000
000000
000100
200000
000000
300020
000000
,
000130
000001
000000
010000
002000
000000
203000
000000
,
300100
001000
000010
010000
001000
000100
000001
100000
,
000010
000100
000000
000001
020000
000000
032000
000000
,
003100
001000
000000
100000
000020
000000
020030
000000
,
030100
001000
000100
001000
000001
100000
000001
100000
,
001000
010000
000010
010000
001000
000000
010010
000000
,
000100
000001
010000
000010
200000
000000
302000
000000
,
013000
000100
001000
000001
200000
000000
300020
000000
,
000130
000010
001000
000001
200000
000000
320000
000000
,
130000
000100
010000
001000
000100
000010
010000
000001
,
010000
000100
100000
001000
000002
000000
000023
000000
,
000031
010000
000100
001000
000020
000000
200030
000000
,
301000
010000
001000
010000
000010
000100
000010
000100
,
000001
100000
000100
100000
000001
000000
001000
000000
,
100001
001100
100001
001100
,
200000
000000
300200
000000
001300
000010
010000
000001
,
000000
000100
000010
010000
001000
100000
000001
000000
,
000200
000000
000320
000000
100030
001000
010000
000001
,
000000
000000
000100
000000
000010
000000
001000
000000
000100
000000
010000
000000
000001
000000
100000
001000
,
100000
000100
100000
000100
100000
000100
100000
000100
,
010000
000001
010000
000001
010000
000001
010000
000001
,
001000
000010
001000
000010
001000
000010
001000
000010
,
100000
000001
100000
000001
100000
000001
100000
000001
,
000100
000010
000000
000010
200000
000000
302000
000000
,
013000
000100
001000
000002
200000
000000
300003
000010
,
010000
000000
000000
010000
001000
000000
000000
000000
000010
000000
000000
000010
001000
000000
000000
000000
,
000100
000000
000000
000100
100000
000000
000001
000000
020020
000000
000000
000000
000030
000000
000000
000000
,
000100
000100
001000
031000
,
010000
001000
000100
000010
001000
000100
100000
000000
,
000001
000100
000010
010000
001000
100000
000001
000000
,
010000
001000
000100
000010
100000
000001
001000
000000
,
000010
000100
001000
100000
000010
010000
000001
000000
,
000100
010000
001000
000100
000001
100000
000010
100000
,
001000
100000
000100
010000
000001
000100
000010
000000
,
000100
001000
000100
000001
010000
000010
100000
000000
,
000100
010000
001000
010000
000100
010000
001000
010000
,
000010
000100
000001
010000
001000
000100
000010
000000
,
100000
001000
000000
001000
000001
000000
100000
000100
,
000000
000100
000001
000000
010000
001000
000000
001000
,
000010
000000
010000
000100
000000
000100
000010
000000
,
020010
032000
203000
300002
,
000103
000010
000100
000001
010000
001000
100000
000000
,
000100
010000
001000
100000
000010
010000
000001
000000
,
100000
000010
000100
001000
010000
000001
010000
000000
,
000010
000100
001000
000001
100000
001000
010000
000000
,
000010
010000
001000
000100
001000
000100
000001
100000
,
001000
010000
001000
100000
000100
010000
000001
000000
,
000100
000010
010000
000010
000100
001000
100000
000000
,
000001
001000
000001
001000
000010
000100
000010
000100
,
000001
100000
001000
010000
000100
000000
000010
000000
,
010000
001000
100000
000100
010000
000001
001000
000000
,
001100
010010
100001
000000
;

//---------------dance-solo - ----------------
#NOTES:
     dance-solo:
     :
     Challenge:
     13:
     0.702193,0.809717,0.263322,0.373040,0.312695,448.000000,424.000000,24.000000,34.000000,0.000000,0.000000,0.702193,0.809717,0.263322,0.373040,0.312695,448.000000,424.000000,24.000000,34.000000,0.000000,0.000000:
000000
000000
000000
000000
,
000000
000000
000000
000000
,
000000
000000
000000
000000
,
000000
000000
000000
000000
,
000000
000000
000000
000000
,
000000
000000
000000
000000
,
000001
000100
000001
000000
001000
000000
001000
000000
000010
000000
010000
000000
010000
000000
000000
001000
,
100000
000000
000100
000000
001000
000000
000000
001000
000010
000000
010000
000000
000001
000000
000000
000000
,
000100
000000
000100
000000
000000
000000
000010
010000
000020
000000
000000
000000
002030
000000
000000
000000
,
003001
000000
000001
000000
000000
000000
010000
001000
020000
000000
000000
000000
030020
000000
000000
000000
,
100030
000000
100000
000000
000000
000000
001000
010000
002000
000000
000000
000000
003200
000000
000000
000000
,
000301
000001
001000
000100
010000
010000
001000
100000
,
000010
000000
000010
000000
000000
000000
100000
000100
200000
000000
000000
000000
302000
000000
000000
000000
,
013000
000000
010000
000000
000000
000000
000001
000100
000002
000000
000000
000000
200003
000000
000000
000000
,
300100
000100
001000
001000
000010
000010
010000
010000
,
001000
000000
100000
000000
000001
000000
010000
001000
020000
000000
000000
000000
030020
000000
000000
000000
,
000130
000000
000100
000000
000010
000000
100000
001000
200000
000000
000000
000000
300002
000000
000000
000000
,
010003
000000
010000
000000
001000
000000
100000
000100
200000
000000
000000
000000
300020
000000
000000
000000
,
001030
000000
001000
000000
000100
000000
010000
000001
020000
000000
000000
000000
030020
000000
000000
000000
,
000130
000100
000010
001000
000001
000001
100000
001000
,
010000
000000
010000
000000
001000
000000
000100
000010
000200
000000
000000
000000
000302
000000
000000
000000
,
100003
000000
100000
000000
000010
000000
010000
000100
020000
000000
000000
000000
032000
000000
000000
000000
,
103000
100000
000100
000100
001000
001000
000010
000010
,
010000
000000
001000
000000
100000
000000
000001
000100
000002
000000
000000
000000
010003
000000
000000
000000
,
100100
001001
000101
101000
,
010010
000000
001100
000000
001001
000000
000100
000110
,
000000
010000
000100
000010
010000
001000
000010
100000
,
101000
000000
000101
000000
010100
000000
001000
001100
,
000000
000000
000010
000000
000100
000000
010000
000000
000010
000000
001000
000000
010000
000000
000001
100000
,
001000
001000
010000
010000
000100
000100
001000
001000
,
000010
000010
010000
010000
000001
000001
100000
100000
,
000010
000010
000100
000100
000001
000001
100000
100000
,
000010
000010
010000
010000
001000
001000
000100
000100
,
000001
000000
000100
000000
001000
000000
100000
000100
200000
000000
000010
000000
300010
000000
000000
010000
,
000100
001000
000001
001000
000200
100000
100300
000010
,
010010
000000
000000
000010
001000
000000
000100
000000
001100
000000
000000
010000
000001
000000
100000
000000
,
100001
000000
000000
000001
000100
000000
001000
000000
200000
000000
010000
000000
000010
000000
000000
000000
,
300100
001000
000010
010000
001000
000100
000001
100000
,
000010
000100
000001
001000
000100
010000
000010
100000
,
000100
000000
001000
000000
000001
000000
010000
000010
020000
000000
000000
000000
031000
000000
000000
100000
,
000010
000000
000100
000000
001000
000000
100000
000001
200000
000000
000000
000000
300010
000000
000000
010000
,
001000
000000
100000
000000
000100
000000
010000
000001
020000
000000
000000
000000
030010
000000
000000
000100
,
000001
000000
000100
000000
000010
000000
100000
001000
010000
000000
000100
000000
001000
000000
000001
000000
,
000100
000000
000010
000000
010000
000000
001000
100000
002000
000000
000000
000000
003001
000000
000000
001000
,
100000
000000
000100
000000
001000
000000
000010
010000
000020
000000
000000
000000
000130
000000
000000
000001
,
100000
000000
000100
000000
001000
000000
000010
010000
000010
000000
000100
000000
000001
000000
010000
001000
,
010000
000000
000100
000000
001000
000000
000001
100000
000002
000000
000100
000000
000103
000000
000000
000000
,
000001
001001
000000
001000
001010
000000
000010
000110
,
000000
000100
010100
000000
010000
011000
000000
001000
,
101000
000000
100000
100001
000000
000001
000101
000000
,
010010
000010
000100
001000
010000
000010
001000
000100
,
100000
001000
100000
000100
010000
000001
000100
000010
,
001000
000000
001000
000000
000100
000000
010000
000010
010000
000000
000001
000000
100000
000000
000000
000010
,
000100
000000
000100
000000
000001
000000
010000
001000
010000
000000
000010
000000
100000
000000
000000
000001
,
010000
000000
010000
000000
001000
000000
100000
000100
100000
000000
000001
000000
010000
000000
000000
000010
,
000100
000000
000100
000000
000010
000000
100000
000001
001000
000000
001000
000000
000100
000000
010000
000010
,
100000
000000
100000
000000
000100
000000
010000
001000
010000
000000
000001
000000
001000
000000
000000
000010
,
100000
000000
100000
000000
000001
000000
010000
000010
010000
000000
000100
000000
001000
000000
000000
000001
,
100000
000000
000100
001000
000100
001000
000100
001000
000100
000000
010000
000010
010000
000010
010000
000010
,
010000
000000
001000
000000
000100
000000
000000
000001
200000
000000
000000
000000
300020
000000
000000
000000
,
100030
001000
100000
000000
000100
000000
000100
000000
010000
000000
010000
000000
000010
000000
000000
000100
,
000001
000000
001000
000000
000100
000000
000000
010000
000010
000000
000000
000000
000000
000000
000000
000000
;

//---------------dance-single - ----------------
#NOTES:
     dance-single:
     :
     Beginner:
     3:
     0.177116,0.269906,0.065831,0.021944,0.000000,113.000000,107.000000,6.000000,2.000000,0.000000,0.000000,0.177116,0.269906,0.065831,0.021944,0.000000,113.000000,107.000000,6.000000,2.000000,0.000000,0.000000:
0000
0000
0000
0000
,
0000
0000
0000
0000
,
0000
0000
0000
0000
,
0000
0000
0000
0000
,
0000
0000
0000
0000
,
0000
0000
0000
0000
,
0001
0000
1000
0000
,
0010
0010
0010
0000
,
1001
0000
0000
0000
,
1000
0000
0100
0000
,
1000
0000
0010
0000
,
0100
0000
0001
0000
,
1001
0000
0000
0000
,
0001
0000
1000
0000
,
0010
0000
0010
0000
,
0100
0100
0100
0000
,
0110
0000
0000
0000
,
0010
0000
0100
0000
,
0010
0000
1000
0000
,
0001
0000
0100
0000
,
0110
0000
0000
0000
,
0010
0000
0100
0000
,
0001
0000
1000
0000
,
0001
0001
0001
0000
,
1001
0000
0000
0000
,
1000
1000
1000
1000
,
0000
0000
0010
0000
,
0100
0100
0100
0100
,
0000
0000
0001
0000
,
0010
0000
0010
0000
,
0001
0000
0001
0000
,
1000
0000
1000
0000
,
0100
0000
0100
0000
,
1000
0000
0001
0000
,
1000
1000
1000
0000
,
0010
0000
0100
0000
,
0010
0010
0020
0000
,
0000
0000
0000
0000
,
0030
0000
0000
0000
,
0001
0000
1000
0000
,
0001
0000
1000
0000
,
0100
0000
0010
0000
,
0100
0000
0010
0000
,
0001
0000
0100
0000
,
0010
0000
1000
0000
,
0001
0001
0001
0000
,
1000
1000
1000
0000
,
1001
0000
0000
0000
,
0000
0000
0000
0000
,
0000
0000
0000
0000
,
0200
0000
0000
0000
,
0000
0000
0300
0000
,
1000
0000
1000
0000
,
0010
0000
0010
0000
,
0100
0000
0100
0000
,
0001
0000
0001
0000
,
0010
0000
0100
0000
,
1000
0000
0001
0000
,
0100
0100
0100
0000
,
0010
0010
0010
0000
,
1000
0000
0001
0000
,
0100
0100
0100
0000
;

//---------------dance-single - ----------------
#NOTES:
     dance-single:
     :
     Easy:
     5:
     0.286833,0.404858,0.263322,0.394984,0.000000,183.000000,159.000000,24.000000,36.000000,0.000000,0.000000,0.286833,0.404858,0.263322,0.394984,0.000000,183.000000,159.000000,24.000000,36.000000,0.000000,0.000000:
0000
0000
0000
0000
,
0000
0000
0000
0000
,
0000
0000
0000
0000
,
0000
0000
0000
0000
,
0000
0000
0000
0000
,
0000
0000
0000
0000
,
0001
0001
1000
1000
,
1001
0110
1001
0000
,
2000
0000
0001
3001
,
0200
0000
0010
0310
,
0002
0000
0100
0103
,
2000
3000
0002
0003
,
0020
0000
0001
0031
,
2000
0000
0100
3100
,
0010
0010
0100
0100
,
0110
1001
0110
0000
,
0002
0000
0010
0013
,
0200
0000
1000
1300
,
0020
0000
0100
0130
,
2000
3000
0002
0003
,
0020
0000
0001
0031
,
0200
0000
0010
0310
,
1000
1000
0010
0010
,
0110
1001
0110
0000
,
1001
0100
1000
0100
,
1000
1000
0001
0100
,
0000
0010
0100
0000
,
0001
0001
0010
0100
,
0000
1000
0001
0000
,
1000
1000
1000
1000
,
0010
0010
0010
0010
,
0100
0100
0100
0100
,
0001
0001
0001
0001
,
0020
0000
0001
0031
,
1000
0010
0200
0300
,
0002
0003
2000
3000
,
1001
0110
2002
0000
,
0000
0000
0000
0003
,
0100
0100
0100
3100
,
2000
0000
0010
3001
,
0200
0000
1000
0301
,
0020
0000
1000
0130
,
0002
0003
2000
3000
,
0002
0000
0010
1003
,
0200
0000
0010
0301
,
0010
0010
0001
0001
,
1001
0110
1001
0000
,
0110
0000
0000
0000
,
0000
0000
0000
0000
,
0000
0000
0000
0000
,
2002
0000
0000
0000
,
0000
0000
0000
0003
,
0002
3000
1000
0103
,
2000
0000
0010
3100
,
0002
0000
1000
0013
,
0200
0300
0020
0030
,
0200
0000
1000
0310
,
0002
0000
0010
0103
,
1000
1000
0100
0100
,
0110
1001
0110
0000
,
0100
0100
0001
0001
,
1001
0110
1001
0000
;

//---------------dance-single - ----------------
#NOTES:
     dance-single:
     :
     Medium:
     9:
     0.456112,0.506073,0.307210,0.482758,0.000000,291.000000,263.000000,28.000000,44.000000,0.000000,0.000000,0.456112,0.506073,0.307210,0.482758,0.000000,291.000000,263.000000,28.000000,44.000000,0.000000,0.000000:
0000
0000
0000
0000
,
0000
0000
0000
0000
,
0000
0000
0000
0000
,
0000
0000
0000
0000
,
0000
0000
0000
0000
,
0000
0000
0000
0000
,
0001
1000
0100
0000
1000
0001
0100
0000
,
0101
1100
1001
0000
,
1000
0002
0000
0000
0100
0000
0013
0000
,
0001
0200
0000
0000
1000
0000
0310
0000
,
1000
0200
0000
0000
0001
0000
0310
0000
,
1000
0010
0000
0000
0100
0001
0000
0000
,
0100
0020
0000
0000
0001
0000
1030
0000
,
0100
2000
0000
0000
0010
0000
3001
0000
,
1000
0100
1000
0000
0001
0100
0001
0000
,
0011
1010
1001
0000
,
0001
0010
0000
0001
2000
0000
3200
0000
,
1300
0010
0000
0100
0002
0000
2003
0000
,
3010
1000
0000
0001
2000
0000
3020
0000
,
0130
0010
0000
0000
1000
0001
0000
0000
,
0010
0001
0000
0100
0002
0000
0203
0000
,
0310
0100
0000
0001
2000
0000
3002
0000
,
0013
0001
0010
0000
0100
1000
0100
0000
,
1100
0011
1001
0000
,
0110
1001
0110
1001
,
2000
0000
3002
0000
0203
0000
0010
0310
,
0000
0000
1000
0001
0010
0000
0000
0000
,
0002
0000
0203
0000
0320
0000
1000
1030
,
0000
0001
1000
0100
1000
0001
0000
0100
,
0001
0010
0001
0000
1000
0010
1000
0000
,
0001
0100
0001
0000
1000
0100
1000
0000
,
0010
1000
0100
0000
0010
0001
0100
0000
,
0001
1000
0010
0000
1000
0001
0100
0000
,
0001
0010
0000
0001
2000
0000
3020
0000
,
0130
0010
1000
0010
0200
0000
0300
0001
,
1000
1100
0001
0101
,
1001
0110
2002
0003
,
0010
0010
0100
0100
,
0001
0100
0001
3010
,
1000
0001
0000
1000
0020
0000
0230
0000
,
0301
0010
0000
0100
2000
0000
3020
0000
,
1030
0100
0000
1000
0002
0000
0203
0000
,
0301
0010
0001
0000
1000
0010
1000
0000
,
0100
0010
0000
0001
0200
0000
0320
0000
,
0130
0001
0000
1000
0200
0000
0320
0000
,
0031
0100
0001
0000
1000
0100
1000
0000
,
1010
0101
1001
0000
,
0002
0000
0000
0023
0000
0000
0230
0000
,
0000
2300
0000
0000
3020
0000
0000
0230
,
0000
0000
0302
0000
0000
1003
0000
0000
,
1002
0100
1000
0100
,
0010
0010
0100
0103
,
0001
0010
0000
0001
1000
0010
0100
0000
,
0010
1000
0000
0100
0010
0001
1000
0000
,
0010
0100
0000
0010
0100
0001
1000
0000
,
0100
1000
0001
0000
0100
0001
1000
0000
,
0010
0100
0000
0010
1000
0001
0100
0000
,
0001
1000
0000
1000
0010
0100
0001
0000
,
0010
0001
1000
0000
0010
1000
0001
0000
,
0011
0101
1001
0000
,
1000
0100
0010
0000
0001
0100
0010
0000
,
1001
1010
1100
0000
;

//---------------dance-single - ----------------
#NOTES:
     dance-single:
     :
     Hard:
     12:
     0.608150,0.607287,0.241379,0.329153,0.170062,388.000000,366.000000,22.000000,30.000000,0.000000,0.000000,0.608150,0.607287,0.241379,0.329153,0.170062,388.000000,366.000000,22.000000,30.000000,0.000000,0.000000:
0000
0000
0000
0000
,
0000
0000
0000
0000
,
0000
0000
0000
0000
,
0000
0000
0000
0000
,
0000
0000
0000
0000
,
0000
0000
0000
0000
,
0001
0010
0100
1000
0010
0100
0001
1000
,
1100
0101
1100
0101
,
1000
0000
0001
0000
0000
0000
0010
0000
0200
0000
0000
0000
1300
0000
0000
0001
,
1000
0000
0010
0000
0000
0000
0100
0000
0002
0000
0000
0000
1003
0000
0000
0100
,
1000
0000
0010
0000
0000
0000
1000
0000
0002
0000
0000
0000
0103
0000
0000
0010
,
0100
0001
0010
0100
1000
0001
1000
0000
,
0010
0000
1000
0000
0000
0000
0001
0000
2000
0000
0000
0000
3100
0000
0000
0010
,
0001
0000
0100
0000
0000
0000
0100
0000
0020
0000
0000
0000
1030
0000
0000
0001
,
1000
0100
1000
0100
0010
0001
0010
0001
,
0100
0010
1000
0010
0100
0001
1000
0000
,
0001
0000
1000
0000
0000
0000
1000
0000
0020
0000
0000
0000
0130
0000
0000
0010
,
1000
0000
0100
0000
0000
0000
0010
0000
0002
0000
0000
0000
0103
0000
0000
0001
,
0010
0000
0100
0000
0000
0000
1000
0000
0002
0000
0000
0000
1003
0000
0000
0010
,
0100
0010
1000
0100
0010
0001
1000
0000
,
0010
0000
1000
0000
0000
0000
0100
0000
2000
0000
0000
0000
3001
0000
0000
0100
,
0001
0000
0010
0000
0000
0000
0001
0000
0200
0000
0000
0000
0310
0000
0000
1000
,
0100
0010
0100
0010
0001
1000
0001
1000
,
0010
0100
0001
0010
0100
1000
0001
0000
,
0011
1100
0011
1100
,
1001
0000
0110
0000
1010
0000
0001
1000
,
0000
1000
0100
0001
1000
0010
0001
0000
,
0011
0000
1100
0000
0101
0000
0010
0100
,
0000
0000
0001
0000
0010
0000
1000
0000
0001
0000
0100
0000
1000
0000
0010
0100
,
0010
1000
0010
1000
0010
1000
0010
1000
,
0001
0100
0001
0100
0001
0100
0001
0100
,
0001
0010
0001
0010
0001
0010
0001
0010
,
0100
1000
0100
1000
0100
1000
0100
1000
,
0010
0000
0100
0000
0000
0000
0001
1000
0002
0000
0000
0000
0013
0000
0100
0000
,
1000
0000
0000
0001
1000
0000
0010
0000
0200
0000
0000
0000
0000
0000
0301
0000
,
0101
0000
0000
0001
1000
0000
0000
0000
1100
0000
0000
1000
0001
0000
0000
0000
,
0110
0000
0000
0010
0100
0000
0001
0000
2002
0000
0000
0000
0003
0000
0000
0000
,
3010
1000
0100
0010
0001
0100
0001
1000
,
0010
0100
0010
1000
0001
0100
1000
0000
,
0010
0000
1000
0000
0000
0000
0001
0010
0002
0000
0000
0000
0203
0000
0000
0000
,
0301
0000
1000
0000
0000
0000
0010
1000
0020
0000
0000
0000
0230
0000
0000
0000
,
0301
0000
0100
0000
0000
0000
0010
0100
0020
0000
0000
0000
2030
0000
0000
0000
,
3100
1000
0010
1000
0001
0010
0100
0000
,
1000
0000
0001
0000
0000
0000
0010
0001
0020
0000
0000
0000
0230
0000
0000
0000
,
1300
0000
0010
0000
0000
0000
0100
0010
0200
0000
0000
0000
0302
0000
0000
0000
,
0013
0001
0010
0001
1000
0100
1000
0100
,
0010
0100
1000
0001
0100
0010
1000
0000
,
0001
0010
0000
0010
1000
0000
0001
0100
,
0000
0100
1000
0000
0001
0010
0000
0010
,
1000
0000
0001
0100
0000
0100
1000
0000
,
1001
0001
1000
0100
0010
0001
0100
0001
,
0010
0100
0010
0001
1000
0010
1000
0100
,
0010
0000
0001
0000
0000
0000
1000
0010
2000
0000
0000
0000
3001
0000
0000
0100
,
0001
0000
0010
0000
0000
0000
1000
0100
2000
0000
0000
0000
3001
0000
0000
0100
,
0010
0000
0100
0000
0000
0000
0001
0010
0002
0000
0000
0000
1003
0000
0000
0100
,
1000
0010
0100
0001
1000
0100
0010
0001
,
0100
0000
0001
0000
0000
0000
1000
0001
2000
0000
0000
0000
3100
0000
0000
0010
,
0001
0000
0100
0000
0000
0000
0010
1000
0020
0000
0000
0000
0130
0000
0000
0001
,
1000
0001
1000
0001
0010
0100
0010
0100
,
1000
0010
0100
0001
2000
0000
3000
0000
,
0010
1000
0100
0010
0001
1000
0001
0100
,
0101
1100
1001
0000
;

//---------------dance-single - ----------------
#NOTES:
     dance-single:
     :
     Challenge:
     14:
     0.711598,0.809717,0.285266,0.416927,0.351097,454.000000,428.000000,26.000000,38.000000,0.000000,0.000000,0.711598,0.809717,0.285266,0.416927,0.351097,454.000000,428.000000,26.000000,38.000000,0.000000,0.000000:
// measure 0
0000
0000
0000
0000
,  // measure 1
0000
0000
0000
0000
,  // measure 2
0000
0000
0000
0000
,  // measure 3
0000
0000
0000
0000
,  // measure 4
0000
0000
0000
0000
,  // measure 5
0000
0000
0000
0000
,  // measure 6
0001
0010
0001
0000
1000
0000
1000
0000
0010
0000
0010
0000
0100
0000
0100
0000
,  // measure 7
0001
0000
1000
0000
0100
0000
0000
1000
0001
0000
0100
0000
0010
0000
0000
0000
,  // measure 8
0001
0000
2000
0000
0000
0000
3010
0100
0020
0000
0000
0000
1030
0000
0000
0001
,  // measure 9
0100
0000
0002
0000
0000
0000
1003
0100
2000
0000
0000
0000
3001
0000
0000
0010
,  // measure 10
0100
0000
2000
0000
0000
0000
3010
0100
0020
0000
0000
0000
1030
0000
0000
0001
,  // measure 11
0010
0000
0002
0000
0000
0000
1003
0010
1000
0000
0200
0000
0000
0000
0301
0000
,  // measure 12
0100
0000
2000
0000
0000
0000
3001
0100
0002
0000
0000
0000
0013
0000
0000
0010
,  // measure 13
0001
0000
2000
0000
0000
0000
3100
0010
0200
0000
0000
0000
1300
0000
0000
0001
,  // measure 14
0010
0001
0100
0001
1000
0010
1000
0100
,  // measure 15
0010
0000
0001
0000
1000
0000
0000
0001
0100
0000
0010
0000
1000
0000
0000
0000
,  // measure 16
0010
0000
1000
0000
0001
0000
0100
0010
0200
0000
0000
0000
0302
0000
0000
0000
,  // measure 17
0013
0000
0100
0000
1000
0000
0001
0100
0002
0000
0000
0000
2003
0000
0000
0000
,  // measure 18
3100
0000
0010
0000
0001
0000
1000
0100
2000
0000
0000
0000
3020
0000
0000
0000
,  // measure 19
0130
0000
0002
0000
0000
0000
1003
0100
1000
0000
0002
0000
0000
0000
0013
0000
,  // measure 20
0001
0000
1000
0000
0000
0000
0100
1000
0200
0000
0000
0000
0320
0000
0000
0000
,  // measure 21
0031
0000
0010
0000
0000
0000
1000
0001
2000
0000
0000
0000
3200
0000
0000
0000
,  // measure 22
1300
0001
0010
0100
0010
0001
1000
0100
,  // measure 23
1000
0000
0010
0000
0100
0000
0001
1000
0001
0000
0010
0000
0100
0000
0000
0000
,  // measure 24
1100
0101
1100
0101
,  // measure 25
1001
0001
0010
0100
1000
0010
0100
0001
,  // measure 26
0000
0001
0101
1000
0010
0100
0000
0001
,  // measure 27
1001
1000
0001
0100
0010
1000
0100
0010
,  // measure 28
0000
0000
0011
0000
0001
0000
0100
0000
1100
0000
1000
0000
0001
0000
0100
0010
,  // measure 29
1000
1000
0001
0001
0100
0100
0010
0010
,  // measure 30
1000
1000
0100
0100
0010
0010
0001
0001
,  // measure 31
0010
0010
0001
0001
1000
1000
0100
0100
,  // measure 32
1000
0000
1000
0010
0100
0010
0100
0010
1000
0000
1000
0000
0001
0000
0001
0000
,  // measure 33
0010
0000
0021
0000
0000
0000
0031
1000
0002
0000
0000
0000
0103
0000
0010
0000
,  // measure 34
1000
1000
0001
0100
2000
0000
0000
3001
,  // measure 35
0011
0000
0000
0001
0100
0000
0010
0000
1010
0000
0000
1000
0100
0000
0010
0000
,  // measure 36
0110
0000
0000
0100
1000
0000
0001
0000
2001
0000
0100
0000
0100
0000
0000
0000
,  // measure 37
3010
1000
0100
0010
0001
0100
0001
0010
,  // measure 38
0100
0010
0001
1000
0001
0100
0010
1000
,  // measure 39
0010
0000
2000
0000
0000
0000
3100
0010
0002
0000
0000
0000
1003
0000
0000
0001
,  // measure 40
1000
0000
0200
0000
0000
0000
1300
0001
0200
0000
0000
0000
0310
0000
0000
0010
,  // measure 41
0100
0000
0002
0000
0000
0000
0013
0001
2000
0000
0000
0000
3100
0000
0000
1000
,  // measure 42
0010
0000
0100
0000
0001
0000
1000
0100
1000
0000
0010
0000
0100
0000
0001
0000
,  // measure 43
0010
0000
0200
0000
0000
0000
0310
0001
2000
0000
0000
0000
3001
0000
0000
0100
,  // measure 44
0001
0000
0020
0000
0000
0000
0031
1000
0200
0000
0000
0000
0310
0000
0000
1000
,  // measure 45
0010
0000
0100
0001
0100
0000
0001
0100
0001
0000
1000
0010
1000
0000
0010
1000
,  // measure 46
0010
0000
0100
0000
0001
0000
1000
0100
1000
0000
0001
0000
0010
0000
0000
0000
,  // measure 47
0001
0011
0000
1000
1010
0000
0001
0101
,  // measure 48
0000
1000
1100
0000
0010
1010
0000
0100
,  // measure 49
1100
0000
0010
0011
0000
0100
0101
0000
,  // measure 50
1001
0010
0100
0001
0010
0100
1000
0010
,  // measure 51
1000
0001
0010
0100
1000
0001
1000
0100
,  // measure 52
0010
0000
0001
0000
0100
0000
0010
1000
0010
0000
0100
0000
0001
0000
0000
1000
,  // measure 53
0100
0000
1000
0000
0001
0000
0100
0010
0100
0000
0001
0000
1000
0000
0000
0010
,  // measure 54
1000
0000
0100
0000
0010
0000
0001
0100
0001
0000
1000
0000
0001
0000
0000
0010
,  // measure 55
0001
0000
0100
0000
0010
0000
1000
0001
0010
0000
0001
0000
1000
0000
0100
0000
,  // measure 56
1000
0000
0010
0000
0100
0000
0001
1000
0100
0000
0010
0000
0001
0000
0000
0100
,  // measure 57
0010
0000
0100
0000
0001
0000
0010
0100
1000
0000
0001
0000
1000
0000
0000
0100
,  // measure 58
1000
0000
0010
0100
0010
0100
0010
0100
0010
0000
1000
0001
1000
0001
1000
0001
,  // measure 59
1000
0000
0100
0000
0010
0000
0001
0100
0001
0000
1000
0000
0100
0000
0000
0000
,  // measure 60
1000
0010
1000
0000
0001
0000
0001
0000
0010
0000
0010
0000
0100
0000
0100
0000
,  // measure 61
1100
0001
0101
1000
1001
0000
0000
0000
;
