#TITLE:Kiss me all night long;
#SUBTITLE:;
#ARTIST:NAOKI J-STYLE feat.MIU;
#TITLETRANSLIT:;
#SUBTITLETRANSLIT:;
#ARTISTTRANSLIT:;
#GENRE:;
#CREDIT:;
#BANNER:Kiss me all night long-bn.png;
#BACKGROUND:Kiss me all night long-bg.png;
#LYRICSPATH:;
#CDTITLE:;
#MUSIC:Kiss me all night long.ogg;
#OFFSET:0.000000;
#SAMPLESTART:63.804001;
#SAMPLELENGTH:15.000000;
#SELECTABLE:YES;
#DISPLAYBPM:155.000000;
#BPMS:0.000000=155.171997
,4.000000=155.139008
,164.000000=155.171997
;
#STOPS:164.000000=0.387000
;
#BGCHANGES:;
#KEYSOUNDS:;
#ATTACKS:;

//---------------dance-single - ----------------
#NOTES:
     dance-single:
     :
     Beginner:
     3:
     0.162694,0.218153,0.051300,0.000000,0.000000,111.000000,106.000000,5.000000,0.000000,0.000000,0.000000,0.162694,0.218153,0.051300,0.000000,0.000000,111.000000,106.000000,5.000000,0.000000,0.000000,0.000000:
0000
0000
0000
0000
,
0000
0000
0000
0000
,
0000
0000
0000
0000
,
0000
0000
0000
0000
,
0000
0000
0000
0000
,
0010
0000
0000
0000
,
0100
0000
0000
0000
,
0001
0000
0001
0000
,
1000
0000
1000
0000
,
0001
0001
0000
0000
,
1000
1000
0000
0000
,
0010
0010
0000
0000
,
0100
0100
0000
0000
,
0001
0000
0010
0000
,
0001
0000
0100
0000
,
1000
0000
0010
0000
,
1000
0000
0100
0000
,
0001
0001
0001
0000
,
1000
1000
1000
0000
,
0010
0000
0010
0000
,
0100
0000
0100
0000
,
0001
0001
0000
0000
,
1000
1000
0000
0000
,
1000
0000
0001
0000
,
1001
0000
0000
0000
,
0001
0000
0001
0000
,
0010
0010
0000
0000
,
1000
0000
1000
0000
,
0010
0010
0000
0000
,
0001
0000
1000
0000
,
0010
0000
0010
0000
,
1000
0000
0001
0000
,
1001
0000
0000
0000
,
0010
0000
0010
0000
,
0100
0000
0100
0000
,
0010
0000
0001
0000
,
0010
0000
1000
0000
,
0001
0000
0001
0000
,
1000
0000
1000
0000
,
0010
0000
0100
0000
,
0010
0000
0000
0000
,
0000
0000
0000
1000
,
0000
0010
0000
0001
,
0001
0000
0000
1000
,
0000
0010
0000
1000
,
1000
0000
0000
0001
,
0000
0001
0000
1000
,
0000
1000
0000
0010
,
0000
0100
0000
1001
,
0000
0000
0000
1000
,
0000
0100
0000
1000
,
0000
0100
0000
0001
,
0000
0100
0000
0001
,
0001
0000
0000
1000
,
0000
0010
0000
0001
,
0000
0010
0000
1000
,
0000
0001
0000
1001
,
0000
0000
0000
0100
,
0000
0001
0000
0010
,
0000
1000
0000
0001
,
0000
1000
0000
1001
,
0000
0000
0000
0000
;

//---------------dance-single - ----------------
#NOTES:
     dance-single:
     :
     Easy:
     3:
     0.175886,0.219948,0.041040,0.061560,0.000000,120.000000,116.000000,4.000000,6.000000,0.000000,0.000000,0.175886,0.219948,0.041040,0.061560,0.000000,120.000000,116.000000,4.000000,6.000000,0.000000,0.000000:
0000
0000
0000
0000
,
0000
0000
0000
0000
,
0000
0000
0000
0000
,
0000
0000
0000
0000
,
0000
0000
0000
0000
,
0010
0000
0000
0000
,
0100
0000
0000
0000
,
0001
0000
0001
0000
,
1000
0000
1000
0000
,
0001
0001
0000
0000
,
1000
1000
0000
0000
,
0010
0010
0000
0000
,
0100
0100
0000
0000
,
0001
0000
0010
0000
,
0001
0000
0100
0000
,
1000
0000
0010
0000
,
1000
0000
0100
0000
,
0001
0001
0001
0000
,
1000
1000
1000
0000
,
0010
0000
0010
0000
,
0100
0000
0100
0000
,
0001
0001
0010
0000
,
1000
1000
0010
0000
,
1000
0000
0001
0000
,
1001
0000
0000
0000
,
0001
0000
0001
0000
,
0010
0010
0100
0000
,
1000
0000
1000
0000
,
0010
0010
0100
0000
,
0001
0000
1000
0000
,
0010
0000
0010
0000
,
1000
0000
0001
0000
,
0000
0200
0000
0300
,
0010
0000
0010
0000
,
0100
0000
0100
0000
,
0010
0000
0001
0000
,
0010
0000
1000
0000
,
0001
1000
0001
0000
,
1000
0001
1000
0000
,
0010
0000
0100
0000
,
0020
0000
0030
0000
,
0000
0000
0000
1000
,
0000
0010
0000
0001
,
0001
0100
0000
1000
,
0000
0010
0000
1000
,
1000
0100
0000
0001
,
0000
0001
0000
1000
,
0000
1000
0000
0010
,
0000
0100
0000
1001
,
0000
0000
0000
1000
,
0000
0100
0000
1000
,
0100
0100
0000
0001
,
0000
0100
0000
0001
,
0001
0100
0000
1000
,
0000
0010
0000
0001
,
0000
0010
0000
1000
,
0000
0001
0000
0000
,
2002
0000
3003
0100
,
0000
0001
0000
0010
,
0000
1000
0000
0001
,
0000
1000
0000
2002
,
0000
3003
0000
0000
,
0000
0000
0000
0000
;

//---------------dance-single - ----------------
#NOTES:
     dance-single:
     :
     Medium:
     6:
     0.301937,0.314212,0.133380,0.133380,0.000000,206.000000,193.000000,13.000000,13.000000,0.000000,0.000000,0.301937,0.314212,0.133380,0.133380,0.000000,206.000000,193.000000,13.000000,13.000000,0.000000,0.000000:
0000
0000
0000
0000
,
0000
0000
0000
0000
,
0000
0000
0000
0000
,
0000
0000
0000
0000
,
0000
0000
0000
0000
,
0010
0010
0001
0001
,
0100
0100
1000
1000
,
0010
0000
0100
0000
,
0010
0100
1001
0000
,
2000
0000
0001
3001
,
0020
0000
0100
0130
,
0002
0000
1000
1003
,
0200
0000
0010
0310
,
1000
0001
0010
0010
,
0100
0001
0100
1000
,
0001
1000
0010
0010
,
0100
1000
0100
0001
,
0100
1000
0010
0001
,
0100
1000
0010
0001
,
2000
3000
1000
0000
,
0002
0003
0001
0000
,
0100
0001
0010
1000
,
0100
0001
0010
1000
,
0010
0000
0100
0000
,
0001
1000
0001
1000
0001
0000
0000
0000
,
1001
0000
0110
0000
,
0001
0100
1000
0100
,
0010
0100
0010
0100
,
1000
0100
0001
0000
,
1001
0000
0110
0000
,
1000
0100
0001
0100
,
1000
1000
0001
0001
,
0100
0002
0000
0003
,
0010
0010
0100
0100
,
0001
0001
1000
1000
,
0010
0100
0001
1000
,
0010
0100
0010
1001
,
0100
0100
0010
0010
,
1000
0001
1000
0001
,
0010
0000
0010
0000
,
0100
0010
0100
0010
,
1001
0000
0000
1001
,
0000
0110
0000
0010
,
0001
1000
0010
0100
,
0100
0001
0100
1000
,
0100
1001
0000
0110
,
0000
1001
0000
0010
,
1000
0001
0010
0100
,
0100
1000
0100
0001
,
0100
1001
0000
0002
,
1003
0020
0130
1000
,
0010
1000
0100
0001
,
0010
1000
0100
0001
,
0100
1000
0000
2000
,
3001
0020
0130
0001
,
0010
0001
0100
1000
,
0010
0001
0100
1000
,
0020
0000
0030
0100
,
0100
0001
1000
0100
,
0100
1000
0001
1000
,
0001
0000
0001
0100
1000
0000
0200
0000
,
0000
0300
0000
0000
,
0000
0000
0000
0000
;

//---------------dance-single - ----------------
#NOTES:
     dance-single:
     :
     Hard:
     10:
     0.505671,0.565582,0.297540,0.102600,0.112860,345.000000,316.000000,29.000000,10.000000,0.000000,0.000000,0.505671,0.565582,0.297540,0.102600,0.112860,345.000000,316.000000,29.000000,10.000000,0.000000,0.000000:
0000
0000
0000
0000
,
0000
0000
0000
0000
,
0000
0000
0000
0000
,
0000
0000
0000
0000
,
0000
0000
0000
0000
,
0001
0100
0100
0000
1000
0100
0100
0000
,
0001
0010
0001
0000
1000
0010
1000
0000
,
0010
0100
0010
0000
1000
0001
1000
0000
,
0010
0100
0001
0100
0010
1000
0100
0000
,
1000
0000
0000
1000
0000
0000
1000
0000
0000
0100
0000
0000
0100
0000
0000
0000
,
0010
0000
0000
0010
0000
0000
0010
0000
0000
0100
0000
0000
0100
0000
0100
0000
,
0001
0000
0000
0001
0000
0000
0001
0000
0000
0010
0000
0000
0010
0000
0000
0000
,
0100
0000
0000
0100
0000
0000
0100
0000
0000
0010
0000
0000
0010
0000
0010
0000
,
1000
0000
0000
0010
0000
0000
0100
0000
0000
0001
0000
0000
0010
0000
0000
0000
,
0001
0000
0000
0010
0000
0000
0100
0000
0000
1000
0000
0000
0010
0000
0010
0000
,
1000
0000
0000
0100
0000
0000
0010
0000
0000
0001
0000
0000
0100
0000
0000
0000
,
0001
0000
0000
0100
0000
0000
0010
0000
0000
1000
0000
0000
0100
0000
0100
0000
,
1000
0001
1000
0010
0100
0010
0100
0001
,
0100
0010
0100
0001
1000
0010
1000
0000
,
0001
1000
0001
0010
0100
0010
0100
1000
,
0100
0010
0100
1000
0001
0010
0001
0000
,
0100
0010
0100
0001
1000
0010
1000
0001
,
0010
0001
0010
0100
1000
0010
1000
0001
,
0100
0010
0100
0001
1000
0010
0100
0010
,
1000
0001
1000
0001
1001
0000
0000
0000
,
0101
0010
1100
0010
,
0000
1001
0000
0101
0000
1100
0000
0000
,
0010
0001
0100
0000
0010
1000
0100
0000
,
0100
0001
0100
1000
1100
0000
0000
0000
,
1100
0010
0101
0010
,
0000
1001
0000
0011
0000
1010
0000
0000
,
0001
0100
1000
0100
0001
1000
0001
1000
,
0002
0200
0000
0303
,
1000
0100
1000
0000
0001
0100
0001
0000
,
0010
0001
0010
0000
0010
1000
0010
0000
,
0001
0010
0001
0000
1000
0010
1000
0000
,
0100
1000
0100
0000
0100
0001
0100
0000
,
1000
0010
1000
0001
0100
0010
1000
0010
,
0001
0100
0001
1000
0010
0100
0001
0000
,
1000
0100
0010
0001
0010
0100
1000
0100
,
0001
0010
0100
1000
0100
0010
0001
1000
,
1001
0000
0000
1001
,
0010
0000
1001
0000
0100
0000
0000
0011
,
0000
1010
0000
1001
0000
0000
0001
0100
,
0001
0000
1000
0100
1000
0000
0010
1000
,
0001
0010
0100
0000
0000
0000
0110
0000
,
0001
0000
0110
0000
1000
0000
0000
1010
,
0000
0011
0000
0110
0000
0000
0010
0100
,
0010
0000
0001
1000
0001
0000
0100
0010
,
1000
0001
1000
0001
0100
0000
0002
1000
,
1003
0000
0020
0100
0130
0000
0000
1010
,
0000
1001
0000
0101
0000
0000
0001
0010
,
0100
1000
0010
0100
0010
1000
0100
0001
,
0100
1000
0010
0000
0000
0000
2000
0001
,
3001
0000
0020
0100
0130
0000
0000
1001
,
0000
0110
0000
1001
0000
0000
1000
0001
,
0100
0001
1000
0100
0010
0000
0002
0000
,
2000
0000
0000
0000
0000
0000
0000
0000
3003
0000
0000
0000
1000
0000
0000
0001
,
0000
0000
0100
0000
0000
0010
0000
0000
1000
0000
0001
0000
1000
0000
0000
0100
,
0000
0000
1000
0000
0000
0010
0000
0000
1000
0000
0001
0000
1000
0000
0000
0010
,
0000
0000
0100
0000
0000
0001
0000
0000
0010
0000
0200
0000
2000
0000
0000
0000
,
0000
3300
0000
0000
,
0000
0000
0000
0000
;

//---------------dance-double - ----------------
#NOTES:
     dance-double:
     :
     Easy:
     3:
     0.197871,0.251370,0.051300,0.071820,0.000000,135.000000,130.000000,5.000000,7.000000,0.000000,0.000000,0.197871,0.251370,0.051300,0.071820,0.000000,135.000000,130.000000,5.000000,7.000000,0.000000,0.000000:
00000000
00000000
00000000
00000000
,
00000000
00000000
00000000
00000000
,
00000000
00000000
00000000
00000000
,
00000000
00000000
00000000
00000000
,
00000000
00000000
00000000
00000000
,
00010000
00000000
00000000
00000000
,
00001000
00000000
00000000
00000000
,
00000010
00000000
00000100
00000000
,
00001000
00000000
00000001
00000000
,
00000010
00000000
00001000
00000000
,
00010000
00000000
00011000
00000000
,
00100000
00000000
00010000
00000000
,
10000000
00000000
01000000
00000000
,
00100000
00100000
10000000
00000000
,
01000000
01000000
00010000
00000000
,
00001000
00010000
00001000
00000000
,
00000010
00000010
00001000
00000000
,
00000001
00000001
00001000
00001000
,
00000100
00000000
00010000
00000000
,
00001000
00001000
00100000
00100000
,
00010000
00000000
10000000
00000000
,
10000000
10000000
00010000
00010000
,
01000000
00000000
00001000
00000000
,
00010000
00000000
00001000
00000000
,
00022000
00000000
00033000
00000000
,
00000010
00000000
00000010
00000000
,
00001000
00000001
00000001
00000000
,
00001000
00000000
00000100
00000000
,
00010000
00010000
00001000
00000000
,
00100000
00000000
00100000
00000000
,
00010000
10000000
10000000
00000000
,
00010000
00000000
01000000
00000000
,
00002000
00020000
00033000
00000000
,
00000100
00000000
00000100
00000000
,
00000001
00000000
00000001
00000000
,
00000010
00000000
00000010
00000000
,
00010000
00000000
00001000
00000000
,
01000000
00000000
01000000
00000000
,
10000000
00000000
10000000
00000000
,
00100000
00000000
00100000
00000000
,
00001000
00000000
00010000
00000000
,
00000000
00000000
00000000
00000100
,
00000000
00000010
00000000
00000001
,
00000001
00001000
00000000
00000100
,
00000000
00000100
00000000
00010000
,
00001000
00011000
00000000
01000000
,
00000000
00100000
00000000
10000000
,
10000000
00010000
00000000
01000000
,
00000000
01000000
00000000
00001000
,
00010000
00011000
00000000
00000010
,
00000010
00000100
00000000
00000001
,
00001000
00000001
00000000
00000010
,
00000000
00000100
00000000
00010000
,
00001000
00011000
00000000
00100000
,
00100000
01000000
00000000
10000000
,
00010000
10000000
00000000
00100000
,
00000000
00001000
00000000
00020000
,
00002000
00033000
00000000
00000100
,
00000000
00000100
00000000
00010000
,
00000000
00001000
00000000
00100000
,
00000000
00100000
00000000
02000000
,
00000000
03000000
00000000
00000000
,
00000000
00000000
00000000
00000000
;

//---------------dance-double - ----------------
#NOTES:
     dance-double:
     :
     Medium:
     6:
     0.312197,0.314212,0.164160,0.133380,0.000000,213.000000,197.000000,16.000000,13.000000,0.000000,0.000000,0.312197,0.314212,0.164160,0.133380,0.000000,213.000000,197.000000,16.000000,13.000000,0.000000,0.000000:
00000000
00000000
00000000
00000000
,
00000000
00000000
00000000
00000000
,
00000000
00000000
00000000
00000000
,
00000000
00000000
00000000
00000000
,
00000000
00000000
00000000
00000000
,
00100000
00100000
10000000
10000000
,
01000000
01000000
00010000
00010000
,
00001000
00001000
00000010
00000010
,
00000001
00000001
00000100
00000100
,
00002000
00000000
00010000
00013000
,
00200000
00000000
01000000
01300000
,
20000000
00000000
00010000
30010000
,
00200000
00000000
00010000
00310000
,
00001000
00010000
01000000
00010000
,
00001000
00010000
00000100
00001000
,
00010000
00001000
00000010
00001000
,
00010000
00001000
00100000
00010000
,
00100000
10000000
00100000
10000000
,
00010000
01000000
00010000
01000000
,
00010000
00000000
00011000
00000000
,
00000010
00000000
00001001
00000000
,
00000010
00000001
00000010
00000001
,
00001000
00000100
00001000
00000100
,
00020000
00000000
00002000
00033000
,
00010000
00001000
00010000
00001000
00010000
00000000
00000000
00000000
,
01100000
00000000
10010000
00000000
,
10000000
00010000
00001000
00000001
,
00000110
00000000
00001001
00000000
,
00000001
00001000
00010000
10000000
,
01100000
00000000
10010000
00000000
,
10000000
01000000
00010000
00001000
,
00000010
00000001
00001000
00000001
,
00001000
00000200
00000000
00000300
,
00010000
00010000
00001000
00001000
,
00100000
00100000
01000000
01000000
,
10000000
10000000
00010000
00010000
,
00100000
00100000
00010000
00011000
,
00000100
00000100
00000010
00000010
,
00000001
00000001
00001000
00001000
,
00000010
00000010
00000100
00000100
,
00001000
00010000
01000000
10000000
,
10010000
00000000
00000000
10010000
,
00000000
01100000
00000000
01000000
,
00010000
00001000
00000010
00001001
,
00000000
00000110
00000000
00000100
,
00001000
00010000
00100000
01100000
,
00000000
10010000
00000000
00100000
,
00010000
00001000
00000001
00000010
,
00001000
00010000
10000000
00100000
,
10000000
01000000
00010000
00002000
,
00013000
00000020
00000130
00001000
,
00000001
00000100
00001000
00000100
,
00000010
00001000
00000010
00010000
,
00000100
00001000
00000100
00020000
,
00031000
00200000
01300000
00010000
,
10000000
01000000
00010000
01000000
,
00100000
10000000
01000000
00010000
,
00002000
00000000
00003000
00000100
,
00000100
00000001
00001000
00000010
,
00000010
00000100
00001000
00010000
,
00010000
00100000
10000000
02000000
,
00000000
03000000
00000000
00000000
,
00000000
00000000
00000000
00000000
;

//---------------dance-double - ----------------
#NOTES:
     dance-double:
     :
     Hard:
     11:
     0.471959,0.565582,0.318060,0.174420,0.112860,322.000000,291.000000,31.000000,17.000000,0.000000,0.000000,0.471959,0.565582,0.318060,0.174420,0.112860,322.000000,291.000000,31.000000,17.000000,0.000000,0.000000:
00000000
00000000
00000000
00000000
,
00000000
00000000
00000000
00000000
,
00000000
00000000
00000000
00000000
,
00000000
00000000
00000000
00000000
,
00000000
00000000
00000000
00000000
,
10000000
01000000
01000000
00000000
00100000
00010000
00010000
00000000
,
00001000
00010000
00010000
00000000
00000100
00000010
00000010
00000000
,
00000001
00000100
00000001
00000000
00000100
00000010
00000100
00000000
,
00001000
00010000
01000000
10000000
01000000
00100000
00010000
00000000
,
10000000
00000000
00000000
10000000
00000000
00000000
10000000
00000000
00000000
00010000
00000000
00000000
00010000
00000000
00000000
00000000
,
00100000
00000000
00000000
00100000
00000000
00000000
00100000
00000000
00000000
01000000
00000000
00000000
01000000
00000000
00000000
00000000
,
00010000
00000000
00000000
00010000
00000000
00000000
00010000
00000000
00000000
00001000
00000000
00000000
00001000
00000000
00000000
00000000
,
00000100
00000000
00000000
00000100
00000000
00000000
00000100
00000000
00000000
00000001
00000000
00000000
00000001
00000000
00000000
00000000
,
00001000
00000000
00000000
00000001
00000000
00000000
00001000
00000000
00000000
00000010
00000000
00000000
00000100
00000000
00000000
00000000
,
00000001
00000000
00000000
00000100
00000000
00000000
00001000
00000000
00000000
00010000
00000000
00000000
00100000
00000000
00000000
00000000
,
10000000
00000000
00000000
01000000
00000000
00000000
00010000
00000000
00000000
01000000
00000000
00000000
00100000
00000000
00000000
00000000
,
00010000
00000000
00000000
01000000
00000000
00000000
00001000
00000000
00000000
00100000
00000000
00000000
00011000
00000000
00000000
00000000
,
00000010
00000100
00000001
00001000
00000001
00001000
00000010
00000100
,
00001000
00010000
00001000
00100000
00001000
01000000
00010000
00000000
,
20000000
00000000
00000000
00100000
30100000
00000000
00000000
00010000
,
02000000
00000000
00000000
00010000
03010000
00000000
00000000
00000000
,
00100000
01000000
10000000
00010000
10000000
00010000
00100000
01000000
,
00010000
00001000
00010000
00000010
00010000
00000100
00001000
00000001
,
00000100
00000010
00000100
00000001
00001000
00000010
00010000
00001000
,
00010000
00001000
00010000
00001000
00011000
00000000
00000000
00000000
,
00110000
00010000
11000000
10000000
,
00000000
01010000
00000000
00011000
00000000
00001100
00000000
00000000
,
00000010
00000001
00000010
00000000
00000100
00001000
00000100
00000000
,
00000010
00001000
00000100
00010000
00000100
00000000
00000000
00000000
,
00001010
00001000
00000101
00000001
,
00000000
00001010
00000000
00011000
00000000
00110000
00000000
00000000
,
10000000
01000000
00100000
01000000
10000000
00010000
01000000
00010000
,
00000000
00022000
00000000
00033000
,
00010000
00001000
00000010
00000000
00000001
00001000
00000001
00000000
,
00000100
00000001
00000100
00000000
00001000
00010000
00100000
00000000
,
10000000
00010000
10000000
00000000
00100000
10000000
01000000
00000000
,
00010000
01000000
10000000
00000000
01000000
00010000
00001000
00000000
,
00000010
00000001
00000010
00000001
00001000
00000100
00001000
00000100
,
00000010
00000001
00000100
00001000
00010000
01000000
10000000
00000000
,
00200000
00300000
02000000
03000000
,
10000000
00100000
01000000
00010000
01000000
00010000
00100000
00001000
,
00011000
00000000
00000000
00001001
,
00000010
00000000
00001001
00000000
00000100
00000000
00000000
00001010
,
00000000
00011000
00000000
01010000
00000000
00000000
10000000
01000000
,
10000000
00000000
00010000
00100000
00010000
00000000
10000000
01000000
,
00100000
00010000
01000000
00000000
00000000
00000000
10010000
00000000
,
00100000
00000000
10010000
00000000
01000000
00000000
00000000
00110000
,
00000000
00011000
00000000
00001100
00000000
00000000
00000001
00000100
,
00000001
00000000
00001000
00000010
00001000
00000000
00000001
00000000
,
00000200
00000000
00002300
00000000
00023000
00000000
00230000
01000000
,
01300000
00000000
20000000
00010000
30010000
00000000
00000000
01100000
,
00000000
00011000
00000000
00000110
00000000
00000000
00000010
00000100
,
00000010
00000000
00000001
00001000
00000001
00000000
00000100
00001000
,
00010000
00001000
00000100
00000000
00000000
00000000
00000020
00000100
,
00000130
00000000
00000002
00001000
00001003
00000000
00000000
00000110
,
00000000
00011000
00000000
01100000
00000000
00000000
10000000
00100000
,
10000000
00010000
01000000
00100000
01000000
00000000
00000000
00000000
,
00022000
00000000
00000000
00000000
00000000
00000000
00000000
00000000
00033000
00000000
00000000
00000000
00000010
00000000
00000000
00000100
,
00000000
00000000
00000001
00000000
00000000
00000010
00000000
00000000
00000001
00000000
00000100
00000000
00001000
00000000
00000000
00010000
,
00000000
00000000
00100000
00000000
00000000
10000000
00000000
00000000
00100000
00000000
01000000
00000000
00010000
00000000
00000000
10000000
,
00000000
00000000
01000000
00000000
00000000
00010000
00000000
00000000
00001000
00000000
00020000
00000000
02000000
00000000
00000000
00000000
,
00000000
03030000
00000000
00000000
,
00000000
00000000
00000000
00000000
;

//---------------dance-single - ----------------
#NOTES:
     dance-single:
     :
     Challenge:
     13:
     0.718199,0.816951,0.543779,0.297540,0.343710,490.000000,437.000000,53.000000,29.000000,0.000000,0.000000,0.718199,0.816951,0.543779,0.297540,0.343710,490.000000,437.000000,53.000000,29.000000,0.000000,0.000000:
0000
0000
0000
0000
,
0000
0000
0000
0000
,
0000
0000
0000
0000
,
0000
0000
0000
0000
,
0000
0000
0000
0000
,
1000
0100
0010
0001
1000
0001
0100
0010
,
1000
0010
0100
0001
0010
0001
1000
0001
,
0100
0010
0100
0001
0010
0100
1000
0001
,
1000
0100
1000
0000
0001
0000
0010
0001
0010
0000
0100
0000
1000
0001
1000
0000
,
1001
0000
0000
0011
0000
0000
0110
0000
0000
2100
0000
0000
0002
0000
3000
0000
,
0010
0000
0000
1000
0000
0000
0203
0000
0000
0301
0000
0000
0100
0000
0010
0000
,
1010
0000
0000
0110
0000
0000
0101
0000
0000
2010
0000
0000
3001
0000
0000
0000
,
0100
0000
0000
2000
0000
0000
0001
0000
0000
0100
0000
0000
3001
0000
0100
0000
,
0101
0000
0000
1100
0000
0000
0101
0000
0000
0110
0000
0000
1000
0000
0010
0000
,
0200
0000
0000
0001
0000
0000
1000
0000
0000
0301
0000
0000
0010
0000
0200
0000
,
1000
0000
0000
0001
0000
0000
1300
0000
0000
0010
0000
0000
0100
0000
0002
0000
,
0010
0000
0000
0100
0000
0000
0013
0000
0000
1000
0000
0000
0100
0000
1000
0000
,
0010
0100
0001
0010
1000
0100
1000
0010
,
0001
0100
0001
1000
0010
1000
0001
0100
,
1000
0001
0100
0010
1000
0100
0001
0020
,
0001
0001
0031
1100
0000
0100
0001
0010
,
1000
0100
1000
0001
0100
0010
1000
0010
,
0001
0100
1000
0100
0001
0010
0100
1000
,
0010
0001
0100
1000
0001
0010
0100
1000
,
1100
0000
1100
0000
0101
0000
0101
0000
1001
0000
0100
0010
1000
0000
0001
0000
,
1001
0000
0100
0000
0010
0001
0000
0001
0100
0000
0010
0000
1000
0100
0000
0100
,
1000
0020
0031
0020
0130
0020
1030
0010
,
1000
0100
0010
0001
1000
0100
0010
0001
,
0100
0001
1000
0010
0100
0001
0110
0110
,
1010
0000
1000
0000
0010
1000
0000
1000
0010
0000
0100
0000
0001
0010
0000
0010
,
0001
0200
1300
0200
0310
0200
0301
0100
,
0010
1000
0010
0000
0100
0000
0001
0010
0001
0000
1000
0000
0010
0100
0001
1000
,
0001
0000
0012
0000
1000
0000
0103
0001
,
0100
0000
0010
0000
1000
0000
0100
1000
0000
0100
0000
1000
0100
0000
0010
0000
,
0001
0000
0100
0000
0001
0000
0100
0001
0000
0100
0000
0001
1000
0000
1010
0000
,
0110
0000
0000
1001
0000
0000
0011
0000
0000
0101
0000
0000
1100
0000
0000
0000
,
0000
0000
0000
1010
0000
0000
0011
0000
1001
0000
0000
0000
0100
0000
0001
0000
,
0010
0000
0001
0000
1000
0000
0010
0000
1000
0000
0001
0100
0010
0000
0000
0000
,
0001
1000
0100
0010
0001
1000
0001
0100
,
0010
0010
0010
1000
0001
0001
0001
0001
,
1000
0100
0000
0010
0001
0000
1000
0100
0000
0010
0100
0000
1000
0010
0100
0000
,
1100
0000
0101
0000
1100
0000
0101
0100
,
0010
1000
0000
1000
0100
0000
0010
0000
0001
0100
0000
0100
0001
0000
0020
0000
,
1030
0020
0130
0020
0031
0010
0001
0100
,
0010
1000
0001
0100
0010
1000
0100
1000
,
0001
0010
0100
1000
0110
0110
0011
0001
,
0010
0001
0000
0001
0010
0000
0100
0000
1000
0010
0000
0010
1000
0000
0200
0000
,
0301
0200
0310
0200
1300
0010
0100
0010
,
1000
0100
0010
0001
0100
0010
0100
0001
,
1000
0001
0100
0010
0100
0010
1000
0001
,
0010
0100
1000
0001
0100
0010
1000
1010
,
0010
0110
0100
0101
0001
1000
0100
0010
,
0001
1000
0001
0100
1000
0100
0010
1000
,
0001
0100
0010
1000
1100
0011
2001
0100
,
3100
0010
0002
0010
0013
0100
1000
0002
,
0103
0000
0002
0000
1003
0000
0002
0000
0013
0000
0100
0000
1000
0001
0010
0000
,
0100
0000
1000
0001
0100
0000
0010
0000
1000
0001
0100
0010
0000
0000
0000
0000
,
0011
0000
0000
0000
1010
0000
0000
0000
0001
0000
1000
0000
0011
0000
0000
0101
,
0000
0000
1010
0000
0000
0001
0000
0000
0100
0000
0001
0000
1010
0000
0000
1100
,
0000
0000
0011
0000
0000
0001
0000
0000
1000
0000
0100
0000
0010
0001
0100
0000
,
0100
0000
0010
1000
0100
0000
0100
0000
0010
0001
0100
0002
0200
0000
0000
0000
,
0000
0303
0000
0000
;

//---------------dance-double - ----------------
#NOTES:
     dance-double:
     :
     Challenge:
     13:
     0.700611,0.747953,0.420659,0.184680,0.353970,478.000000,437.000000,41.000000,18.000000,0.000000,0.000000,0.700611,0.747953,0.420659,0.184680,0.353970,478.000000,437.000000,41.000000,18.000000,0.000000,0.000000:
// measure 0
00000000
00000000
00000000
00000000
,  // measure 1
00000000
00000000
00000000
00000000
,  // measure 2
00000000
00000000
00000000
00000000
,  // measure 3
00000000
00000000
00000000
00000000
,  // measure 4
00000000
00000000
00000000
00000000
,  // measure 5
00001000
01000000
01000000
00000000
00010000
00000100
00000100
00000000
,  // measure 6
00001000
00000010
00001000
00000001
00000100
00001000
00010000
00001000
,  // measure 7
00010000
00000010
00000010
00000000
00001000
00100000
00100000
00000000
,  // measure 8
00010000
01000000
00010000
10000000
01000000
00010000
00001000
00010000
,  // measure 9
00011000
00000000
00000000
00010100
00000000
00000000
00001100
00000000
00000000
00000110
00000000
00000000
00000001
00000000
00000000
00000000
,  // measure 10
00001000
00000000
00000000
00000010
00000000
00000000
00000100
00000000
00000000
00001000
00000000
00000000
00010000
00000000
00001000
00000000
,  // measure 11
00011000
00000000
00000000
00101000
00000000
00000000
00110000
00000000
00000000
01100000
00000000
00000000
10000000
00000000
00100000
00000000
,  // measure 12
01000000
00000000
00000000
00010000
00000000
00000000
10000000
00000000
00000000
01000000
00000000
00000000
00010000
00000000
00001000
00000000
,  // measure 13
00011000
00000000
00000000
00010010
00000000
00000000
00001010
00000000
00000000
00000110
00000000
00000000
00000001
00000000
00000010
00000000
,  // measure 14
00000100
00000000
00000000
00001000
00000000
00000000
00000001
00000000
00000000
00000010
00000000
00000000
00000100
00000000
00001000
00000000
,  // measure 15
00000001
00000000
00000000
00000100
00000000
00000000
00001000
00000000
00000000
00010000
00000000
00000000
00100000
00000000
10000000
00000000
,  // measure 16
00100000
00000000
00000000
00010000
00000000
00000000
00001000
00000000
00000000
00010000
00000000
00000000
01000000
00000000
10000000
00000000
,  // measure 17
00100000
10000000
00010000
10000000
00100000
01000000
00010000
01000000
,  // measure 18
00100000
10000000
01000000
00100000
01000000
00100000
00010000
01000000
,  // measure 19
00100000
10000000
00100000
01000000
00010000
10000000
00010000
00100000
,  // measure 20
00110000
00000000
00000000
00011000
00000000
00000010
00001000
00000100
,  // measure 21
00000010
00000001
00000001
00000010
00000100
00001000
00001000
00000010
,  // measure 22
00000100
00000001
00000001
00000100
00000010
00001000
00001000
00000100
,  // measure 23
00000010
00000001
00000100
00001000
00010000
00100000
10000000
00100000
,  // measure 24
10100000
00000000
10000000
00000000
10010000
00000000
00010000
00000000
01010000
00000000
10000000
01000000
00100000
00000000
00010000
00000000
,  // measure 25
10010000
00000000
01000000
00000000
00100000
00010000
00000000
00010000
01000000
00000000
00001000
00000000
00010000
00001000
00000000
00001000
,  // measure 26
00010000
00000020
00010030
00002000
00013000
00000200
00010300
00001000
,  // measure 27
00000100
00000010
00000100
00000001
00001000
00000100
00010000
00001000
,  // measure 28
00100000
00010000
01000000
00100000
10000000
00010000
01010000
01001000
,  // measure 29
00011000
00000000
00001000
00000000
00000010
00000001
00000000
00000001
00000100
00000000
00000010
00000000
00001000
00000100
00000000
00000100
,  // measure 30
00001000
00000200
00010300
00002000
00103000
00002000
01003000
00000000
,  // measure 31
00100000
10000000
00100000
00000000
01000000
00000000
00010000
00100000
00010000
00000000
10000000
00000000
00100000
01000000
00010000
10000000
,  // measure 32
00010000
00000000
00021000
00000000
00000010
00000000
00030100
00001000
,  // measure 33
00000100
00000000
00000010
00000000
00000100
00000000
00000010
00000001
00000000
00000010
00000000
00000001
00000100
00000000
00001000
00000000
,  // measure 34
00010000
00000000
01000000
00000000
10000000
00000000
00100000
10000000
00000000
00100000
00000000
10000000
01000000
00000000
00010000
00000000
,  // measure 35
00001000
00000000
00100000
00000000
00010000
00000000
01000000
00000000
00010000
00000000
10000000
01000000
00000000
00000000
00000000
00000000
,  // measure 36
00010000
01000000
00010000
01000000
00000000
00000000
00001000
00000000
00010000
00001000
00000000
00010000
00001000
00000000
00000000
00000000
,  // measure 37
00000010
00000000
00001000
00000000
00000001
00000000
00000100
00000000
00000001
00000000
00000010
00000001
00000100
00000000
00000000
00000000
,  // measure 38
00001000
00010000
00001000
00100000
00010000
10000000
00010000
01000000
,  // measure 39
00100000
00000000
10000000
00000000
01000000
00000000
00100000
00000000
01000000
00100000
01000000
00100000
01000000
00100000
01000000
00000000
,  // measure 40
00010000
00001000
00000000
00000010
00000001
00000000
00000100
00001000
00000000
00010000
00100000
00000000
10000000
01000000
00010000
00000000
,  // measure 41
00011000
00000000
00001001
00000000
00011000
00000000
10010000
01000000
,  // measure 42
00100000
00010000
00000000
00010000
01000000
00000000
00001000
00000000
00010000
00001000
00000000
00001000
00010000
00000000
00000020
00000000
,  // measure 43
00010030
00002000
00013000
00000200
00010300
00001000
00000100
00000010
,  // measure 44
00000100
00000001
00001000
00000100
00010000
00001000
00100000
00010000
,  // measure 45
01000000
00100000
10000000
00010000
01010000
01001000
00011000
00001000
,  // measure 46
00000010
00000001
00000000
00000001
00000010
00000000
00000100
00000000
00001000
00000100
00000000
00000100
00001000
00000000
00000200
00000000
,  // measure 47
00010300
00002000
00103000
00020000
01030000
00100000
00100000
00010000
,  // measure 48
00001000
00000100
00000001
00000100
00001000
00010000
01000000
00100000
,  // measure 49
00010000
10000000
00010000
10000000
01000000
10000000
00020000
10000000
,  // measure 50
10030000
01000000
00020000
00001000
00031000
00010000
00000010
00001010
,  // measure 51
00000010
00000110
00000100
00000101
00000001
00001000
00000100
00010000
,  // measure 52
00000010
00001000
00000100
00010000
01000000
10000000
00100000
01000000
,  // measure 53
00010000
10000000
00100000
10000000
01010000
10100000
20010000
01000000
,  // measure 54
31000000
00100000
00002000
00010000
00013000
00001000
00000200
00000010
,  // measure 55
00000310
00000000
00001000
00000000
00000001
00000000
00000100
00000000
00001000
00000000
00010000
00000000
00001000
00100000
00010000
00000000
,  // measure 56
10000000
00000000
00100000
10000000
01000000
00000000
00100000
00000000
00010000
01000000
00100000
10000000
00000000
00000000
00000000
00000000
,  // measure 57
00010000
00000000
00000000
00000000
00001000
00000000
00000000
00000000
00000001
00000000
00001000
00000000
00000101
00000000
00000000
00001100
,  // measure 58
00000000
00000000
00001010
00000000
00000000
00000001
00000000
00000000
00000100
00000000
00001000
00000000
00011000
00000000
00000000
00101000
,  // measure 59
00000000
00000000
00110000
00000000
00000000
00010000
00000000
00000000
10000000
00000000
00010000
00000000
00100000
00010000
01000000
00000000
,  // measure 60
00001000
00000000
00010000
00000010
00001000
00000000
00000001
00000000
00000100
00000010
00001000
00000010
00001000
00000000
00000000
00000000
;
