#TITLE:Kiss Kiss;
#SUBTITLE:;
#ARTIST:Holly Valance;
#TITLETRANSLIT:;
#SUBTITLETRANSLIT:;
#ARTISTTRANSLIT:;
#GENRE:;
#CREDIT:;
#BANNER:Kiss Kiss-bn.png;
#BACKGROUND:Kiss Kiss-bg.png;
#LYRICSPATH:;
#CDTITLE:;
#MUSIC:Kiss Kiss.ogg;
#OFFSET:1.777778;
#SAMPLESTART:42.749001;
#SAMPLELENGTH:20.000000;
#LASTBEATHINT:1.257667;
#SELECTABLE:YES;
#DISPLAYBPM:97.000000;
#BPMS:0.000000=97.019997
;
#STOPS:
;
#BGCHANGES:;
#KEYSOUNDS:;
#ATTACKS:;

//---------------dance-single - ----------------
#NOTES:
     dance-single:
     :
     Hard:
     14:
     0.661045,0.635051,0.490776,0.008764,0.753692,528.000000,472.000000,56.000000,1.000000,0.000000,0.000000,0.661045,0.635051,0.490776,0.008764,0.753692,528.000000,472.000000,56.000000,1.000000,0.000000,0.000000:
0000
0000
0000
0000
,
0000
0000
0000
0000
,
0000
0000
0000
0000
,
1000
0000
1100
0000
0000
1100
0000
0000
0000
0000
0000
0000
0000
0000
0000
0000
,
0001
0000
0101
0000
0000
0101
0000
0000
0000
0000
0000
0000
0000
0000
0000
0000
,
1000
0100
0001
0000
1000
0100
0001
0000
1000
0100
0010
0001
0100
0010
1000
0000
,
0001
0010
1000
0000
0001
0010
1000
0000
0001
0100
0010
1000
0100
0010
0001
0000
,
1001
0000
0110
0000
1000
0100
0001
0000
1000
0001
0010
0100
1000
0010
0100
0000
,
0010
0001
1000
0001
0100
0010
1000
0000
1001
0000
0000
0000
0000
0000
0000
0000
,
0101
0000
1100
0000
0001
1000
0100
0000
1000
0010
0100
0000
0001
0000
1000
0000
,
0010
1000
0100
0010
0100
0000
1000
0001
0100
0000
0110
0000
1001
0000
0000
0000
,
1010
0000
0011
0000
1000
0001
0010
0000
0001
0100
0010
0100
0001
1000
0100
0000
,
1000
0010
0100
0001
0010
0001
0100
0010
1000
0100
0001
0000
0011
0000
0000
0000
,
1100
0000
0000
0000
1100
0000
0000
0010
0001
0100
1000
0100
0001
0100
1000
0000
,
0101
0000
0101
1000
1100
0110
0011
0000
,
1010
0000
0000
0000
1010
0000
0000
0000
0001
0010
1000
0010
0001
0010
1000
0000
,
0011
0000
0000
0000
0011
0000
0000
1000
0001
0000
0000
0100
0010
0000
0000
1000
,
0001
0100
0001
0100
0010
1000
0010
1000
0100
0010
0001
0100
0010
1000
0001
0000
,
1001
0000
0100
0001
1000
0000
0100
1000
0010
0001
0010
0100
0010
0000
1010
0000
,
0101
0000
0001
0010
0100
0000
1000
0010
0100
1000
0100
0010
0100
0001
0100
0000
,
0010
0001
0100
0000
0010
1000
0100
0000
0010
1000
0010
0100
0010
0000
0001
0100
,
0010
0001
0010
0100
0010
1000
0010
0000
0100
0000
1001
0000
0110
0000
0000
0000
,
1001
0000
1000
0001
0010
0000
0100
1000
0010
0001
0010
1000
0010
0100
0001
1000
,
0100
0000
1000
0010
0100
0000
0001
0010
1000
0010
0100
0010
0001
0100
0010
0000
,
1000
0001
0100
0001
1000
0000
0010
1000
0100
0001
0100
0010
0100
0000
1000
0001
,
0100
1000
0100
0010
0100
0001
0100
0000
0000
0000
1001
0000
0110
0000
0000
0000
,
0001
0100
1000
0000
0001
0100
1000
0000
0001
0010
0100
1000
0010
0100
0001
0000
,
1000
0010
0001
0000
1000
0010
0001
0000
0100
0001
0010
0100
1000
0010
0100
0000
,
0101
0000
1010
0000
0001
1000
0100
0000
0010
0001
0100
0010
1000
0100
0010
0000
,
0001
0100
1000
0001
0100
0010
1000
0000
1001
0000
0000
0000
0000
0000
0000
0000
,
0000
0000
0010
1000
0001
0000
0001
0000
0010
0100
1000
0010
0100
0000
0100
0000
,
0010
1000
0010
1000
0100
0010
0001
0100
0010
0000
1010
0000
1100
0000
0000
0000
,
0001
0100
1000
0100
0001
0000
0011
0000
1000
0010
0001
0000
1000
0010
0001
0000
,
1000
0100
0010
0001
0100
0010
1000
0000
1010
0000
1001
0000
0110
0000
0000
0000
,
1010
0000
0000
0000
1010
0000
0000
0000
1000
0001
0000
1000
0100
0000
0010
0000
,
0001
0100
0010
1000
1100
0101
1001
0000
,
0101
0000
0000
0000
0101
0000
0000
0000
0010
0001
0010
0100
0010
1000
0010
0000
,
0110
0000
0000
0001
0100
0000
0000
0010
1000
0000
0000
0100
1000
0000
0000
0001
,
0010
0100
0010
0100
1000
0001
1000
0001
0100
0010
1000
0100
0010
0001
1000
0000
,
1001
0000
0010
0001
1000
0000
0010
0100
0010
1000
0100
0010
0001
0000
0101
0000
,
1100
0000
0010
1000
0100
0000
1000
0001
0100
1000
0100
0001
0010
0000
0100
1000
,
0001
0000
1000
0001
0100
1000
0100
0000
0001
0010
0001
0100
1000
0000
0100
0010
,
0100
1000
0100
0010
0100
0001
0100
0000
0010
0000
1001
0000
0110
0000
0000
0000
,
1001
0000
0100
0001
0010
0000
0001
0100
0010
0001
0010
1000
0010
0000
0100
0001
,
0010
1000
0010
0100
0010
0001
1000
0001
0100
0010
0100
0001
1000
0000
0000
0000
,
0010
0100
0010
0001
0010
1000
0100
0001
0100
1000
0001
0100
0010
0000
1000
0001
,
0010
1000
0010
0100
0010
0001
0020
0000
0000
0000
0000
0000
0030
0000
0000
0000
;

//---------------dance-single - ----------------
#NOTES:
     dance-single:
     :
     Medium:
     11:
     0.513312,0.512138,0.473248,0.008764,0.262916,410.000000,356.000000,54.000000,1.000000,0.000000,0.000000,0.513312,0.512138,0.473248,0.008764,0.262916,410.000000,356.000000,54.000000,1.000000,0.000000,0.000000:
0000
0000
0000
0000
,
0000
0000
0000
0000
,
0000
0000
0000
0000
,
1000
0000
1001
0000
0000
1001
0000
0000
0000
0000
0000
0000
0000
0000
0000
0000
,
0001
0000
1001
0000
0000
1001
0000
0000
0000
0000
0000
0000
0000
0000
0000
0000
,
1000
0000
0010
0000
0100
0000
0001
0000
0010
0000
0100
0000
1000
0001
1000
0001
,
0100
0000
0010
0000
0100
0000
0001
0000
0010
0000
0100
0000
1000
0010
1000
0010
,
0100
0000
0101
0000
0001
0000
1100
0000
1000
0000
0010
0000
0100
0001
1000
0001
,
0100
0000
0010
0000
1000
0001
1000
0000
1001
0000
0000
0000
0000
0000
0000
0000
,
0001
0000
0001
0000
1000
0000
0010
0000
0100
0010
0100
0000
0001
0000
1000
0000
,
0100
0000
0010
0000
0001
1000
0001
0000
0110
0000
0110
0000
1001
0000
0000
0000
,
0010
0000
1000
0000
0001
0000
0010
0000
0001
0100
0001
0000
1000
0100
1000
0000
,
0010
0000
0100
0000
0001
0000
0010
0000
0100
1000
0100
0000
1100
0000
0000
0000
,
0011
0000
0011
0000
0001
0010
0100
1000
,
1010
0000
1010
0001
0100
0010
1000
0000
,
0101
0000
0101
0000
1000
0001
0010
0100
,
1100
1100
0101
1100
,
0001
0001
1000
1000
0010
0100
0010
1000
,
0001
0000
0100
0000
0010
0000
0100
0000
0001
1000
0001
1000
0001
0000
0110
0000
,
1001
0000
1000
0000
0100
0000
0010
0000
0001
0100
0001
0100
0001
0000
0000
0000
,
1000
0000
0010
0100
0010
0000
1000
0000
0001
0100
0001
0100
0001
0000
0010
0000
,
0100
0000
0100
0000
0100
1000
0001
0000
0000
0000
1100
0000
0101
0000
0000
0000
,
0010
0000
0001
0000
1000
0000
0010
0000
0100
0001
0100
0001
0100
0000
1001
0000
,
0101
0000
0001
0010
0001
0000
0100
0000
0010
1000
0010
1000
0010
0000
0000
0000
,
1000
0100
1000
0000
0001
0000
0100
0000
0010
0100
0010
0100
0010
0000
1000
0000
,
0001
0000
0001
0000
0001
1000
0010
0000
0000
0000
1010
0000
0011
0000
0000
0000
,
1000
0000
1000
0000
0001
0000
0001
0000
0010
0000
0100
0000
1000
0010
0100
0001
,
0010
0000
0010
0000
0100
0000
0100
0000
0010
0000
0001
0000
1000
0010
1000
0001
,
0100
0000
0110
0000
0010
0000
0110
0000
1000
0000
0001
0000
0010
0001
1000
0100
,
1000
0000
0010
0000
1000
0001
0100
0000
1001
0000
0000
0000
0000
0000
0000
0000
,
0000
0000
0010
0000
1000
0000
0001
0000
0010
0000
0100
1000
0001
0000
0100
0000
,
0010
0000
0100
0010
1000
0000
0001
0000
0011
0000
0011
0000
1001
0000
0000
0000
,
0100
0000
0010
0000
0100
0000
0001
0000
0010
0100
1000
0000
0010
1000
0001
0000
,
1000
0000
0010
0100
0010
0000
1000
0000
1100
0000
1100
0000
0110
0000
0000
0000
,
0011
0000
0011
0000
0001
1000
0010
0100
,
0010
0010
0100
0100
0110
1001
0110
0000
,
1010
0000
1010
0000
0100
0010
1000
0001
,
0101
0101
1100
1100
,
0010
0010
0100
0100
0001
0010
0001
1000
,
0010
0000
0010
0000
1000
0000
0001
0000
0100
0010
0100
0010
1000
0000
1100
0000
,
0011
0000
0001
0000
0100
0000
0010
0000
1000
0100
0010
0100
1000
0000
0000
0000
,
0001
0000
0010
0001
1000
0000
0100
0000
1000
0010
0100
0010
0100
0000
0001
0000
,
0010
0000
0010
0000
0010
0001
0100
0000
0000
0000
0110
0000
1001
0000
0000
0000
,
1000
0000
0001
0000
0010
0000
0100
0000
1000
0001
0100
0001
0010
0000
0100
0000
,
1000
0010
0100
0000
0001
0000
1000
0000
0100
1000
0001
1000
0010
0000
0000
0000
,
1000
0001
1000
0000
0010
0000
0100
0000
0001
0010
0100
1000
0010
0000
1001
0000
,
1000
0000
1000
0000
1000
0100
0020
0000
0000
0000
0000
0000
0030
0000
0000
0000
;

//---------------dance-single - ----------------
#NOTES:
     dance-single:
     :
     Easy:
     7:
     0.265420,0.284497,0.192805,0.000000,0.000000,212.000000,190.000000,22.000000,0.000000,0.000000,0.000000,0.265420,0.284497,0.192805,0.000000,0.000000,212.000000,190.000000,22.000000,0.000000,0.000000,0.000000:
0000
0000
0000
0000
,
0000
0000
0000
0000
,
0000
0000
0000
0000
,
1000
1000
0000
0000
0000
0000
0000
0000
,
0001
0001
0000
0000
0000
0000
0000
0000
,
0100
0010
1000
0001
,
0010
0100
0010
0001
,
0100
0010
1000
0001
,
1000
0010
1001
0000
,
0010
0010
1000
0001
,
0010
0100
1000
1000
,
0100
0010
0001
0100
,
0001
1000
0010
0100
,
0110
0110
0010
1000
,
1001
1001
0001
0100
,
0101
0101
0001
0010
,
1100
1100
0001
1000
,
0010
0100
0010
0100
0010
0000
0000
0000
,
1000
0000
0001
0000
0100
0100
0100
0000
,
0001
0000
0010
0000
1000
1000
1000
0000
,
0001
0000
0100
0000
0010
0010
0010
0000
,
1000
0001
1000
0001
0000
0110
0110
0000
,
0001
0000
0100
0000
0001
0001
0001
0000
,
0010
0000
0100
0000
0010
0010
0010
0000
,
0001
0000
0100
0000
1000
1000
1000
0000
,
0010
0100
0010
0100
0000
1001
1001
0000
,
0001
0001
0100
1000
,
0001
0100
1000
0010
,
1000
0001
0010
0100
,
1000
0010
1001
0000
,
0000
0001
1000
0000
0010
0000
0100
0000
,
0010
1000
0100
0100
,
0010
0010
0001
0100
,
0010
1000
0100
0001
,
0011
0011
0100
0010
,
1000
0001
0100
0010
,
1010
1010
0100
0010
,
1001
0110
1000
0001
,
0100
0010
0100
0010
0100
0000
0000
0000
,
0010
0000
1000
0000
0100
0100
0100
0000
,
1000
0000
0001
0000
0010
0010
0010
0000
,
0010
0000
0001
0000
1000
1000
1000
0000
,
0010
0100
0010
0100
0000
0110
0110
0000
,
0001
0000
0100
0000
1000
1000
1000
0000
,
0100
0000
0010
0000
0100
0100
0100
0000
,
1000
0000
0001
0000
0001
0001
0001
0000
,
0100
0010
0100
0010
0000
0000
0000
0000
;

//---------------dance-single - ----------------
#NOTES:
     dance-single:
     :
     Beginner:
     3:
     0.128954,0.141865,0.017528,0.000000,0.000000,103.000000,101.000000,2.000000,0.000000,0.000000,0.000000,0.128954,0.141865,0.017528,0.000000,0.000000,103.000000,101.000000,2.000000,0.000000,0.000000,0.000000:
// measure 0
0000
0000
0000
0000
,  // measure 1
0000
0000
0000
0000
,  // measure 2
0000
0000
0000
0000
,  // measure 3
1000
0000
0000
0000
,  // measure 4
0001
0000
0000
0000
,  // measure 5
0010
0010
0000
0000
,  // measure 6
0001
0001
0000
0000
,  // measure 7
1000
1000
0000
0000
,  // measure 8
0100
0000
1001
0000
,  // measure 9
0001
0000
1000
0000
,  // measure 10
0010
0000
0100
0000
,  // measure 11
0010
0000
1000
0000
,  // measure 12
0100
0000
0010
0000
,  // measure 13
0001
0001
0000
0000
,  // measure 14
1000
1000
0000
0000
,  // measure 15
0010
0010
0000
0000
,  // measure 16
0100
0100
0100
0000
,  // measure 17
0001
0000
1000
0000
,  // measure 18
0100
0100
0100
0000
,  // measure 19
1000
1000
1000
0000
,  // measure 20
0010
0010
0010
0000
,  // measure 21
0001
0001
0000
0000
,  // measure 22
0010
0010
0010
0000
,  // measure 23
0001
0001
0001
0000
,  // measure 24
0100
0100
0100
0000
,  // measure 25
1000
1000
0000
0000
,  // measure 26
0010
0010
0000
0000
,  // measure 27
0100
0100
0000
0000
,  // measure 28
0001
0001
0000
0000
,  // measure 29
1000
0000
1001
0000
,  // measure 30
0000
0010
0010
0000
,  // measure 31
1000
0000
0001
0000
,  // measure 32
0010
0000
0100
0000
,  // measure 33
1000
0000
0100
0000
,  // measure 34
1000
1000
0000
0000
,  // measure 35
0010
0010
0010
0000
,  // measure 36
0100
0100
0000
0000
,  // measure 37
0001
0001
0001
0000
,  // measure 38
0100
0000
0010
0000
,  // measure 39
0100
0100
0100
0000
,  // measure 40
1000
1000
1000
0000
,  // measure 41
0001
0001
0001
0000
,  // measure 42
0100
0100
0000
0000
,  // measure 43
0010
0010
0010
0000
,  // measure 44
1000
1000
1000
0000
,  // measure 45
0001
0001
0001
0000
,  // measure 46
0010
0010
0000
0000
;
