#VERSION:0.83;
#TITLE:Kind Lady;
#SUBTITLE:;
#ARTIST:OKUYATOS;
#TITLETRANSLIT:;
#SUBTITLETRANSLIT:;
#ARTISTTRANSLIT:;
#GENRE:;
#ORIGIN:;
#CREDIT:;
#BANNER:Kind Lady-bn.png;
#BACKGROUND:Kind Lady-bg.png;
#PREVIEWVID:;
#JACKET:Kind Lady-jacket.png;
#CDIMAGE:;
#DISCIMAGE:;
#LYRICSPATH:;
#CDTITLE:;
#MUSIC:Kind Lady.ogg;
#OFFSET:0.000000;
#SAMPLESTART:44.444000;
#SAMPLELENGTH:20.000000;
#SELECTABLE:YES;
#DISPLAYBPM:135.000000;
#BPMS:0.000=135.000;
#STOPS:;
#DELAYS:;
#WARPS:;
#TIMESIGNATURES:0.000=4=4;
#TICKCOUNTS:0.000=4;
#COMBOS:0.000=1;
#SPEEDS:0.000=1.000=0.000=0;
#SCROLLS:0.000=1.000;
#FAKES:;
#LABELS:0.000=Song Start;
#BGCHANGES:;
#KEYSOUNDS:;
#ATTACKS:
;

//---------------dance-single - ----------------
#NOTEDATA:;
#CHARTNAME:;
#STEPSTYPE:dance-single;
#DESCRIPTION:;
#CHARTSTYLE:;
#DIFFICULTY:Beginner;
#METER:3;
#RADARVALUES:0.135981,0.185506,0.097350,0.000000,0.000000,88.000000,79.000000,9.000000,0.000000,0.000000,0.000000,0.000000,0.000000,0.000000,0.135981,0.185506,0.097350,0.000000,0.000000,88.000000,79.000000,9.000000,0.000000,0.000000,0.000000,0.000000,0.000000,0.000000;
#CREDIT:;
#NOTES:
0000
0000
0000
0000
,
0000
0000
0000
0000
,
0000
0000
0000
0000
,
0000
0000
0000
0000
,
0000
0000
0000
0000
,
0110
0000
0000
0000
,
0000
0000
0000
0000
,
0110
0000
0000
0000
,
0000
0000
0000
0000
,
1000
0000
0000
0000
,
1000
0000
1000
0000
,
0001
0000
0000
0000
,
0001
0001
0000
0000
,
0010
0000
1000
0000
,
0010
0000
1000
0000
,
0010
0000
0010
0000
,
0010
0000
0010
0000
,
1000
0000
0000
0000
,
1000
0000
1000
0000
,
0001
0000
0000
0000
,
0001
0001
0000
0000
,
0100
0000
0001
0000
,
0100
0000
0001
0000
,
0100
0000
0100
0000
,
0100
0000
0100
0000
,
0010
0000
0110
0000
,
0100
0000
0100
0000
,
0100
0000
1000
0000
,
0100
0000
1000
0000
,
0010
0000
0010
0000
,
0010
0000
0010
0000
,
0100
0000
0110
0000
,
0100
0000
0110
0000
,
0010
0000
0010
0000
,
0010
0000
0010
0000
,
0001
0000
0010
0000
,
0001
0000
0010
0000
,
0010
0000
0110
0000
,
0010
0000
0010
0000
,
1000
0000
0100
0000
,
1000
0000
0100
0000
,
0010
0000
0110
0000
,
1000
0000
0100
0000
,
0100
0000
1000
0000
,
1000
0000
0100
0000
,
0010
0000
0110
0000
,
1000
0000
0100
0000
,
0100
0000
1000
0000
,
1000
0000
0100
0000
,
0110
0000
0000
0000
,
0000
0000
0000
0000
;

//---------------dance-single - ----------------
#NOTEDATA:;
#CHARTNAME:;
#STEPSTYPE:dance-single;
#DESCRIPTION:;
#CHARTSTYLE:;
#DIFFICULTY:Easy;
#METER:5;
#RADARVALUES:0.258055,0.291509,0.162250,0.248783,0.000000,167.000000,152.000000,15.000000,23.000000,0.000000,0.000000,0.000000,0.000000,0.000000,0.258055,0.291509,0.162250,0.248783,0.000000,167.000000,152.000000,15.000000,23.000000,0.000000,0.000000,0.000000,0.000000,0.000000;
#CREDIT:;
#NOTES:
0000
0000
0000
0000
,
0000
0000
0000
0000
,
0000
0000
0000
0000
,
0000
0000
0000
0000
,
0010
0000
0010
0000
,
2000
0000
3010
0100
,
0002
0000
1003
0100
,
0010
0001
0100
1000
,
0010
1000
0001
0000
,
1001
0000
0100
0000
,
0010
1000
0100
0001
,
0010
1001
0100
1001
,
0010
1000
0200
0300
,
0001
0011
1000
1100
,
0010
1000
0001
0100
,
0002
0003
2000
3000
,
0002
0203
0010
0300
,
1000
0001
0100
0000
,
1000
0100
0001
0100
,
0010
0000
1000
0000
,
0010
2000
0002
3003
,
0110
0000
1000
0010
,
0100
0001
1000
0000
,
0001
0101
1000
1100
,
0010
0100
0002
0003
,
1000
0100
0010
0001
,
1000
1000
0001
0001
,
0020
0030
0002
0003
,
2000
3000
0200
0300
,
0010
0010
1000
0101
,
1000
1000
0010
1100
,
0010
1000
0100
0001
,
0010
0001
0100
1000
,
2002
0000
0000
3003
,
0010
0100
0001
1000
,
0001
0100
0020
0130
,
0002
0013
2000
3001
,
0200
0000
0310
1000
,
0200
0000
0310
0001
,
0100
1100
0010
0011
,
1000
0001
0100
0000
,
0001
0001
0100
0010
,
1000
0001
1000
0010
,
0100
0100
1000
0001
,
0100
0010
2002
3003
,
1000
1000
0001
0001
,
1000
0100
0001
0100
,
1000
1000
0010
0010
,
1000
0100
0001
0010
,
1001
0000
0000
0000
,
0000
0000
0000
0000
;

//---------------dance-single - ----------------
#NOTEDATA:;
#CHARTNAME:;
#STEPSTYPE:dance-single;
#DESCRIPTION:;
#CHARTSTYLE:;
#DIFFICULTY:Medium;
#METER:6;
#RADARVALUES:0.321409,0.344511,0.227150,0.400216,0.016225,208.000000,187.000000,21.000000,37.000000,0.000000,0.000000,0.000000,0.000000,0.000000,0.321409,0.344511,0.227150,0.400216,0.016225,208.000000,187.000000,21.000000,37.000000,0.000000,0.000000,0.000000,0.000000,0.000000;
#CREDIT:;
#NOTES:
0000
0000
0000
0000
,
0000
0000
0000
0000
,
0000
0000
0000
0000
,
0000
0000
0000
0000
,
0020
0030
2000
3000
,
0001
0100
0010
1000
,
0002
0003
2200
3300
,
0010
0100
0002
1003
,
0100
0010
2002
3003
,
0010
0000
1000
0000
0001
0010
0100
0000
,
1000
0000
0001
0000
0100
0010
0100
0000
,
1000
0010
0100
0000
0001
0100
1000
0000
,
0010
1000
0202
0303
,
0010
1000
0001
0100
,
0020
1030
0200
0310
,
0002
0000
0103
0000
0010
1000
0001
0000
,
0100
0000
0000
0010
0000
0000
2002
0000
0000
0000
0000
0000
3003
0000
0000
0000
,
0010
1000
0100
1001
,
0002
0103
2000
3100
,
0001
1000
0100
0001
,
1000
0000
0000
0100
0000
0000
0020
0000
0000
0000
0000
0000
0030
0000
0000
0000
,
0001
0100
0010
1000
,
0002
1003
0020
0130
,
1000
0100
0010
0001
,
1000
0000
0002
0200
0000
0000
0303
0000
,
1000
0001
0100
0000
0010
0100
0010
0000
,
0001
1010
1000
0101
,
0010
1001
0100
1001
,
0100
0000
0000
0001
0000
0000
0010
0000
0000
0000
0000
0000
0100
0000
0000
0000
,
0001
0011
1000
1100
,
0001
0000
0100
0000
0001
1000
0100
0000
,
0002
0103
2000
3100
,
0001
0100
0001
1000
0001
0000
0110
0000
,
0002
1000
0000
1003
,
0200
0320
0031
1001
,
2000
0001
0000
3001
,
0200
0320
1030
1001
,
0100
0010
1000
0100
,
0010
1100
0010
0101
,
1000
0000
0010
0000
1000
0010
0100
0000
,
0001
1000
0100
0000
0010
0000
1001
0000
,
0010
0100
0001
0000
0100
0010
0100
0000
,
2000
3010
0002
0103
,
1000
0010
0100
0000
0001
1000
0100
0000
,
0001
0010
2002
3003
,
0010
1000
0100
0000
0001
1000
0001
0000
,
0200
0301
1000
0110
,
2000
3100
0002
0013
,
1000
0100
0010
1100
,
0110
0000
0000
0000
,
0000
0000
0000
0000
;

//---------------dance-single - ----------------
#NOTEDATA:;
#CHARTNAME:;
#STEPSTYPE:dance-single;
#DESCRIPTION:;
#CHARTSTYLE:;
#DIFFICULTY:Hard;
#METER:9;
#RADARVALUES:0.377038,0.397512,0.140617,0.443483,0.032450,244.000000,231.000000,13.000000,41.000000,0.000000,0.000000,0.000000,0.000000,0.000000,0.377038,0.397512,0.140617,0.443483,0.032450,244.000000,231.000000,13.000000,41.000000,0.000000,0.000000,0.000000,0.000000,0.000000;
#CREDIT:;
#NOTES:
0000
0000
0000
0000
,
0000
0000
0000
0000
,
0000
0000
0000
0000
,
0000
0000
0000
0000
,
0010
0000
0000
1000
0000
0000
0001
0000
0200
0000
0000
0000
0301
0000
0000
0000
,
0010
0001
0100
0000
0010
1000
0100
0000
,
0002
0103
2000
3001
,
0010
0000
0000
0100
0000
0000
0001
0000
2000
0000
0000
0000
3000
0000
0000
0000
,
0100
0001
1000
0100
0010
0001
0100
0000
,
0022
0000
0033
0000
1000
0001
0100
0000
,
0010
0100
0001
1000
0001
0100
0010
0000
,
1000
0010
0100
0000
0001
1000
0100
0000
,
0010
0001
0220
0330
,
0001
1000
0100
0000
0010
0001
0100
0000
,
0020
0000
1030
0000
0001
1000
0100
0000
,
0010
0100
1000
0000
0001
0100
0010
0000
,
1000
0000
0000
0010
0000
0000
2002
0000
0000
0000
0000
0000
3003
0000
0000
0000
,
0200
0000
0300
0000
0010
0100
0010
1000
,
0002
0000
0003
0000
0100
0010
1000
0100
,
0020
0030
0011
1100
,
0001
0000
0000
0100
0000
0000
2020
0000
0000
0000
0000
0000
3030
0000
0000
0000
,
0001
1000
0100
0000
0010
0001
0100
0000
,
2000
0000
3100
0000
0010
0001
0100
0000
,
0001
1000
0100
0000
0010
0001
0100
0010
,
1000
0000
0000
0020
0000
0000
0200
0000
0000
0000
0000
0000
0330
0000
0000
0000
,
1000
0001
0100
0010
0100
0001
1000
0000
,
0002
2003
3200
0310
,
0001
0010
0100
0000
0001
1000
0100
0000
,
0020
0000
0000
1000
0030
0000
0200
0000
0000
0000
0000
0000
0300
0000
0000
0000
,
0010
0100
1000
0001
0100
0010
0100
0000
,
2000
3002
0203
0310
,
2000
0000
3010
0100
0010
1000
0001
0000
,
2000
3200
0320
0030
,
0001
0000
1000
0001
0100
0010
1000
0001
,
0100
0001
0000
1000
0000
0010
0000
0000
,
1000
0000
0100
0010
0001
0100
0001
1000
,
0020
0000
0230
0000
0301
1000
0001
0000
,
2000
0000
3020
0000
1030
0001
1000
0000
,
0200
0320
0032
1003
,
0010
0101
0110
1001
,
0010
0100
0001
0000
1000
0001
0100
0000
,
0010
0100
0010
0000
0001
1000
0100
0000
,
0010
0001
1000
0000
0100
0010
0001
0000
,
1000
0010
0100
0000
0001
1000
0010
0000
,
0100
0001
1000
0000
2020
0000
3030
0000
,
0001
1000
0100
0000
0010
0100
0010
0000
,
0001
1000
0100
0010
0002
0000
0103
0000
,
1000
0001
0100
0000
0010
0100
0010
0000
,
0011
0000
1100
0000
0001
0100
0010
0000
,
1001
0000
0000
0000
,
0000
0000
0000
0000
;

//---------------dance-single - ----------------
#NOTEDATA:;
#CHARTNAME:;
#STEPSTYPE:dance-single;
#DESCRIPTION:;
#CHARTSTYLE:;
#DIFFICULTY:Challenge;
#METER:12;
#RADARVALUES:0.528471,0.530016,0.183883,0.032450,0.448891,342.000000,325.000000,17.000000,3.000000,0.000000,0.000000,0.000000,0.000000,0.000000,0.528471,0.530016,0.183883,0.032450,0.448891,342.000000,325.000000,17.000000,3.000000,0.000000,0.000000,0.000000,0.000000,0.000000;
#CREDIT:;
#NOTES:
0000
0000
0000
0000
,
0000
0000
0000
0000
,
0000
0000
0000
0000
,
0000
0000
0000
0000
,
1000
0000
0000
0001
0000
0000
0100
0000
0011
0000
0000
0000
1100
0000
0000
0000
,
0001
0000
0000
0010
0000
0000
0001
0000
1000
0000
0000
0100
0000
0000
1000
0010
,
1000
0000
0000
0001
0000
0000
1000
0000
1100
0000
0000
0000
0011
0000
0000
0000
,
1000
0000
0000
0010
0000
0000
1000
0000
0001
0000
1000
0000
0100
0000
1000
0000
,
0101
0000
0000
0001
0100
0000
1000
0010
,
1010
0000
0000
0000
0010
0000
0001
0000
1000
0000
0000
0100
0000
0000
1000
0000
,
0001
0000
0000
0010
0000
0000
0001
0000
1000
0000
0000
0100
0000
0000
0010
0000
,
0001
0000
0000
0010
0000
0000
0001
0000
1000
0000
0000
0100
0000
0000
1000
0000
,
0001
0000
0000
1000
0000
0000
0001
0000
0100
0000
0000
0001
0100
0000
0000
0000
,
0010
0000
0100
0000
0010
0000
0000
0000
1000
0100
0000
1000
0000
0000
0000
0000
,
0001
0100
0000
0001
0000
0100
0000
0001
0000
1000
0000
0001
0000
0100
0000
0000
,
0010
0000
0100
0000
0010
0000
1000
0000
0001
0100
0000
0001
0000
0000
1000
0000
,
0100
0000
0000
0001
0000
0000
0100
0000
0000
0000
0000
0000
1001
0000
0000
0000
,
0000
1000
0001
0000
0010
0000
0001
0000
1000
0000
0000
0100
0000
0000
1000
0000
,
0001
0000
0000
0010
0000
0000
0001
0000
1000
0000
0000
0100
0000
0000
0010
0000
,
0001
0000
0000
0010
0000
0000
0001
0000
1000
0000
0000
0100
0000
0000
1000
0000
,
0001
0000
0000
1000
0000
0000
0001
0000
0000
0000
0000
1000
0100
0000
0000
0000
,
0010
0000
0100
0000
0010
0000
0001
0000
1000
0100
0000
1000
0000
0000
0100
0000
,
1000
0100
0000
1000
0000
0001
0000
0100
0000
0001
0000
1000
0000
0100
0000
0000
,
0010
0000
0100
0000
0010
0000
0001
0000
1000
0100
0000
1000
0000
0000
0001
0000
,
0100
0000
0000
1000
0000
0000
0100
0000
0000
0000
0000
0000
1001
0000
0000
0000
,
0001
0000
0000
0010
0100
0000
1000
0000
0101
0000
0000
0000
1000
0000
0100
0000
,
1000
0100
0010
0001
0010
0100
0010
0100
,
1000
0000
0000
0010
0100
0001
0010
0000
0001
0000
0000
0100
0010
1000
0001
0000
,
1000
0100
0010
0001
0100
1000
0100
0001
,
1000
0000
0000
0100
1000
0001
0100
0000
0001
0000
0000
0100
0010
0100
0001
0000
,
0010
0001
0100
0010
0200
0001
0301
0000
,
0001
0010
0100
1000
0020
0000
0100
0130
,
1000
0010
0100
0001
0100
0010
1000
0100
,
1000
0000
0000
0001
1000
0100
1000
0000
0010
0000
0100
0000
0001
0000
0100
0000
,
0000
0011
0000
1100
0000
0010
0100
0000
,
0001
0000
0000
1000
0100
1000
0001
0000
1000
0000
0000
0001
0100
0001
1000
0000
,
0010
0100
0010
1000
0100
0010
0001
0100
,
1001
0000
0000
0000
1000
0000
0100
0000
1000
0001
0010
0000
0100
0000
1000
0000
,
0001
0100
0001
0010
0001
1000
0100
1000
,
0001
0000
0000
1000
0001
1000
0100
0000
1000
0000
0000
0001
1000
0001
0100
0000
,
1100
0101
0110
0011
,
1000
0000
0001
0010
0000
0001
0000
1000
0010
0000
0100
0000
0010
0000
0100
0000
,
0001
0000
1000
0000
0100
0000
1000
0000
0001
0000
1000
0001
0000
0100
0000
0000
,
0001
0000
0100
0000
0010
0100
0000
0010
1000
0000
0100
0000
0010
0100
0000
0010
,
0001
0100
0001
0100
0002
0000
1003
0000
,
1000
0000
0001
0010
0000
0001
0000
1000
0010
0000
0100
0000
0010
0000
0100
0000
,
0001
0000
1000
0000
0100
0000
1000
0000
0001
0000
1000
0001
0000
0100
0000
0000
,
0001
0000
0100
0000
0010
0100
0000
0010
1000
0000
0100
0000
0010
0100
0000
0010
,
0001
0100
0001
0100
1000
0000
0100
0001
,
1100
0000
0000
0000
,
0000
0000
0000
0000
;

//---------------dance-double - ----------------
#NOTEDATA:;
#CHARTNAME:;
#STEPSTYPE:dance-double;
#DESCRIPTION:;
#CHARTSTYLE:;
#DIFFICULTY:Easy;
#METER:5;
#RADARVALUES:0.231786,0.318010,0.108167,0.151433,0.000000,150.000000,140.000000,10.000000,14.000000,0.000000,0.000000,0.000000,0.000000,0.000000,0.231786,0.318010,0.108167,0.151433,0.000000,150.000000,140.000000,10.000000,14.000000,0.000000,0.000000,0.000000,0.000000,0.000000;
#CREDIT:;
#NOTES:
00000000
00000000
00000000
00000000
,
00000000
00000000
00000000
00000000
,
00000000
00000000
00000000
00000000
,
00000000
00000000
00000000
00000000
,
00000000
00000000
00000000
00000000
,
00020000
00030000
00002000
00003000
,
00000200
00000300
00000002
00000003
,
00002000
00000000
00000000
00003000
,
00000010
00000100
00001000
00000000
,
00011000
00000000
00010000
00000000
,
00100000
10000000
00010000
01000000
,
00100000
00000000
00010000
00000000
,
00001000
00000001
00000100
00000000
,
00000001
00001000
00000001
00000100
,
00000010
00000001
00000100
00001000
,
00010000
00000000
01000000
10000000
,
00010000
10000000
02000000
03000000
,
10010000
00000000
00100000
00000000
,
00010000
00001000
00000010
00000001
,
00000100
00000000
00000100
00000000
,
00000001
00000100
00002000
00003000
,
00010000
00100000
10000000
01000000
,
00100000
00010000
01000000
01000000
,
00100000
00010000
00001000
00000100
,
00000001
00000010
00002000
00003000
,
00010000
01000000
20000000
30000000
,
00100000
01000000
10000000
10000000
,
00020000
00030000
02000000
03000000
,
00100000
10000000
01000000
00010000
,
00000000
00001000
00000100
00000001
,
00001000
00000010
00002000
00003000
,
00000100
00001000
00010000
01000000
,
20000000
30000000
00020000
00030000
,
10010000
00000000
00000000
00000000
,
01000000
00010000
00000010
00000100
,
00000001
00001000
00000010
00000001
,
00000100
00001000
00000001
00000100
,
00001001
00000000
00000000
00000000
,
00000001
00000010
00001000
00010000
,
00010000
00100000
10000000
01000000
,
00010000
00001000
00000100
00000001
,
00001001
00000000
00000010
00000000
,
00001000
00000001
00000100
00000010
,
00001001
00000100
00000010
00001000
,
00010000
01000000
10010000
00000000
,
00100000
01000000
00100000
00001000
,
00000100
00000001
00001000
00000100
,
00000010
00001001
00000100
00001001
,
00000010
00001000
00010000
00100000
,
10010000
00000000
00000000
00000000
,
00000000
00000000
00000000
00000000
;

//---------------dance-double - ----------------
#NOTEDATA:;
#CHARTNAME:;
#STEPSTYPE:dance-double;
#DESCRIPTION:;
#CHARTSTYLE:;
#DIFFICULTY:Medium;
#METER:6;
#RADARVALUES:0.281233,0.344511,0.097350,0.162250,0.000000,182.000000,173.000000,9.000000,15.000000,0.000000,0.000000,0.000000,0.000000,0.000000,0.281233,0.344511,0.097350,0.162250,0.000000,182.000000,173.000000,9.000000,15.000000,0.000000,0.000000,0.000000,0.000000,0.000000;
#CREDIT:;
#NOTES:
00000000
00000000
00000000
00000000
,
00000000
00000000
00000000
00000000
,
00000000
00000000
00000000
00000000
,
00000000
00000000
00000000
00000000
,
00000000
00000000
00000000
00000000
,
00100000
10000000
01000000
00010000
,
00001000
00000100
00000001
00000010
,
00001000
00010000
00100000
10000000
,
02000000
00000000
03200000
00300000
,
10010000
00000000
01000000
00000000
00100000
00010000
10000000
00000000
,
00100000
00000000
00010000
00000000
00001000
00010000
00001000
00000000
,
00000100
00000000
00000010
00000000
00001000
00000001
00001000
00000000
,
00000002
00000003
00002000
00003000
,
00000010
00000000
00001000
00000000
00010000
01000000
10000000
00000000
,
01000000
00100000
00010000
01000000
,
10000000
01000000
00010000
00001000
,
00000200
00000300
00000020
00000030
,
00001001
00000010
00000100
00001000
,
00010000
00000100
00010000
01000000
,
10000000
00100000
01000000
00010000
,
20000000
30000000
02000000
03000000
,
00010000
00000010
00000100
00000001
,
00000010
00000100
00001000
00000100
,
00000002
00000003
00000200
00000300
,
00001000
00010000
02000000
03000000
,
10010000
01000000
00010000
10000000
,
00100000
00000000
00010000
00000000
00001000
00010000
00000100
00000000
,
00000020
00000030
00000002
00000003
,
00001000
00000000
00000100
00000000
00000010
00000001
00000100
00000000
,
00000000
00000010
00000100
00001000
,
00100000
00000000
01000000
00000000
10000000
00010000
01000000
00000000
,
00200000
00300000
20000000
30000000
,
01000000
00100000
00010000
01000000
,
10010000
00000000
01000000
00000000
00100000
10000000
01000000
00000000
,
00000000
00000000
00100000
00000000
00001000
00010000
00001000
00000000
,
00000100
00000000
00010000
00000000
00001000
00010000
00000010
00000000
,
00000100
00000000
00001000
00000000
00000010
00010000
00000100
00000000
,
00000000
00001100
00001000
00010000
,
01000000
00000000
10000000
00000000
00100000
10000000
01000000
00000000
,
00100000
10000000
00010000
01000000
,
00100000
00010000
00001000
00000010
,
00001001
00000100
00001001
00000100
,
00010000
00000000
00100000
00000000
01000000
10000000
00010000
00000000
,
01100000
00010000
01100000
10000000
,
00100000
00010000
00000010
00000000
,
00000001
00000010
00000100
00001000
,
00010000
00000000
01000000
00000000
10000000
00010000
01000000
00000000
,
00100000
00100000
10000000
10000000
,
01000000
00000000
00010000
00000000
00001000
00000000
00000100
00000001
,
00001000
00000000
00000000
00000000
,
00000000
00000000
00000000
00000000
;

//---------------dance-double - ----------------
#NOTEDATA:;
#CHARTNAME:;
#STEPSTYPE:dance-double;
#DESCRIPTION:;
#CHARTSTYLE:;
#DIFFICULTY:Hard;
#METER:10;
#RADARVALUES:0.361585,0.397512,0.032450,0.086533,0.000000,234.000000,231.000000,3.000000,8.000000,0.000000,0.000000,0.000000,0.000000,0.000000,0.361585,0.397512,0.032450,0.086533,0.000000,234.000000,231.000000,3.000000,8.000000,0.000000,0.000000,0.000000,0.000000,0.000000;
#CREDIT:;
#NOTES:
00000000
00000000
00000000
00000000
,
00000000
00000000
00000000
00000000
,
00000000
00000000
00000000
00000000
,
00000000
00000000
00000000
00000000
,
00000000
00000000
00000000
00000000
,
00000010
00000001
00000100
00000000
00000010
00001000
00000100
00000000
,
00000010
00001000
00010000
00000000
00100000
10000000
01000000
00000000
,
00100000
00010000
01000000
00000000
00010000
00000000
10000000
00000000
,
00100000
00010000
00000100
00000010
00000001
00000100
00000010
00000000
,
00001001
00000000
00000010
00000100
00010000
00000000
00000000
00000000
,
00100000
10000000
00010000
00000000
00100000
00000000
00020000
00000000
,
10030000
00000000
00100000
10000000
01000000
00000000
00010000
00000000
,
00000100
00001000
00000002
00000003
,
00000000
00000010
00000001
00000100
00000010
00001000
00000100
00000000
,
00000010
00000000
00000001
00000000
00001000
00000001
00000100
00000000
,
00001000
00000000
00010000
00000000
01000000
00000000
00100000
00010000
,
10000000
02000000
00200000
03300000
,
10010000
00000000
00100000
00010000
00001000
00000000
00000000
00000000
,
00000010
00000001
00001000
00000000
00000010
00001000
00000001
00000000
,
00000000
00000000
00000010
00000001
00000100
00000000
00001000
00000000
,
00100000
01000000
20000000
30000000
,
00000000
10000000
00010000
01000000
00100000
01000000
00010000
00000000
,
10000000
00000000
01000000
00000000
00010000
00001000
00000100
00000000
,
00000001
00000000
00001000
00000000
00000100
00000000
00000010
00000001
,
00001000
00000000
00000002
00000200
00000000
00000000
00000303
00000000
,
00000010
00010000
00100000
10000000
,
01000000
00000000
00010000
00000000
00100000
10000000
01000000
00000000
,
00100000
00000000
00010000
00000000
10000000
00010000
01000000
00000000
,
00100000
00000000
00010000
00000000
00000100
00000000
00000010
00000001
,
00000100
00001001
00000010
00000100
,
00000020
00000001
00001000
00000031
,
00001000
01000000
00100000
10000000
,
00010000
00000000
00100000
01000000
00100000
00000000
10000000
00010000
,
10000000
00000000
01000000
00000000
10000000
00010000
01000000
00000000
,
00010000
00000000
00000100
00000000
00000001
00000010
00000001
00000000
,
00000010
00000100
00001000
00000001
00000100
00001000
00010000
01000000
,
10000000
00000000
00010000
00000000
01000000
00010000
01000000
00000000
,
00100000
00000000
10000000
00000000
01000000
00010000
00001000
00000100
,
00000001
00000010
00000100
00001000
00000001
00001000
00000010
00000000
,
00000100
00000000
00000010
00000100
00000001
00001000
00000001
00000100
,
00001000
00000000
00010000
00001000
00000000
01000000
00100000
00000000
,
10000000
01000000
00100000
00000000
00010000
10000000
01000000
00000000
,
00010000
00001000
00000100
00000001
00001000
00000010
00000100
00000000
,
00000001
00001000
00000010
00000000
00001000
00000001
00000100
00000000
,
00000001
00000100
00001000
00010000
01000000
10000000
00010000
00000000
,
10000000
01000000
00000000
01000000
00010000
01000000
00000000
01000000
,
00100000
10000000
01000000
00010000
00001000
00000100
00000001
00000000
,
00000010
00000001
00000100
00000000
00001000
00000001
00000100
00000000
,
00000001
00000100
00001000
00010000
,
01000000
00000000
00000000
00000000
,
00000000
00000000
00000000
00000000
;

//---------------dance-double - ----------------
#NOTEDATA:;
#CHARTNAME:;
#STEPSTYPE:dance-double;
#DESCRIPTION:;
#CHARTSTYLE:;
#DIFFICULTY:Challenge;
#METER:12;
#RADARVALUES:0.500657,0.503515,0.108167,0.010817,0.281233,324.000000,314.000000,10.000000,1.000000,0.000000,0.000000,0.000000,0.000000,0.000000,0.500657,0.503515,0.108167,0.010817,0.281233,324.000000,314.000000,10.000000,1.000000,0.000000,0.000000,0.000000,0.000000,0.000000;
#CREDIT:;
#NOTES:
00000000
00000000
00000000
00000000
,
00000000
00000000
00000000
00000000
,
00000000
00000000
00000000
00000000
,
00000000
00000000
00000000
00000000
,
00001000
00000000
00000000
00000001
00000000
00000000
00000100
00000000
00000001
00000000
00000100
00000000
00001000
00000000
00010000
00000000
,
00100000
00000000
00000000
10000000
00000000
00000000
00010000
00000000
10000000
00000000
00000000
01000000
00000000
00000000
10000000
00100000
,
10000000
00000000
00000000
01000000
10000000
01000000
00010000
00001000
,
00000010
00000000
00000000
00000001
00000000
00000000
00001000
00000000
00000001
00000000
00001000
00000000
00000100
00000000
00001000
00000000
,
00000001
00000000
00000000
00000100
00001000
00000000
00010000
00100000
,
10000000
00000000
00100000
10000000
00010000
00000000
01000000
00010000
,
10000000
00000000
00100000
10000000
00010000
00000000
01000000
00100000
,
00000000
00010000
00001000
00000100
00000001
00000000
00000100
00000001
,
00001000
00000000
00000000
00000001
00000000
00000000
00000100
00000000
00001000
00000000
00000000
00000000
00011000
00000000
00000000
00000000
,
00100000
00000000
01000000
00000000
00100000
00000000
00000000
00000000
10000000
01000000
00000000
10000000
00000000
00000000
00000000
00000000
,
00010000
01000000
00000000
00001000
00000000
01000000
00000000
00010000
00000000
10000000
00000000
01000000
00000000
00010000
00000000
00000000
,
00001000
00000000
00000100
00000000
00000010
00000000
00001000
00000000
00000001
00000100
00000000
00000001
00000000
00000000
00001000
00000000
,
00000100
00000000
00000000
00001000
00000000
00000000
00000100
00000000
00000000
00000000
00000000
00000000
00010000
00000000
00000000
00000000
,
00001000
00000000
00000010
00000001
00001000
00000000
00000100
00001000
,
00000001
00000000
00000010
00000001
00001000
00000000
00000100
00000010
,
00000000
00001000
00010000
01000000
10000000
00000000
01000000
10000000
,
00010000
00000000
00000000
10000000
00000000
00000000
01000000
00000000
00010000
00000000
00000000
00000000
00011000
00000000
00000000
00000000
,
00000010
00000000
00000100
00000000
00000010
00000000
00000000
00000000
00000001
00000100
00000000
00000001
00000000
00000000
00000000
00000000
,
00001000
00000100
00000000
00010000
00000000
00000100
00000000
00001000
00000000
00000001
00000000
00000100
00000000
00001000
00000000
00000000
,
00010000
00000000
01000000
00000000
00100000
00000000
00010000
00000000
10000000
01000000
00000000
10000000
00000000
00000000
00010000
00000000
,
01000000
00000000
00000000
00010000
00000000
00000000
01000000
00000000
00000000
00000000
00000000
00000000
10010000
00000000
00000000
00000000
,
10000000
01000000
00010000
00001000
00000100
00000001
00001000
00000100
,
00001000
00000100
00000010
00000001
00000010
00000001
00000100
00001000
,
00010000
00000000
00000000
00000000
01000000
00000000
00100000
00000000
00010000
00000000
00000000
01000000
00100000
10000000
00010000
00000000
,
10000000
01000000
00100000
00010000
10000000
01000000
00010000
00001000
,
00000100
00000000
00000001
00000000
00000010
00000000
00000001
00000000
00000100
00000000
00000000
00000010
00000100
00000010
00001000
00000000
,
00000100
00001000
00000010
00000100
00000001
00000100
00001000
00010000
,
00100000
10000000
00100000
01000000
00010000
01000000
00001000
01000000
,
00010000
00100000
01000000
10000000
00000000
10000000
01000000
00010000
,
00001000
00000100
00000001
00001000
00000010
00000100
00000001
00000100
,
00000000
00000011
00000000
00001100
00000000
00011000
00000000
00000000
,
00010000
01000000
10000000
00010000
00100000
00001000
01000000
00010000
,
00100000
01000000
00100000
00010000
01000000
00100000
10000000
01000000
,
00010000
00000000
00000000
00000000
00001000
00000000
00000100
00000000
00000001
00001000
00000010
00000000
00000100
00000000
00000001
00000000
,
00001000
00000100
00010000
00000010
00001000
00000001
00000100
00001000
,
00010000
00000000
00000000
00001000
00010000
00001000
00010000
00000000
00001000
00000000
00000000
00010000
00001000
00010000
01000000
00000000
,
10000000
01100000
11000000
01010000
,
00010000
00000000
00001000
00010000
00000000
00001000
00000000
00010000
00001000
00000000
00000100
00000000
00000001
00000000
00000000
00000000
,
00001000
00000001
00000100
00000001
00001000
00000100
00010000
00000100
,
00001000
00000000
00000100
00000010
00000000
00000100
00000000
00000010
00000001
00000000
00000100
00000000
00000010
00000000
00000000
00000000
,
00000001
00000100
00001000
00010000
02000000
10000000
13000000
00000000
,
10000000
00000000
01000000
00010000
00000000
00001000
00000000
00000010
00000001
00000000
00000100
00000000
00000010
00000000
00000000
00000000
,
00001000
00000001
00000100
00000001
00001000
00000100
00010000
00000100
,
00001000
00000000
00000100
00000010
00000000
00000100
00000000
00000010
00000001
00000000
00000100
00000000
00000010
00000000
00000000
00000000
,
00000001
00000010
00001000
00010000
00100000
10000000
00100000
00000000
,
11000000
00000000
00000000
00000000
,
00000000
00000000
00000000
00000000
;

//---------------dance-solo - ----------------
#NOTEDATA:;
#CHARTNAME:;
#STEPSTYPE:dance-solo;
#DESCRIPTION:;
#CHARTSTYLE:;
#DIFFICULTY:Hard;
#METER:12;
#RADARVALUES:0.547014,0.609519,0.389400,0.259600,0.486750,354.000000,318.000000,36.000000,24.000000,0.000000,0.000000,0.000000,0.000000,0.000000,0.547014,0.609519,0.389400,0.259600,0.486750,354.000000,318.000000,36.000000,24.000000,0.000000,0.000000,0.000000,0.000000,0.000000;
#CREDIT:;
#DISPLAYBPM:135.000000;
#NOTES:
000000
000000
000000
000000
,
000000
000000
000000
000000
,
000000
000000
000000
000000
,
000000
000000
000000
000000
,
000000
000000
000000
000000
,
000100
000000
000000
100000
000000
000000
000001
000000
000100
000000
000000
001000
000000
000000
010000
000000
,
000010
000000
000000
001000
000000
000000
000100
000000
200000
000000
000000
000000
300002
000000
000000
000000
,
010003
000000
000000
000100
000000
000000
010000
000000
001000
000000
000000
000100
000000
000000
000001
000000
,
100000
101000
000001
001001
100000
101000
000001
001001
,
100001
000000
010000
000000
000010
000000
100000
000000
000100
000000
000000
001000
000000
000000
000001
000000
,
010000
000000
000010
000000
000100
001000
000000
100000
000000
100000
000000
000001
000000
000010
000000
000000
,
000000
000000
010000
001000
010000
000000
000100
000000
001000
000000
000000
000000
000000
000000
000001
000000
,
000002
000000
000000
020003
000000
000000
032000
000000
100000
000000
000000
103000
000020
000000
000000
000000
,
000030
000000
001000
000000
000010
000000
000100
000000
000001
100000
000000
010000
000000
000000
000000
000000
,
000100
100000
000000
000100
000000
010000
000000
000010
000000
000010
000000
000100
000000
001000
000000
000000
,
000000
000000
010000
000000
000001
000000
000100
000000
000010
001000
000000
000100
000000
000000
100000
000000
,
101000
000000
000000
001100
000000
000000
000101
000000
000000
000000
000000
100000
000010
100000
000000
000000
,
010010
000000
000100
001000
000100
000000
100000
000000
000001
000000
000000
001000
000000
000000
000100
000000
,
010000
000000
001000
000000
000100
000010
000000
100000
000000
100000
000000
000001
000000
010000
000000
000000
,
000000
000000
000001
000100
000001
000000
010000
000000
000010
000000
000000
001000
000000
000000
000100
000000
,
200000
000000
000000
300020
000000
000000
020030
000000
001000
000000
000000
031000
000100
000000
000000
000000
,
000001
000000
001000
000000
000001
000000
001000
000000
000100
100000
000000
000010
000000
000000
001000
000000
,
001000
000100
000000
010000
000000
010000
000000
010000
000000
000001
000000
000100
000000
100000
000000
000000
,
010000
000000
001000
000000
100000
000000
000010
000000
001000
000100
000000
001000
000000
000000
000001
000000
,
001000
001001
001000
101000
001000
001001
001000
101000
,
100001
000000
000000
000010
000000
000000
010000
000000
001000
000000
000000
100000
000100
000000
001000
000000
,
000001
000000
000100
000000
000010
001000
000000
000100
000000
010000
000000
000000
100000
000000
001000
000000
,
001200
000000
000301
001000
100200
000000
001300
000010
,
100010
000000
000000
100100
000000
000000
101000
000000
000000
000000
000001
000000
000001
000000
000001
000000
,
000000
000000
000100
000010
000000
000010
000100
000000
001000
000000
100000
000000
000001
000000
010000
000000
,
000200
000000
000000
002300
000000
000000
003002
000000
100000
000000
001003
000000
000000
000000
000100
000000
,
001000
000010
001000
010000
001000
000001
001000
100000
,
001000
000100
010000
000010
000000
100000
000100
001000
,
010010
000000
000100
000000
001000
000000
000010
100000
000000
100000
000010
000000
000001
000000
010000
000000
,
000000
000200
100300
000200
001300
000200
010300
000000
,
000010
000010
000100
000100
000010
000010
010000
010000
,
002000
000000
000000
203000
000000
000000
300002
000000
000000
000000
001003
000000
001100
000000
010010
000000
,
000000
000000
000100
010000
000000
010000
000100
000000
001000
000000
000001
000000
100000
000000
001000
000000
,
020000
000000
000000
030200
000000
000000
002300
000000
000010
000000
003001
000000
000000
000000
100000
000000
,
100000
000100
001000
010000
001000
000100
001000
000001
,
000100
000101
000100
100100
000100
000101
000100
100100
,
100001
000000
001000
000000
000000
000010
000000
000100
000010
000000
010000
000000
000000
000000
000001
000000
,
000001
000000
001000
000000
000100
100000
000000
001000
000000
000100
000000
001000
000000
010000
000000
000000
,
010010
000000
000010
000000
000000
001000
000000
001000
000100
000000
100000
000000
000000
000001
000000
000100
,
000010
000000
001000
000000
000100
100000
000000
002000
000000
000000
010000
000000
013000
000000
000000
000000
,
011000
000000
000010
000000
000000
100000
000001
000000
001001
000000
000100
000000
000000
100000
000000
100000
,
000010
000000
000100
000000
001000
100000
000000
000001
000000
010000
000000
000010
000000
010000
000000
000000
,
001100
000000
000001
000000
000000
100000
000000
000010
010000
000000
001000
000000
000000
000100
000000
000100
,
000001
000101
100000
100100
000001
000101
100000
100100
,
100001
000000
000000
000000
;

//---------------dance-solo - ----------------
#NOTEDATA:;
#CHARTNAME:;
#STEPSTYPE:dance-solo;
#DESCRIPTION:;
#CHARTSTYLE:;
#DIFFICULTY:Medium;
#METER:9;
#RADARVALUES:0.395581,0.450514,0.227150,0.270416,0.048675,256.000000,235.000000,21.000000,25.000000,0.000000,0.000000,0.000000,0.000000,0.000000,0.395581,0.450514,0.227150,0.270416,0.048675,256.000000,235.000000,21.000000,25.000000,0.000000,0.000000,0.000000,0.000000,0.000000;
#CREDIT:;
#DISPLAYBPM:135.000000;
#NOTES:
000000
000000
000000
000000
,
000000
000000
000000
000000
,
000000
000000
000000
000000
,
000000
000000
000000
000000
,
000000
000000
000000
000000
,
000100
010100
000100
010100
,
000001
000101
000001
000101
,
100000
101000
100000
101000
,
000100
000100
001000
001000
000100
000100
001000
001000
,
100001
000000
000010
001000
100000
000000
011000
000000
,
010000
000100
010000
000010
010000
001000
000100
000000
,
000001
000000
000100
000010
010000
000000
100100
000000
,
000200
000000
000000
002300
000000
000000
003002
000000
000000
000000
000000
000000
000003
000000
000000
000000
,
100000
000010
010000
000010
010000
001000
000100
000000
,
000001
000100
000010
000100
000010
010000
001000
000000
,
100000
000100
001000
000100
100000
000001
001000
000000
,
000200
000000
000000
020300
000000
000000
030020
000000
000000
000000
000000
000000
000030
000000
000000
000000
,
010010
000000
000100
100000
000001
000000
001001
000000
,
000100
010000
001000
010000
001000
100000
000001
000000
,
000100
000000
000010
001000
100000
000000
100100
000000
,
200000
000000
000000
300020
000000
000000
000230
000000
000000
000000
000000
000000
000300
000000
000000
000000
,
000001
000100
000010
000100
001000
010000
000010
000000
,
100000
001000
000001
000000
100000
000100
001000
000000
,
000010
000100
000010
010000
001000
100000
000001
000000
,
002000
000000
000000
003200
000000
000000
200300
000000
000000
000000
000000
000000
300000
000000
000000
000000
,
100001
000000
001100
000000
010010
000000
000001
001000
,
000001
000000
000100
001000
010000
000000
100100
000000
,
000200
000000
001300
000010
020000
000000
031000
000100
,
000001
000000
000000
000001
000000
000000
000001
000000
000000
000000
100000
000000
000001
000000
001000
000000
,
000000
001020
000000
010000
010030
000000
000100
001000
,
000020
000000
000000
020030
000000
000000
032000
000000
000000
000000
000000
000000
003000
000000
000000
000000
,
100000
000100
000001
000100
100000
000000
100010
000000
,
000100
001000
000100
010000
000000
011000
000000
001010
,
000000
100000
000100
000000
001000
000000
000010
010000
,
000000
000200
000000
200300
000000
300002
000000
000003
,
000100
000010
000100
000000
001000
010000
001000
000000
,
100000
000000
000000
100000
000000
000000
100000
000000
000000
000000
000100
000000
001000
000000
000100
000000
,
000000
000000
200000
000000
000000
300200
000000
000000
002300
000000
000000
000000
003001
000000
100000
000000
,
000010
000000
000000
000010
000000
000000
000010
000000
000000
000000
000000
000000
000000
000000
000000
000000
,
001000
000010
010000
000000
001000
010000
000010
000000
,
000100
000100
001000
001000
000100
000100
001000
001000
,
100000
100000
000000
000000
000001
000001
000000
000000
,
100000
000100
010000
000010
000100
001000
010000
000000
,
000010
000010
000000
000000
001000
001000
000000
000000
,
000010
000100
010000
000100
000020
000000
000030
000000
,
001000
001000
000000
000000
000100
000100
000000
000000
,
010000
000001
000100
000010
100000
001000
000100
000000
,
000001
000001
000000
000000
010000
010000
000000
000000
,
000100
000100
001000
001000
000100
000100
001000
001000
,
100001
000000
000000
000000
;

//---------------dance-solo - ----------------
#NOTEDATA:;
#CHARTNAME:;
#STEPSTYPE:dance-solo;
#DESCRIPTION:;
#CHARTSTYLE:;
#DIFFICULTY:Easy;
#METER:6;
#RADARVALUES:0.290505,0.371011,0.356950,0.021633,0.000000,188.000000,155.000000,33.000000,2.000000,0.000000,0.000000,0.000000,0.000000,0.000000,0.290505,0.371011,0.356950,0.021633,0.000000,188.000000,155.000000,33.000000,2.000000,0.000000,0.000000,0.000000,0.000000,0.000000;
#CREDIT:;
#DISPLAYBPM:135.000000;
#NOTES:
000000
000000
000000
000000
,
000000
000000
000000
000000
,
000000
000000
000000
000000
,
000000
000000
000000
000000
,
000000
000000
000000
000000
,
000100
000000
010000
000000
,
000010
000000
100000
100000
,
000010
000000
000100
000000
,
000101
101000
000101
101000
,
100001
000100
010000
001000
,
100000
000001
000100
000010
,
001000
000100
010000
001000
,
000001
000001
000001
000000
,
000100
000010
000100
001000
,
100000
000010
010000
001000
,
010000
000100
100000
000001
,
001000
001000
001000
000000
,
001100
000010
010000
000100
,
100000
001000
000010
000100
,
001000
000100
000001
010000
,
000010
000010
000010
000000
,
000100
000010
010000
000100
,
100000
001000
010000
000001
,
100000
000100
010000
000010
,
100100
001001
100100
001001
,
100001
000100
001000
000001
,
010000
000010
001000
000100
,
001200
001300
001200
001300
,
000010
000100
010000
001000
,
000000
010010
100000
000100
,
001000
001000
001000
000000
,
000001
000001
100000
100000
,
000001
000100
001000
010000
,
100001
000010
010000
001000
,
000000
000100
000000
000100
000000
000100
000000
000000
,
000001
000100
000010
001000
,
000100
010000
100000
000001
,
000000
010010
001000
000100
,
010000
010000
010000
000000
,
000001
000100
000001
001000
,
001001
100100
001001
100100
,
100001
000000
001100
000000
,
100000
000100
001000
000010
,
000110
000000
010100
000000
,
000100
100000
001000
000000
,
101000
000000
000101
000000
,
000001
000100
000010
010000
,
010100
000000
001010
000000
,
101000
001001
101000
001001
,
100001
000000
000000
000000
;

//---------------dance-solo - ----------------
#NOTEDATA:;
#CHARTNAME:;
#STEPSTYPE:dance-solo;
#DESCRIPTION:;
#CHARTSTYLE:;
#DIFFICULTY:Beginner;
#METER:3;
#RADARVALUES:0.182338,0.238507,0.140617,0.000000,0.000000,118.000000,105.000000,13.000000,0.000000,0.000000,0.000000,0.000000,0.000000,0.000000,0.182338,0.238507,0.140617,0.000000,0.000000,118.000000,105.000000,13.000000,0.000000,0.000000,0.000000,0.000000,0.000000,0.000000;
#CREDIT:;
#DISPLAYBPM:135.000000;
#NOTES:
000000
000000
000000
000000
,
000000
000000
000000
000000
,
000000
000000
000000
000000
,
000000
000000
000000
000000
,
000000
000000
000000
000000
,
000100
000000
000000
000000
,
001000
000000
000000
000000
,
000010
000000
000000
000000
,
010000
010000
010000
000000
,
100001
000000
001000
000000
,
000001
000001
000001
000000
,
010000
000000
000010
000000
,
100000
100000
100000
000000
,
001000
000000
000100
000000
,
000010
000000
010000
000000
,
000001
000000
001000
000000
,
000100
000100
000100
000000
,
001100
000000
001000
000000
,
000010
000010
000010
000000
,
100000
000000
000001
000000
,
001000
001000
001000
000000
,
000010
000000
010000
000000
,
010000
000000
001000
000000
,
100000
000000
000001
000000
,
010000
010000
010000
000000
,
100001
000000
001100
000000
,
000010
000010
000010
000000
,
010000
000000
000010
000000
,
010000
010000
010000
000000
,
000000
000000
000100
000000
,
010000
000000
001000
000000
,
100000
100000
100000
100000
,
100000
000000
000001
000000
,
000100
000000
001000
000000
,
010000
010000
010000
000000
,
000010
000010
000010
000000
,
001000
001000
001000
000000
,
000000
000000
000001
000000
,
010000
010000
010000
000000
,
000010
000010
000010
000010
,
000010
000000
001000
000000
,
001100
000000
010010
000000
,
000100
000100
000100
000000
,
100001
000000
001100
000000
,
010000
010000
010000
000000
,
010010
000000
100001
000000
,
001000
001000
001000
000000
,
010010
000000
001100
000000
,
000001
000001
000001
000000
,
100001
000000
000000
000000
;

//---------------dance-solo - ----------------
#NOTEDATA:;
#CHARTNAME:;
#STEPSTYPE:dance-solo;
#DESCRIPTION:;
#CHARTSTYLE:;
#DIFFICULTY:Challenge;
#METER:15;
#RADARVALUES:0.777254,0.821525,0.486750,0.075717,0.859924,503.000000,458.000000,45.000000,7.000000,0.000000,0.000000,0.000000,0.000000,0.000000,0.777254,0.821525,0.486750,0.075717,0.859924,503.000000,458.000000,45.000000,7.000000,0.000000,0.000000,0.000000,0.000000,0.000000;
#CREDIT:;
#DISPLAYBPM:135.000000;
#NOTES:
// measure 0
000000
000000
000000
000000
,  // measure 1
000000
000000
000000
000000
,  // measure 2
000000
000000
000000
000000
,  // measure 3
000000
000000
000000
000000
,  // measure 4
000000
000000
000000
000000
,  // measure 5
000100
000000
000000
010000
000000
000000
000010
000000
000100
000000
000000
001000
000000
000000
100000
000100
,  // measure 6
001000
000000
000000
000001
000000
000000
010000
000000
000001
001000
000000
000000
000100
100000
000000
000000
,  // measure 7
000010
000000
000000
000100
000000
000000
000001
000000
010000
000000
000000
000100
000000
000000
001000
000000
,  // measure 8
000010
000100
000010
000000
000001
000100
000001
000000
000010
000100
000010
000000
000001
000100
000001
000000
,  // measure 9
100001
000000
000100
000000
100000
000000
001000
010000
000010
000000
000000
001000
000000
000000
000100
000000
,  // measure 10
100000
000000
000001
000000
000100
000010
000000
001000
000100
010000
000000
010000
001000
100000
000000
000000
,  // measure 11
000001
000000
000100
000010
001000
000000
000100
010000
001000
000000
000000
100000
000001
000000
001000
000000
,  // measure 12
001001
000000
000000
101000
000000
000000
001001
000000
000100
010000
001000
010000
000010
200000
000000
000000
,  // measure 13
300001
000000
000100
000000
000010
000000
001000
000100
100000
000100
010000
000010
001000
000000
000001
000000
,  // measure 14
100000
000010
000000
000010
000100
001000
000000
010000
000001
100000
000000
000100
001000
000001
000000
100000
,  // measure 15
000001
000000
000100
000000
000010
000000
100000
000001
000100
001000
000100
000010
010000
000000
001000
000000
,  // measure 16
010000
000001
000000
100000
000100
000000
001000
000010
001000
000100
010000
000010
100000
001000
000000
000000
,  // measure 17
001100
000000
000001
100000
000001
000000
001000
000100
010000
000100
000000
100000
000010
000000
001000
000000
,  // measure 18
000001
000100
000000
000100
000010
001000
000000
000001
100000
001000
000000
001000
010000
000100
000000
000000
,  // measure 19
001000
000000
000010
010000
001000
000000
000100
000001
100000
000001
000000
010000
000100
000000
001000
000000
,  // measure 20
001010
000000
000000
010100
000000
000000
101000
000000
000010
010000
000100
010000
000001
002000
000000
000000
,  // measure 21
003010
000000
001000
000000
000100
000000
100000
000001
100000
010000
100000
000010
001000
000000
000100
000000
,  // measure 22
010000
001000
000000
100000
000001
000100
000000
000010
000100
001000
000000
001000
010000
000010
000000
000000
,  // measure 23
001000
000000
000001
000000
000010
000000
001000
010000
000100
010000
001000
100000
000001
000000
001000
000000
,  // measure 24
000010
000100
000010
000000
000001
000100
000001
000000
000010
000100
000010
000000
000001
000100
000001
000000
,  // measure 25
100001
000000
010000
001000
100000
000000
000010
001000
000001
000000
000000
000100
001000
000000
100000
000000
,  // measure 26
000010
000000
001000
000000
000100
010000
000000
001000
010000
000001
000000
100000
001000
000100
000001
000000
,  // measure 27
000102
000000
000000
000000
000103
000010
000100
001000
020000
000000
000000
000000
030100
100000
000010
000000
,  // measure 28
001000
000001
000100
000010
010000
000000
001000
000000
100000
000001
100000
000000
100100
000000
101000
000000
,  // measure 29
001000
000000
000100
000010
010000
000001
001000
000000
000100
100000
001000
000000
000100
000001
000010
000000
,  // measure 30
000100
001000
100000
000010
010000
000000
000001
000000
001000
000100
100000
000000
000001
001000
000010
000000
,  // measure 31
001010
001010
001100
001100
010100
010100
100100
100100
,  // measure 32
100000
001000
000010
000001
001000
000100
010000
000010
,  // measure 33
010010
000000
000100
000000
100000
000000
000001
000100
000010
010000
001000
000000
100000
000001
001000
000000
,  // measure 34
000100
020100
030001
000120
100030
020001
031000
000000
,  // measure 35
000100
000010
000100
000000
000001
000000
001000
000000
000100
100000
000010
000000
010000
000000
001000
000000
,  // measure 36
000100
000000
000010
001000
000010
000000
010000
001000
010000
000000
000001
000000
000101
000000
001001
000000
,  // measure 37
000010
000000
100000
000001
001000
000100
010000
000000
001000
100000
000001
000000
000100
000000
001000
000000
,  // measure 38
100000
000000
000100
001000
000001
000000
000100
001000
010000
000010
010000
000000
000100
001000
000001
000000
,  // measure 39
000101
000101
010001
010001
011000
011000
001100
001100
,  // measure 40
000010
000100
000010
000000
000001
000100
000001
000000
000010
000100
000010
000000
000001
000100
000001
000000
,  // measure 41
100001
000000
100100
000000
000100
100000
001000
100000
000001
000000
001000
000010
000000
000010
010000
000000
,  // measure 42
001000
000000
100000
000000
000100
001000
000000
001000
000001
000100
000000
000100
000010
010000
000000
000000
,  // measure 43
011000
000000
000110
000000
100000
000001
000100
000010
001000
000000
000100
000000
010000
001000
010000
000010
,  // measure 44
100000
000000
000001
000000
000100
001000
010000
000010
001000
000000
000100
100000
000001
000000
001000
000000
,  // measure 45
001010
000000
001001
000000
000010
000100
010000
000000
011000
000000
010100
000000
100000
000001
000000
000001
,  // measure 46
000100
001000
010000
000000
000010
001000
000000
001000
000100
100000
000000
000001
100000
001000
000000
000100
,  // measure 47
000001
000000
000011
000000
001000
100000
000100
010000
000010
000000
100100
000000
000100
001000
000100
010000
,  // measure 48
000010
000100
000010
000100
000001
000100
000001
000100
000010
000100
000001
000100
000010
000100
000001
000000
,  // measure 49
100001
000000
000000
000000
;
